osu file format v14

[General]
AudioFilename: audio.mp3
AudioLeadIn: 0
PreviewTime: 340206
Countdown: 0
SampleSet: Soft
StackLeniency: 0.7
Mode: 2
LetterboxInBreaks: 0
WidescreenStoryboard: 1

[Editor]
Bookmarks: 29840,143464,143909,144190,144307,144401,144542,145057,145315,145714,146229,146464,146885,147589,147964
DistanceSpacing: 1.4
BeatDivisor: 4
GridSize: 16
TimelineZoom: 3.2

[Metadata]
Title:RE:CREATE
TitleUnicode:RE:CREATE
Artist:Kagura Hikari (CV: Mimori Suzuko), Daiba Nana (CV: Koizumi Moeka)
ArtistUnicode:神楽ひかり(CV:三森すずこ)、大場なな(CV:小泉萌香)
Creator:Beepu
Version:Reproduction
Source:少女☆歌劇 レヴュー・スタァライト
Tags:劇中歌アルバムVol.2「ラ レヴュー ド ソワレ」 shoujo☆kageki revue starlight album vol. 2: la revue de soirée nakamura kanata miyoshi keita fujisawa yoshiaki 小泉萌香 三森すずこ 少女☆歌劇 レヴュースタァライト
BeatmapID:1973629
BeatmapSetID:945085

[Difficulty]
HPDrainRate:6
CircleSize:5
OverallDifficulty:9.2
ApproachRate:9.2
SliderMultiplier:1.6
SliderTickRate:2

[Events]
//Background and Video events
0,0,"124.png",0,0
//Break Periods
//Storyboard Layer 0 (Background)
//Storyboard Layer 1 (Fail)
//Storyboard Layer 2 (Pass)
//Storyboard Layer 3 (Foreground)
//Storyboard Layer 4 (Overlay)
//Storyboard Sound Samples

[TimingPoints]
805,441.176470588235,4,2,0,50,1,0
14922,-100,4,2,0,40,0,0
15143,-100,4,2,0,60,0,0
16687,-100,4,2,0,40,0,0
17128,-100,4,2,0,60,0,0
18452,-100,4,2,0,40,0,0
18672,-100,4,2,0,60,0,0
21981,-100,4,2,0,40,0,0
22202,-100,4,2,0,60,0,0
23746,-100,4,2,0,40,0,0
23966,-100,4,2,0,60,0,0
25510,461.538461538462,4,2,0,40,1,0
25625,-100,4,2,0,50,0,0
26433,483.870967741935,4,2,0,40,1,0
27400,508.474576271186,4,2,0,30,1,0
28416,535.714285714286,4,2,0,20,1,0
29487,566.037735849057,4,2,0,20,1,0
29840,375,7,2,0,60,1,0
29840,-83.3333333333333,7,2,0,60,0,0
41652,375,4,2,0,80,1,0
41652,-83.3333333333333,4,2,0,80,0,0
42777,-100,4,2,0,90,0,0
42964,375,7,2,0,70,1,0
45964,-66.6666666666667,7,2,0,70,0,0
46714,-83.3333333333333,7,2,0,70,0,0
63214,-83.3333333333333,7,2,0,80,0,0
63589,-83.3333333333333,7,2,0,90,0,0
63964,-83.3333333333333,7,2,0,80,0,1
64057,-83.3333333333333,7,2,0,100,0,1
66589,-83.3333333333333,7,2,0,80,0,1
66682,-83.3333333333333,7,2,0,100,0,1
69214,-83.3333333333333,7,2,0,80,0,1
69307,-83.3333333333333,7,2,0,100,0,1
69776,-83.3333333333333,7,2,0,80,0,1
69870,-83.3333333333333,7,2,0,100,0,1
71839,-83.3333333333333,7,2,0,80,0,1
71932,-83.3333333333333,7,2,0,100,0,1
73151,-83.3333333333333,7,2,0,80,0,1
73245,-83.3333333333333,7,2,0,100,0,1
73526,-83.3333333333333,7,2,0,80,0,1
73620,-83.3333333333333,7,2,0,100,0,1
73901,-83.3333333333333,7,2,0,80,0,1
73995,-83.3333333333333,7,2,0,100,0,1
74276,-83.3333333333333,7,2,0,80,0,1
74370,-83.3333333333333,7,2,0,100,0,1
79714,-83.3333333333333,7,2,0,80,0,1
79807,-83.3333333333333,7,2,0,100,0,1
84589,-66.6666666666667,7,2,0,100,0,1
84964,375,3,2,0,70,1,0
93964,-100,3,2,0,80,0,0
102964,-100,3,2,0,70,0,0
103057,-100,3,2,0,80,0,0
104089,-100,3,2,0,70,0,0
104182,-100,3,2,0,80,0,0
106714,-100,3,2,0,90,0,0
107464,-100,3,2,0,80,0,1
107557,-100,3,2,0,100,0,1
109714,-100,3,2,0,90,0,1
109807,-100,3,2,0,100,0,1
110276,-100,3,2,0,90,0,1
110370,-100,3,2,0,100,0,1
110839,-100,3,2,0,90,0,1
110932,-100,3,2,0,100,0,1
111964,-100,3,2,0,80,0,1
112057,-100,3,2,0,100,0,1
114214,-100,3,2,0,90,0,1
114307,-100,3,2,0,100,0,1
114776,-100,3,2,0,90,0,1
114870,-100,3,2,0,100,0,1
115339,-100,3,2,0,90,0,1
115432,-100,3,2,0,100,0,1
116464,-100,3,2,0,80,0,1
116557,-100,3,2,0,100,0,1
118714,-100,3,2,0,80,0,1
118807,-100,3,2,0,100,0,1
120964,-100,3,2,0,80,0,1
121057,-100,3,2,0,100,0,1
123214,-100,3,2,0,90,0,1
123307,-100,3,2,0,100,0,1
125464,-55.5555555555556,3,2,0,100,0,1
128839,-100,3,2,0,80,0,0
129026,-100,3,2,0,60,0,0
131089,-100,3,2,0,50,0,0
131839,-100,3,2,0,60,0,0
132214,-100,3,2,0,70,0,0
133339,-100,3,2,0,80,0,0
134464,-133.333333333333,3,2,0,50,0,0
135214,-133.333333333333,3,2,0,40,0,0
141964,-133.333333333333,3,2,0,50,0,0
143909,-100,3,2,0,30,0,0
147964,-100,3,2,0,40,0,0
152464,-100,3,2,0,30,0,0
156964,-100,3,2,0,50,0,0
159214,-100,3,2,0,40,0,0
160714,-133.333333333333,3,2,0,30,0,0
161464,387.096774193548,3,2,0,100,1,0
161464,-100,3,2,0,50,0,1
168431,-100,3,2,0,55,0,1
170754,-100,3,2,0,60,0,1
175399,-100,3,2,0,50,0,0
184689,437.956204379562,3,2,0,50,1,0
185126,-100,3,2,0,60,0,0
186002,384.615384615385,3,2,0,50,1,0
186098,-100,3,2,0,60,0,0
188309,-100,3,2,0,50,0,0
188405,-100,3,2,0,60,0,0
190617,-100,3,2,0,50,0,0
190713,-100,3,2,0,60,0,0
195232,-100,3,2,0,50,0,0
195328,-100,3,2,0,60,0,0
197540,-100,3,2,0,50,0,0
197636,-100,3,2,0,60,0,0
204078,-100,3,2,0,65,0,0
204495,375,3,2,0,50,1,0
204588,-100,3,2,0,70,0,0
207120,-100,3,2,0,50,0,0
207213,-100,3,2,0,70,0,0
209370,-100,3,2,0,50,0,0
209463,-100,3,2,0,70,0,0
213120,-100,3,2,0,50,0,0
213213,-100,3,2,0,70,0,0
213495,-100,3,2,0,80,0,1
225870,-100,3,2,0,85,0,1
228120,-100,3,2,0,90,0,1
229995,-100,3,2,0,95,0,1
231120,-100,3,2,0,100,0,1
231495,-100,3,2,0,90,0,1
231870,-100,3,2,0,80,0,1
232245,-100,3,2,0,70,0,1
232620,-133.333333333333,3,2,0,60,0,0
232713,-133.333333333333,3,2,0,50,0,0
236745,-133.333333333333,3,2,0,60,0,0
237963,-133.333333333333,3,2,0,50,0,0
240495,-133.333333333333,3,2,0,60,0,0
246120,-133.333333333333,3,2,0,50,0,0
247245,-133.333333333333,3,2,0,40,0,0
248370,674.157303370787,3,2,0,30,1,0
251066,461.538461538462,4,2,0,40,1,0
251066,-100,4,2,0,40,0,0
256604,512.820512820513,4,2,0,30,1,0
258692,500,4,2,0,20,1,0
269694,-100,4,2,0,25,0,0
273694,631.578947368421,4,2,0,30,1,0
274957,384.615384615385,3,2,0,40,1,0
276110,-100,3,2,0,40,0,0
276303,-100,3,2,0,50,0,0
277264,-100,3,2,0,40,0,0
277457,-100,3,2,0,50,0,0
278418,375,3,2,0,50,1,0
278418,-100,3,2,0,40,0,0
278511,-100,3,2,0,50,0,0
279543,-100,3,2,0,40,0,0
279730,-100,3,2,0,50,0,0
281793,-100,3,2,0,40,0,0
281886,-100,3,2,0,50,0,0
287418,384.615384615385,3,2,0,60,1,0
287418,-83.3333333333333,3,2,0,60,0,0
289725,444.444444444444,3,2,0,50,1,0
290391,-100,3,2,0,40,0,0
291058,-100,3,2,0,50,0,0
292391,400,3,2,0,60,1,0
292791,-100,3,2,0,45,0,0
293591,444.444444444444,3,2,0,40,1,0
294924,480,3,2,0,40,1,0
296364,521.739130434783,3,2,0,40,1,0
296885,-100,3,2,0,45,0,0
297407,-100,3,2,0,50,0,0
297929,419.58041958042,4,2,0,80,1,0
297929,-100,4,2,0,80,0,1
321425,-83.3333333333333,4,2,0,80,0,1
322264,-71.4285714285714,4,2,0,80,0,1
323103,-100,4,2,0,60,0,0
325621,428.571428571429,4,2,0,60,1,0
325674,-100,4,2,0,40,0,0
326049,-100,4,2,0,60,0,0
326103,-100,4,2,0,40,0,0
326478,428.571428571429,4,2,0,50,1,0
331717,-100,4,2,0,55,0,0
333335,-100,4,2,0,60,0,0
338478,-100,4,2,0,55,0,0
340192,-100,4,2,0,90,0,1
340299,-100,4,2,0,90,0,1
340620,-66.6666666666667,4,2,0,90,0,1
341478,-100,4,2,0,90,0,1
350478,434.782608695652,4,2,0,70,1,0
353086,-83.3333333333333,4,2,0,80,0,0
353521,-71.4285714285714,4,2,0,80,0,0
353938,425.531914893617,4,2,0,70,1,0
353938,-100,4,2,0,70,0,0
359044,-100,4,2,0,80,0,0
360746,-100,4,2,0,80,0,1
360799,-100,4,2,0,60,0,1
361172,-100,4,2,0,70,0,1
361597,-83.3333333333333,4,2,0,75,0,1
362023,-71.4285714285714,4,2,0,80,0,1
362448,434.782608695652,4,2,0,90,1,0
362448,-100,4,2,0,90,0,0
362665,-100,4,2,0,50,0,0
363317,-100,4,2,0,70,0,0
364187,425.531914893617,4,2,0,70,1,0
366527,-100,4,2,0,60,0,0
367591,419.58041958042,4,2,0,70,1,0
369898,-100,4,2,0,60,0,0
370947,-100,4,2,0,70,0,0
374304,-100,4,2,0,80,0,0
377660,-100,4,2,0,60,0,0
377765,-100,4,2,0,50,0,0
379339,451.127819548872,4,2,0,50,1,0
380241,487.80487804878,4,2,0,40,1,0
381216,530.973451327434,4,2,0,30,1,0
382277,555.555555555556,4,2,0,20,1,0
382832,645.161290322581,4,2,0,20,1,0
383504,705.882352941176,4,2,0,30,1,0
389151,-100,4,2,0,20,0,0
391268,-100,4,2,0,10,0,0
391621,-66.6666666666667,4,2,0,70,0,0

[Colours]
Combo1 : 0,255,0
Combo2 : 0,0,255
Combo3 : 255,255,0
Combo4 : 255,255,255

[HitObjects]
320,288,584,5,0,0:0:0:0:
272,288,694,1,0,0:0:0:0:
208,288,805,38,0,P|136:232|240:136,1,240,4|0,0:1|0:0,0:0:0:0:
320,128,1687,2,0,P|408:136|368:272,1,240,2|0,0:0|0:0,0:0:0:0:
288,256,2569,22,0,P|192:208|224:80,1,240,2|0,0:0|0:0,0:0:0:0:
320,96,3452,2,0,P|320:208|192:208,1,240,2|0,0:0|0:0,0:0:0:0:
320,224,4334,38,0,B|472:224|472:224|352:224,1,240,2|0,0:0|0:0,0:0:0:0:
272,224,5216,2,0,P|208:128|288:48,1,240,2|0,0:0|0:0,0:0:0:0:
400,48,6099,6,0,P|432:96|384:144,1,120,2|0,0:0|0:0,0:0:0:0:
160,144,6540,1,2,0:0:0:0:
256,144,6760,1,2,0:0:0:0:
128,144,6981,1,2,0:0:0:0:
288,144,7202,1,2,0:0:0:0:
128,144,7422,5,2,0:0:0:0:
240,144,7643,2,0,L|256:80,1,40,2|0,0:0|0:0,0:0:0:0:
128,80,7863,6,0,P|72:120|128:256,1,240,2|0,0:0|0:0,0:0:0:0:
240,256,8746,2,0,B|400:256|400:256|400:152,1,240,2|0,0:0|0:0,0:0:0:0:
288,176,9628,38,0,P|224:192|240:288,1,160,2|0,0:0|0:0,0:0:0:0:
336,272,10290,1,0,0:0:0:0:
222,274,10510,2,0,L|310:274,1,80,2|0,0:0|0:0,0:0:0:0:
416,272,10952,2,0,L|336:272,1,80,2|0,0:0|0:0,0:0:0:0:
144,160,11393,6,0,P|96:224|176:272,1,160,2|0,0:0|0:0,0:0:0:0:
256,272,12054,1,0,0:0:0:0:
96,160,12275,2,0,P|48:208|96:272,1,160,2|0,0:0|0:0,0:0:0:0:
288,272,12937,1,0,0:0:0:0:
480,112,13157,6,0,L|480:288,1,160,2|0,0:0|0:0,0:0:0:0:
256,48,14040,5,2,0:0:0:0:
236,45,14095,1,0,0:0:0:0:
217,51,14150,1,0,0:0:0:0:
204,65,14205,1,0,0:0:0:0:
198,84,14260,1,2,0:0:0:0:
202,104,14315,1,0,0:0:0:0:
215,119,14370,1,0,0:0:0:0:
233,127,14426,1,0,0:0:0:0:
256,128,14481,2,0,L|344:128,1,80,2|2,0:0|0:0,0:0:0:0:
160,128,14922,5,4,0:3:0:0:
80,160,15142,1,0,0:0:0:0:
80,240,15363,1,2,0:0:0:0:
158,279,15583,1,2,0:0:0:0:
272,272,15804,1,2,0:0:0:0:
384,272,16025,1,0,0:0:0:0:
272,272,16246,1,2,0:0:0:0:
384,272,16466,1,2,0:0:0:0:
272,272,16687,5,4,0:3:0:0:
160,272,16907,1,0,0:0:0:0:
272,272,17128,1,2,0:0:0:0:
384,272,17348,1,2,0:0:0:0:
272,272,17569,1,2,0:0:0:0:
384,272,17790,1,0,0:0:0:0:
208,64,18010,1,2,0:0:0:0:
188,68,18065,1,0,0:0:0:0:
174,82,18120,1,0,0:0:0:0:
167,100,18175,1,0,0:0:0:0:
170,120,18230,1,2,0:0:0:0:
182,136,18285,1,0,0:0:0:0:
200,144,18340,1,0,0:0:0:0:
256,144,18452,5,4,0:3:0:0:
144,144,18672,1,0,0:0:0:0:
256,144,18893,1,2,0:0:0:0:
368,144,19113,1,2,0:0:0:0:
256,144,19334,1,2,0:0:0:0:
144,144,19554,1,0,0:0:0:0:
320,144,19775,1,2,0:0:0:0:
256,144,19885,1,2,0:0:0:0:
192,144,19996,1,2,0:0:0:0:
128,144,20106,1,2,0:0:0:0:
256,96,20216,5,2,0:3:0:0:
320,160,20436,1,0,0:0:0:0:
288,240,20657,1,0,0:0:0:0:
208,240,20877,1,0,0:0:0:0:
48,240,21099,2,0,P|48:176|128:128,1,160,2|2,0:3|0:0,0:0:0:0:
240,128,21760,1,0,0:0:0:0:
400,128,21981,5,4,0:3:0:0:
480,176,22201,1,0,0:0:0:0:
480,256,22422,1,2,0:0:0:0:
400,288,22642,1,2,0:0:0:0:
288,288,22863,1,2,0:0:0:0:
400,288,23083,1,0,0:0:0:0:
288,288,23304,1,2,0:0:0:0:
176,288,23524,1,2,0:0:0:0:
288,288,23746,5,4,0:3:0:0:
176,288,23966,1,0,0:0:0:0:
368,288,24187,2,0,L|384:208,1,80,2|0,0:0|0:0,0:0:0:0:
256,288,24628,2,0,L|256:208,1,80,2|0,0:0|0:0,0:0:0:0:
144,288,25069,2,0,L|128:208,1,80,2|2,0:0|0:0,0:0:0:0:
320,288,25510,6,0,L|416:288,3,80,6|0|0|0,0:3|0:0|0:0|0:0,0:0:0:0:
192,288,26433,6,0,L|104:288,3,80,2|0|0|0,0:3|0:0|0:0|0:0,0:0:0:0:
320,288,27400,6,0,P|336:224|304:176,1,120,2|0,0:3|0:0,0:0:0:0:
256,176,27908,1,0,0:0:0:0:
128,296,28416,6,0,P|88:232|224:56,1,320,2|0,0:0|0:0,0:0:0:0:
336,192,29840,6,0,L|448:192,1,95.9999970703126,2|0,0:0|0:0,0:0:0:0:
336,192,30215,2,0,L|256:272,1,95.9999970703126
360,192,30590,2,0,L|248:192,1,95.9999970703126,2|0,0:0|0:0,0:0:0:0:
432,192,30965,6,0,L|456:96,1,95.9999970703126
360,192,31340,2,0,L|248:192,1,95.9999970703126
408,96,31715,2,0,L|304:96,2,95.9999970703126,2|0|2,0:0|0:0|0:0,0:0:0:0:
160,192,32465,6,0,L|256:192,1,95.9999970703126,2|0,0:0|0:0,0:0:0:0:
160,192,32840,2,0,L|88:264,1,95.9999970703126
192,192,33215,2,0,L|320:192,1,95.9999970703126,2|0,0:0|0:0,0:0:0:0:
128,192,33590,6,0,L|208:112,1,95.9999970703126,2|0,0:0|0:0,0:0:0:0:
296,120,33965,2,0,L|168:120,1,95.9999970703126
72,120,34340,2,0,L|208:120,2,95.9999970703126,2|0|2,0:0|0:0|0:0,0:0:0:0:
320,192,35090,6,0,L|320:288,1,95.9999970703126,2|0,0:0|0:0,0:0:0:0:
224,192,35465,2,0,L|224:80,1,95.9999970703126
352,192,35840,2,0,L|256:192,1,95.9999970703126,2|0,0:0|0:0,0:0:0:0:
448,192,36215,6,0,L|448:80,1,95.9999970703126,2|0,0:0|0:0,0:0:0:0:
328,192,36590,2,0,L|328:88,1,95.9999970703126
448,192,36965,1,2,0:0:0:0:
288,192,37152,1,2,0:0:0:0:
112,88,37340,1,2,0:0:0:0:
88,92,37386,1,0,0:0:0:0:
71,108,37433,1,0,0:0:0:0:
64,131,37480,1,0,0:0:0:0:
69,154,37527,1,2,0:0:0:0:
85,171,37574,1,0,0:0:0:0:
108,177,37621,1,0,0:0:0:0:
136,176,37668,1,0,0:0:0:0:
360,160,37715,6,0,L|440:80,1,95.9999970703126,2|0,0:0|0:0,0:0:0:0:
256,160,38090,2,0,L|152:160,2,95.9999970703126,2|0|2,0:0|0:0|0:0,0:0:0:0:
392,128,38652,1,0,0:0:0:0:
256,104,38840,6,0,L|384:104,1,95.9999970703126,0|2,0:0|0:0,0:0:0:0:
464,104,39215,1,2,0:0:0:0:
320,104,39402,1,0,0:0:0:0:
200,104,39590,2,0,L|296:104,1,95.9999970703126,2|0,0:0|0:0,0:0:0:0:
120,104,39965,5,2,0:0:0:0:
84,134,40058,1,0,0:0:0:0:
84,181,40152,1,2,0:0:0:0:
118,213,40246,1,0,0:0:0:0:
232,104,40340,1,2,0:0:0:0:
316,134,40527,1,0,0:0:0:0:
314,224,40715,1,2,0:0:0:0:
228,250,40902,1,0,0:0:0:0:
88,72,41090,2,0,L|20:139,2,95.9999970703126,2|0|2,0:0|0:0|0:0,0:0:0:0:
328,104,41652,6,0,P|360:136|320:224,1,143.999995605469,2|0,0:0|0:0,0:0:0:0:
184,104,42027,2,0,P|147:160|182:219,1,143.999995605469,2|0,0:0|0:0,0:0:0:0:
416,104,42402,2,0,P|432:176|376:200,1,143.999995605469,2|0,0:0|0:0,0:0:0:0:
72,136,42777,1,2,0:0:0:0:
184,136,42964,6,0,L|272:136,1,80,2|0,0:3|0:0,0:0:0:0:
104,136,43339,1,2,0:0:0:0:
224,136,43526,1,0,0:0:0:0:
64,64,43714,2,0,P|24:128|104:184,1,160,2|2,0:0|0:0,0:0:0:0:
192,184,44276,1,0,0:0:0:0:
352,184,44464,6,0,L|360:280,1,80,2|0,0:0|0:0,0:0:0:0:
216,264,44839,1,2,0:0:0:0:
336,264,45026,1,0,0:0:0:0:
152,184,45214,1,2,0:0:0:0:
272,184,45401,1,0,0:0:0:0:
72,184,45589,6,0,L|64:280,1,80,2|0,0:3|0:0,0:0:0:0:
216,56,45964,1,2,0:0:0:0:
307,126,46151,1,0,0:0:0:0:
305,242,46339,1,2,0:0:0:0:
212,310,46526,1,0,0:0:0:0:
64,312,46714,2,0,L|176:312,1,95.9999970703126,2|0,0:0|0:0,0:0:0:0:
304,312,47089,6,0,P|352:264|272:160,1,191.999994140625,2|2,0:0|0:0,0:0:0:0:
192,168,47651,1,2,0:0:0:0:
336,168,47839,2,0,L|408:96,1,95.9999970703126,2|0,0:0|0:0,0:0:0:0:
256,64,48214,6,0,L|152:64,1,95.9999970703126,2|0,0:3|0:0,0:0:0:0:
320,64,48589,2,0,L|224:64,1,95.9999970703126,2|0,0:0|0:0,0:0:0:0:
400,64,48964,2,0,L|424:184,1,95.9999970703126,2|0,0:0|0:0,0:0:0:0:
256,56,49339,2,0,P|216:88|224:152,1,95.9999970703126,2|0,0:0|0:0,0:0:0:0:
288,128,49620,1,0,0:0:0:0:
392,128,49714,6,0,L|408:224,1,95.9999970703126,2|0,0:0|0:0,0:0:0:0:
256,128,50089,1,2,0:0:0:0:
182,185,50276,1,2,0:0:0:0:
183,277,50464,1,2,0:0:0:0:
256,334,50651,1,0,0:0:0:0:
408,336,50839,6,0,L|296:336,1,95.9999970703126,2|0,0:3|0:0,0:0:0:0:
160,336,51214,2,0,L|256:336,1,95.9999970703126,2|0,0:0|0:0,0:0:0:0:
408,336,51589,2,0,P|464:280|376:200,1,191.999994140625,2|2,0:0|0:0,0:0:0:0:
288,200,52151,1,0,0:0:0:0:
112,192,52339,6,0,L|88:288,1,95.9999970703126,2|0,0:0|0:0,0:0:0:0:
328,224,52714,1,2,0:0:0:0:
232,224,52901,1,2,0:0:0:0:
136,224,53089,1,2,0:0:0:0:
232,224,53276,1,0,0:0:0:0:
392,224,53464,6,0,L|296:224,1,95.9999970703126,2|0,0:3|0:0,0:3:0:0:
152,224,53839,2,0,L|48:224,1,95.9999970703126,2|0,0:0|0:0,0:0:0:0:
216,224,54214,2,0,L|328:224,1,95.9999970703126,2|0,0:0|0:0,0:0:0:0:
128,64,54589,6,0,P|80:152|136:232,1,191.999994140625,2|2,0:0|0:0,0:0:0:0:
264,224,55151,1,0,0:0:0:0:
120,224,55339,2,0,L|240:224,1,95.9999970703126,2|2,0:0|0:0,0:0:0:0:
368,224,55714,2,0,L|272:224,1,95.9999970703126,2|0,0:0|0:0,0:0:0:0:
400,224,56089,6,0,L|432:128,1,95.9999970703126,2|0,0:3|0:0,0:0:0:0:
248,224,56464,2,0,L|224:128,1,95.9999970703126,2|0,0:0|0:0,0:0:0:0:
392,168,56839,2,0,L|504:168,1,95.9999970703126,2|0,0:0|0:0,0:0:0:0:
328,64,57214,6,0,P|256:104|304:184,1,191.999994140625,2|2,0:0|0:0,0:0:0:0:
424,184,57776,1,0,0:0:0:0:
299,181,57964,2,0,L|193:181,1,95.9999970703126,2|0,0:0|0:0,0:0:0:0:
360,184,58339,2,0,L|440:104,1,95.9999970703126,2|0,0:0|0:0,0:0:0:0:
144,184,58714,6,0,L|40:184,1,95.9999970703126,2|0,0:3|0:0,0:0:0:0:
208,48,59089,1,2,0:0:0:0:
286,95,59276,1,0,0:0:0:0:
285,187,59464,1,2,0:0:0:0:
206,232,59651,1,0,0:0:0:0:
96,232,59839,6,0,L|200:232,1,95.9999970703126,0|2,0:0|0:0,0:0:0:0:
40,232,60214,2,0,L|16:328,1,95.9999970703126,2|0,0:0|0:0,0:0:0:0:
144,112,60589,1,2,0:0:0:0:
240,112,60776,1,2,0:0:0:0:
336,112,60964,1,2,0:0:0:0:
432,112,61151,1,0,0:0:0:0:
288,112,61339,6,0,L|176:112,1,95.9999970703126,2|0,0:3|0:0,0:0:0:0:
40,112,61714,2,0,L|136:112,1,95.9999970703126,2|0,0:0|0:0,0:0:0:0:
312,112,62089,2,0,P|360:208|288:216,1,191.999994140625,2|2,0:0|0:0,0:0:0:0:
160,224,62651,1,0,0:0:0:0:
312,224,62839,6,0,L|352:120,1,95.9999970703126,2|0,0:0|0:0,0:0:0:0:
128,224,63214,1,2,0:0:0:0:
312,224,63401,1,2,0:0:0:0:
72,224,63589,2,0,L|48:120,1,95.9999970703126,2|0,0:3|0:0,0:0:0:0:
128,112,63870,1,0,0:0:0:0:
336,224,63964,6,0,P|400:192|368:112,1,143.999995605469,4|0,0:3|0:0,0:0:0:0:
280,128,64339,2,0,L|176:128,1,95.9999970703126,2|0,0:3|0:0,0:0:0:0:
336,80,64714,1,2,0:0:0:0:
160,80,64901,1,0,0:0:0:0:
304,80,65089,6,0,L|408:80,1,95.9999970703126,0|2,0:0|0:3,0:0:0:0:
272,80,65464,2,0,L|200:152,1,95.9999970703126
424,80,65839,1,2,0:0:0:0:
492,143,66026,1,0,0:0:0:0:
493,236,66214,1,2,0:0:0:0:
425,300,66401,1,2,0:0:0:0:
352,304,66495,1,0,0:0:0:0:
176,304,66589,6,0,L|152:208,1,95.9999970703126,4|0,0:3|0:0,0:0:0:0:
288,304,66964,2,0,L|400:304,1,95.9999970703126,2|0,0:3|0:0,0:0:0:0:
256,304,67339,1,2,0:0:0:0:
376,304,67526,1,0,0:0:0:0:
200,304,67714,5,2,0:0:0:0:
344,304,67901,2,0,P|352:240|248:176,1,191.999994140625
104,80,68464,2,0,L|72:176,1,95.9999970703126,2|0,0:0|0:0,0:0:0:0:
160,168,68745,1,0,0:0:0:0:
352,168,68839,1,2,0:0:0:0:
224,168,69026,2,0,L|160:168,1,47.9999985351563
448,168,69214,6,0,L|472:64,1,95.9999970703126,8|2,0:0|0:0,0:0:0:0:
176,80,69589,1,2,0:0:0:0:
448,168,69776,2,0,L|472:64,1,95.9999970703126,8|2,0:0|0:0,0:0:0:0:
280,80,70151,1,0,0:0:0:0:
384,80,70339,5,2,0:0:0:0:
136,80,70526,2,0,L|216:80,1,47.9999985351563,2|0,0:3|0:0,0:0:0:0:
256,80,70714,2,0,L|136:80,1,95.9999970703126,2|0,0:0|0:0,0:0:0:0:
352,80,71089,2,0,L|256:80,1,95.9999970703126,2|0,0:0|0:0,0:0:0:0:
432,80,71464,2,0,L|464:184,1,95.9999970703126,2|2,0:0|0:3,0:0:0:0:
384,176,71745,1,0,0:0:0:0:
184,80,71839,6,0,P|136:128|168:192,1,143.999995605469,4|0,0:3|0:0,0:0:0:0:
256,192,72214,2,0,L|352:192,1,95.9999970703126,2|0,0:0|0:0,0:0:0:0:
200,192,72589,2,0,L|184:88,1,95.9999970703126,2|2,0:0|0:3,0:0:0:0:
352,192,72964,1,0,0:0:0:0:
104,192,73151,6,0,L|96:48,1,143.999995605469,8|0,0:0|0:0,0:0:0:0:
192,48,73526,2,0,L|80:48,1,95.9999970703126,8|0,0:0|0:0,0:0:0:0:
464,136,73901,2,0,L|488:248,1,95.9999970703126,8|0,0:0|0:0,0:0:0:0:
392,136,74182,1,0,0:0:0:0:
320,136,74276,1,8,0:0:0:0:
80,96,74464,6,0,P|24:160|72:224,1,143.999995605469,4|0,0:0|0:0,0:0:0:0:
144,208,74839,2,0,L|256:208,1,95.9999970703126,2|0,0:3|0:0,0:0:0:0:
376,208,75214,1,0,0:0:0:0:
208,208,75401,1,0,0:0:0:0:
456,208,75589,5,2,0:0:0:0:
144,208,75776,2,0,P|104:176|160:56,1,191.999994140625,2|0,0:0|0:0,0:0:0:0:
312,192,76339,2,0,L|416:192,1,95.9999970703126
312,192,76620,1,0,0:0:0:0:
200,192,76714,2,0,L|120:112,1,95.9999970703126,2|0,0:0|0:0,0:0:0:0:
392,192,77089,6,0,L|504:192,2,95.9999970703126,2|0|2,0:0|0:0|0:3,0:0:0:0:
224,192,77651,1,0,0:0:0:0:
360,192,77839,2,0,L|264:192,1,95.9999970703126
392,192,78214,5,2,0:0:0:0:
104,128,78401,2,0,L|80:224,1,95.9999970703126,2|0,0:0|0:0,0:0:0:0:
336,192,78776,1,2,0:0:0:0:
192,192,78964,1,0,0:0:0:0:
448,200,79151,2,0,L|472:88,1,95.9999970703126,2|0,0:0|0:0,0:0:0:0:
192,192,79526,1,2,0:0:0:0:
464,48,79714,6,0,P|488:152|400:200,1,191.999994140625,4|2,0:3|0:3,0:0:0:0:
304,200,80276,1,0,0:0:0:0:
160,200,80464,1,0,0:0:0:0:
336,200,80651,1,0,0:0:0:0:
80,200,80839,5,2,0:0:0:0:
336,96,81026,2,0,L|416:176,2,95.9999970703126,2|0|0,0:0|0:0|0:0,0:0:0:0:
160,96,81589,1,0,0:0:0:0:
288,96,81776,2,0,L|336:96,1,47.9999985351563,2|0,0:0|0:0,0:0:0:0:
128,96,81964,2,0,L|80:192,1,95.9999970703126,2|0,0:0|0:0,0:0:0:0:
392,96,82339,6,0,P|432:144|432:208,1,95.9999970703126,4|2,0:1|0:0,0:0:0:0:
368,192,82620,1,0,0:0:0:0:
224,192,82714,2,0,L|296:192,1,47.9999985351563,2|0,0:0|0:0,0:0:0:0:
368,240,82901,2,0,L|304:240,1,47.9999985351563,2|0,0:0|0:0,0:0:0:0:
200,240,83089,2,0,L|136:240,1,47.9999985351563,2|0,0:0|0:0,0:0:0:0:
272,192,83276,2,0,L|328:192,1,47.9999985351563,2|0,0:0|0:0,0:0:0:0:
416,192,83464,2,0,L|368:192,1,47.9999985351563,2|0,0:0|0:0,0:0:0:0:
144,64,83651,6,0,P|88:128|152:208,1,191.999994140625,2|2,0:0|0:0,0:0:0:0:
288,216,84214,1,0,0:0:0:0:
40,208,84401,2,0,L|96:208,1,47.9999985351563,2|0,0:0|0:0,0:0:0:0:
344,216,84589,2,0,P|392:160|360:96,1,120.000004577637,2|2,0:0|0:0,0:0:0:0:
144,40,84964,6,0,P|88:64|168:264,1,320,2|0,0:0|0:0,0:0:0:0:
400,272,86089,6,0,P|416:216|328:168,1,160,2|0,0:0|0:0,0:0:0:0:
224,176,86651,1,0,0:0:0:0:
344,112,86839,2,0,L|232:112,1,80,2|0,0:0|0:0,0:0:0:0:
136,112,87214,6,0,P|104:176|152:248,1,160,2|0,0:0|0:0,0:0:0:0:
264,248,87776,1,0,0:0:0:0:
390,245,87964,2,0,L|414:141,1,80
288,56,88339,6,0,P|216:96|240:176,1,160,2|2,0:0|0:0,0:0:0:0:
344,168,88901,1,0,0:0:0:0:
448,168,89089,2,0,L|472:80,1,80,2|0,0:0|0:0,0:0:0:0:
344,56,89464,6,0,P|272:88|304:296,1,320,2|0,0:0|0:0,0:0:0:0:
112,256,90589,6,0,P|136:176|352:160,1,320,2|0,0:0|0:0,0:0:0:0:
200,192,91620,1,0,0:0:0:0:
168,192,91667,1,0,0:0:0:0:
136,192,91714,6,0,L|48:192,2,80,2|2|2,0:0|0:0|0:0,0:0:0:0:
256,192,92276,2,0,P|296:168|248:80,1,160,2|0,0:0|0:0,0:0:0:0:
176,80,92745,1,0,0:0:0:0:
72,80,92839,6,2,L|152:80,1,80
352,80,93214,2,0,P|392:120|320:200,1,160,2|2,0:0|0:0,0:0:0:0:
248,208,93682,1,0,0:0:0:0:
232,192,93728,1,0,0:0:0:0:
224,176,93775,1,0,0:0:0:0:
230,153,93822,1,0,0:0:0:0:
244,136,93869,1,0,0:0:0:0:
264,128,93917,1,0,0:0:0:0:
416,256,93964,6,0,P|432:192|336:136,1,160,4|0,0:1|0:0,0:0:0:0:
256,128,94526,1,0,0:0:0:0:
112,128,94714,2,0,L|72:240,1,80,2|0,0:0|0:0,0:0:0:0:
224,64,95089,5,2,0:0:0:0:
284,112,95276,1,0,0:0:0:0:
284,189,95464,1,0,0:0:0:0:
224,237,95651,1,0,0:0:0:0:
112,240,95839,2,0,L|192:240,1,80,2|0,0:0|0:0,0:0:0:0:
352,240,96214,6,0,L|176:240,1,160,2|0,0:0|0:0,0:0:0:0:
296,240,96776,1,0,0:0:0:0:
416,240,96964,2,0,L|440:160,1,80,2|0,0:0|0:0,0:0:0:0:
320,168,97339,6,0,L|408:168,1,80,2|0,0:0|0:0,0:0:0:0:
272,168,97714,2,0,L|256:80,1,80
456,168,98089,2,0,L|488:272,1,80,2|0,0:0|0:0,0:0:0:0:
112,240,98464,6,0,L|104:144,1,80,2|0,0:3|0:0,0:0:0:0:
256,168,98839,1,2,0:0:0:0:
112,304,99026,2,0,P|88:256|184:136,1,200,2|0,0:0|0:0,0:0:0:0:
256,144,99589,6,0,L|368:144,1,80,2|0,0:3|0:0,0:0:0:0:
224,144,99964,1,2,0:0:0:0:
368,144,100151,1,2,0:0:0:0:
256,80,100339,2,0,L|168:80,1,80
416,152,100714,6,0,L|328:152,1,80,2|0,0:3|0:0,0:0:0:0:
448,152,101089,1,2,0:0:0:0:
336,56,101276,2,0,P|272:96|264:224,1,200,2|0,0:0|0:0,0:0:0:0:
368,208,101839,6,0,L|280:208,1,80,2|0,0:3|0:0,0:0:0:0:
176,208,102214,1,2,0:0:0:0:
288,208,102401,1,2,0:0:0:0:
120,160,102589,2,0,L|88:80,1,80,2|0,0:0|0:0,0:0:0:0:
152,80,102870,1,0,0:0:0:0:
424,144,102964,6,2,L|264:144,2,160,8|2|2,0:0|0:0|0:0,0:0:0:0:
344,144,103901,1,0,0:0:0:0:
88,144,104089,6,2,L|248:144,2,160,8|2|2,0:0|0:0|0:0,0:0:0:0:
280,96,105214,6,0,P|312:128|264:232,1,160,2|2,0:0|0:0,0:0:0:0:
392,224,105776,1,2,0:0:0:0:
256,224,105964,2,0,L|336:224,1,80
176,224,106339,6,0,P|144:200|168:144,1,80
224,144,106620,1,0,0:0:0:0:
352,144,106714,2,0,L|264:144,1,80,2|0,0:0|0:0,0:0:0:0:
136,144,107089,2,0,L|216:144,1,80,2|0,0:0|0:0,0:0:0:0:
464,144,107464,6,0,L|480:256,1,80,4|0,0:3|0:0,0:0:0:0:
400,224,107745,1,0,0:0:0:0:
224,160,107839,2,0,L|152:160,2,40,2|0|2,0:0|0:0|0:0,0:0:0:0:
400,168,108214,2,0,L|424:80,1,80,2|2,0:0|0:0,0:0:0:0:
160,72,108589,6,0,L|256:72,1,80,2|0,0:3|0:0,0:0:0:0:
184,72,108870,1,0,0:0:0:0:
56,72,108964,2,0,L|40:176,1,80,2|0,0:0|0:0,0:0:0:0:
288,144,109339,1,2,0:0:0:0:
144,144,109526,1,2,0:0:0:0:
440,248,109714,6,0,P|488:192|424:144,1,160,4|2,0:0|0:0,0:0:0:0:
224,168,110276,2,0,L|112:168,2,80,4|0|0,0:0|0:0|0:0,0:0:0:0:
464,88,110839,6,0,P|472:144|448:168,1,80,4|2,0:0|0:0,0:0:0:0:
368,160,111120,1,0,0:0:0:0:
224,88,111214,2,0,L|304:88,1,80,2|0,0:0|0:0,0:0:0:0:
144,160,111589,1,2,0:0:0:0:
304,160,111776,2,0,L|352:160,1,40
120,64,111964,6,0,P|64:104|136:144,1,160,4|2,0:0|0:3,0:0:0:0:
256,152,112526,1,0,0:0:0:0:
88,160,112714,2,0,L|152:224,1,80,2|0,0:0|0:0,0:0:0:0:
392,152,113089,5,2,0:0:0:0:
256,152,113276,1,0,0:0:0:0:
448,152,113464,1,2,0:0:0:0:
144,144,113651,1,0,0:0:0:0:
296,144,113839,2,0,L|216:144,1,80,2|0,0:3|0:0,0:0:0:0:
456,72,114214,6,0,P|480:152|408:200,1,160,4|0,0:0|0:0,0:0:0:0:
256,192,114776,2,0,L|160:192,1,80,4|0,0:0|0:0,0:0:0:0:
344,192,115151,1,2,0:0:0:0:
80,192,115339,5,4,0:0:0:0:
256,192,115526,2,0,L|256:104,1,80,2|0,0:0|0:0,0:0:0:0:
120,112,115901,2,0,L|200:112,1,80,0|2,0:0|0:3,0:0:0:0:
288,112,116182,2,0,L|344:112,2,40,0|2|0,0:0|0:0|0:0,0:0:0:0:
64,112,116464,6,0,P|72:192|104:192,1,120,4|0,0:0|0:0,0:0:0:0:
200,200,116839,2,0,L|312:200,1,80,2|0,0:3|0:0,0:0:0:0:
448,176,117214,2,0,L|360:176,1,80,2|0,0:0|0:0,0:0:0:0:
96,104,117589,6,0,L|96:216,1,80,2|0,0:0|0:0,0:0:0:0:
416,104,117964,2,0,L|416:216,1,80,2|2,0:0|0:0,0:0:0:0:
336,104,118245,1,0,0:0:0:0:
176,104,118339,2,0,L|288:104,1,80,2|0,0:0|0:0,0:0:0:0:
176,104,118620,1,0,0:0:0:0:
416,312,118714,6,0,B|328:312|328:312|304:256,1,120,4|0,0:0|0:0,0:0:0:0:
416,216,119089,2,0,L|472:160,1,80,2|0,0:3|0:0,0:0:0:0:
288,192,119464,2,0,L|208:192,1,80,2|0,0:0|0:0,0:0:0:0:
448,192,119839,5,2,0:0:0:0:
152,192,120026,1,0,0:0:0:0:
256,112,120214,1,2,0:0:0:0:
296,136,120307,1,0,0:0:0:0:
296,175,120401,1,2,0:0:0:0:
255,201,120495,1,0,0:0:0:0:
88,256,120589,2,0,L|128:256,1,40,2|0,0:0|0:0,0:0:0:0:
424,256,120776,2,0,L|384:256,1,40
128,56,120964,6,0,P|80:96|144:168,1,160,4|2,0:0|0:3,0:0:0:0:
256,184,121526,2,0,L|312:184,1,40,2|0,0:0|0:0,0:0:0:0:
200,184,121714,1,0,0:0:0:0:
336,184,121901,1,2,0:0:0:0:
96,120,122089,6,0,L|0:120,1,80,2|0,0:0|0:0,0:0:0:0:
96,120,122370,1,0,0:0:0:0:
368,104,122464,2,0,L|280:104,1,80,2|0,0:0|0:0,0:0:0:0:
104,104,122839,2,0,L|192:104,1,80,2|0,0:0|0:0,0:0:0:0:
288,104,123120,1,0,0:0:0:0:
440,48,123214,6,0,P|464:112|400:128,1,120,4|0,0:0|0:0,0:0:0:0:
256,136,123589,2,0,L|160:136,1,80,2|0,0:3|0:0,0:0:0:0:
312,136,123964,1,2,0:0:0:0:
136,136,124151,2,0,L|184:136,1,40,2|0,0:0|0:0,0:0:0:0:
440,136,124339,6,0,L|440:248,1,80,2|0,0:0|0:0,0:0:0:0:
256,184,124714,2,0,L|352:184,1,80,2|0,0:0|0:0,0:0:0:0:
72,216,125089,2,0,P|40:168|96:120,1,120,2|0,0:0|0:0,0:0:0:0:
400,192,125464,6,2,L|256:192,2,143.999995605469,4|2|2,0:1|0:0|0:0,0:0:0:0:
112,144,126026,2,0,L|408:144,1,287.999991210938,4|0,0:1|0:0,0:0:0:0:
112,64,126589,6,0,P|56:144|152:208,1,215.999993408203,4|0,0:1|0:0,0:0:0:0:
288,224,126964,2,0,L|352:160,1,71.9999978027344,2|0,0:0|0:0,0:0:0:0:
224,160,127151,2,0,L|120:56,1,143.999995605469,2|2,0:3|0:0,0:0:0:0:
400,168,127526,1,2,0:0:0:0:
152,56,127714,6,0,P|80:88|152:152,1,143.999995605469,4|0,0:1|0:0,0:0:0:0:
152,144,127995,1,0,0:0:0:0:
368,152,128089,1,2,0:3:0:0:
88,64,128276,2,0,P|0:152|128:256,1,287.999991210938,4|2,0:1|0:0,0:0:0:0:
424,64,128839,6,0,P|472:176|272:320,1,400,4|2,0:1|0:0,0:0:0:0:
136,192,129964,6,0,L|392:192,1,240,2|2,0:0|0:0,0:0:0:0:
136,192,131089,6,0,L|240:192,1,80,4|0,0:3|0:0,0:0:0:0:
104,72,131464,1,2,0:0:0:0:
43,121,131651,1,0,0:0:0:0:
29,198,131839,1,2,0:0:0:0:
43,236,131932,1,0,0:0:0:0:
69,266,132026,1,2,0:3:0:0:
104,285,132120,1,0,0:0:0:0:
352,280,132214,5,2,0:0:0:0:
208,280,132401,2,0,L|128:280,1,80,2|2,0:3|0:0,0:0:0:0:
272,280,132776,2,0,L|352:280,1,80,2|2,0:3|0:0,0:0:0:0:
381,262,133057,1,0,0:0:0:0:
382,223,133151,1,2,0:3:0:0:
355,195,133245,1,0,0:0:0:0:
256,192,133339,6,0,L|144:192,1,80,2|2,0:0|0:3,0:0:0:0:
216,192,133620,1,0,0:0:0:0:
400,192,133714,1,2,0:0:0:0:
256,192,133901,2,0,L|200:192,1,40,2|0,0:3|0:0,0:0:0:0:
456,192,134089,2,0,L|400:192,1,40,2|0,0:0|0:0,0:0:0:0:
96,192,134276,2,0,L|56:192,1,40,2|0,0:0|0:0,0:0:0:0:
256,328,134464,6,0,P|328:312|376:152,1,240.000009155274,2|0,0:0|0:0,0:0:0:0:
312,168,135401,1,0,0:0:0:0:
240,48,135589,6,0,P|168:72|232:192,1,240.000009155274,2|2,0:0|0:0,0:0:0:0:
360,192,136714,6,0,L|240:192,1,120.000004577637,2|0,0:0|0:0,0:0:0:0:
360,192,137276,2,0,L|440:192,2,60.0000022888184,2|2|2,0:0|0:0|0:0,0:0:0:0:
216,192,137839,6,0,L|72:192,1,120.000004577637,2|2,0:0|0:0,0:0:0:0:
384,200,138589,1,2,0:0:0:0:
240,200,138964,6,0,P|296:168|280:120,1,120.000004577637,2|0,0:0|0:0,0:0:0:0:
144,120,139526,2,0,L|80:120,2,60.0000022888184,2|0|2,0:0|0:0|0:0,0:0:0:0:
288,72,140089,6,0,P|352:152|280:256,1,240.000009155274,2|2,0:0|0:0,0:0:0:0:
160,272,141214,6,0,L|240:272,1,60.0000022888184,2|0,0:0|0:0,0:0:0:0:
368,272,141589,2,0,L|304:272,1,60.0000022888184,2|0,0:0|0:0,0:0:0:0:
160,272,141964,2,0,L|80:272,1,60.0000022888184,2|0,0:0|0:0,0:0:0:0:
248,272,142339,2,0,L|328:272,1,60.0000022888184,2|0,0:0|0:0,0:0:0:0:
128,272,142714,6,0,P|80:256|80:192,1,120.000004577637,2|2,0:0|0:0,0:0:0:0:
160,185,143276,1,0,0:0:0:0:
408,184,143464,6,0,L|248:184,1,120.000004577637,2|0,0:0|0:0,0:0:0:0:
320,56,143909,1,2,0:0:0:0:
360,56,143979,1,0,0:0:0:0:
400,56,144049,1,2,0:0:0:0:
424,88,144120,1,0,0:0:0:0:
400,120,144190,2,0,L|344:120,1,50,2|0,0:0|0:0,0:0:0:0:
192,128,144401,1,2,0:0:0:0:
160,128,144471,1,0,0:0:0:0:
128,200,144542,6,0,L|288:200,1,160,2|2,0:0|0:0,0:0:0:0:
72,280,145057,1,2,0:0:0:0:
80,256,145128,1,0,0:0:0:0:
112,248,145198,1,2,0:0:0:0:
144,248,145268,1,0,0:0:0:0:
400,224,145315,2,0,P|376:184|312:176,1,110,2|0,0:0|0:0,0:0:0:0:
288,176,145620,1,0,0:0:0:0:
256,176,145667,1,0,0:0:0:0:
72,240,145714,6,0,P|88:192|152:160,1,120,2|0,0:0|0:0,0:0:0:0:
256,232,146135,1,0,0:0:0:0:
312,232,146229,1,2,0:0:0:0:
368,232,146323,1,0,0:0:0:0:
448,232,146464,1,2,0:0:0:0:
392,232,146557,1,0,0:0:0:0:
448,184,146651,1,0,0:0:0:0:
416,184,146721,1,0,0:0:0:0:
368,184,146815,1,0,0:0:0:0:
144,72,146885,6,0,P|88:80|72:120,1,100,2|0,0:0|0:0,0:0:0:0:
152,240,147260,1,0,0:0:0:0:
200,240,147354,1,0,0:0:0:0:
280,240,147495,1,2,0:0:0:0:
328,240,147589,2,0,P|368:224|384:152,1,120,2|0,0:0|0:0,0:0:0:0:
128,208,147964,6,0,L|128:96,1,106.666666666667,2|0,0:0|0:0,0:0:0:0:
320,128,148339,1,2,0:0:0:0:
184,128,148526,2,0,L|280:128,2,80,2|0|0,0:0|0:0|0:0,0:0:0:0:
456,128,149089,6,0,L|344:128,1,80,2|0,0:0|0:0,0:0:0:0:
248,128,149464,1,2,0:0:0:0:
400,128,149651,2,0,L|480:128,2,80,2|0|0,0:0|0:0|0:0,0:0:0:0:
128,128,150214,6,0,L|224:128,1,80,2|0,0:0|0:0,0:0:0:0:
72,128,150589,1,2,0:0:0:0:
320,128,150776,1,2,0:0:0:0:
168,128,150964,2,0,L|64:128,1,80
352,128,151339,5,2,0:0:0:0:
168,128,151526,1,2,0:0:0:0:
416,88,151714,1,2,0:0:0:0:
488,152,151901,1,2,0:0:0:0:
487,231,152089,1,2,0:0:0:0:
414,291,152276,1,2,0:0:0:0:
256,192,152464,6,0,L|408:272,2,160,2|2|2,0:0|0:0|0:0,0:0:0:0:
136,280,153589,6,0,L|22:166,2,160,2|2|2,0:0|0:0|0:0,0:0:0:0:
336,264,154714,6,0,L|360:168,1,80,2|0,0:0|0:0,0:0:0:0:
192,64,155089,1,2,0:0:0:0:
117,76,155276,1,2,0:0:0:0:
112,160,155464,1,0,0:0:0:0:
192,184,155651,1,0,0:0:0:0:
344,192,155839,6,0,L|248:192,1,80,2|0,0:0|0:0,0:0:0:0:
424,192,156214,2,0,L|448:96,1,80,2|0,0:0|0:0,0:0:0:0:
344,192,156589,2,0,L|432:192,1,80,2|0,0:0|0:0,0:0:0:0:
184,192,156964,6,0,P|144:160|192:80,1,160,2|0,0:0|0:0,0:0:0:0:
344,80,157526,1,0,0:0:0:0:
472,80,157714,2,0,L|496:192,1,80,2|0,0:0|0:0,0:0:0:0:
344,80,158089,5,2,0:0:0:0:
264,80,158276,1,0,0:0:0:0:
184,80,158464,1,2,0:0:0:0:
104,80,158651,1,2,0:0:0:0:
344,80,158839,1,2,0:0:0:0:
104,80,159026,1,2,0:0:0:0:
376,80,159214,6,0,L|464:80,1,80,2|0,0:0|0:0,0:0:0:0:
256,80,159589,2,0,L|344:80,1,80,2|0,0:0|0:0,0:0:0:0:
136,80,159964,2,0,L|216:80,1,80,2|0,0:0|0:0,0:0:0:0:
72,80,160339,6,0,L|56:168,1,80
256,112,160714,2,0,L|120:248,1,180.000006866455,2|0,0:0|0:0,0:0:0:0:
416,240,161464,5,2,0:0:0:0:
296,240,161657,1,0,0:0:0:0:
416,240,161851,1,0,0:0:0:0:
264,240,162044,1,0,0:0:0:0:
384,240,162238,1,2,0:0:0:0:
264,240,162431,1,0,0:0:0:0:
408,240,162625,1,0,0:0:0:0:
264,240,162818,1,0,0:0:0:0:
432,240,163012,5,2,0:0:0:0:
312,240,163205,1,0,0:0:0:0:
464,240,163399,1,0,0:0:0:0:
344,240,163593,1,0,0:0:0:0:
464,240,163786,1,2,0:0:0:0:
288,240,163980,1,0,0:0:0:0:
488,240,164173,1,0,0:0:0:0:
368,240,164367,1,0,0:0:0:0:
488,240,164560,5,2,0:0:0:0:
344,240,164754,1,0,0:0:0:0:
464,240,164947,1,0,0:0:0:0:
288,240,165141,1,0,0:0:0:0:
432,240,165334,1,2,0:0:0:0:
256,240,165528,1,0,0:0:0:0:
368,240,165722,1,0,0:0:0:0:
488,240,165915,1,0,0:0:0:0:
96,240,166109,5,2,0:0:0:0:
216,240,166302,1,0,0:0:0:0:
72,240,166496,1,0,0:0:0:0:
248,240,166689,1,0,0:0:0:0:
128,240,166883,1,2,0:0:0:0:
248,240,167076,1,0,0:0:0:0:
104,240,167270,1,0,0:0:0:0:
248,240,167463,1,0,0:0:0:0:
80,240,167657,1,2,0:0:0:0:
200,240,167850,1,0,0:0:0:0:
24,240,168044,1,0,0:0:0:0:
168,240,168238,1,0,0:0:0:0:
416,240,168431,5,2,0:0:0:0:
224,240,168625,1,0,0:0:0:0:
416,240,168818,1,2,0:0:0:0:
224,240,169012,1,0,0:0:0:0:
416,240,169205,1,2,0:0:0:0:
224,240,169399,1,0,0:0:0:0:
488,240,169593,5,2,0:0:0:0:
368,240,169786,1,0,0:0:0:0:
488,240,169980,1,2,0:0:0:0:
336,240,170173,1,0,0:0:0:0:
192,240,170367,1,2,0:0:0:0:
312,240,170560,1,0,0:0:0:0:
56,240,170754,5,2,0:0:0:0:
192,240,170947,1,0,0:0:0:0:
56,240,171141,1,0,0:0:0:0:
224,240,171334,1,0,0:0:0:0:
88,240,171528,1,2,0:0:0:0:
256,240,171722,1,0,0:0:0:0:
120,240,171915,1,0,0:0:0:0:
232,240,172109,1,0,0:0:0:0:
56,240,172302,5,2,0:0:0:0:
200,240,172496,1,0,0:0:0:0:
24,240,172689,1,0,0:0:0:0:
144,240,172883,1,0,0:0:0:0:
256,240,173076,1,2,0:0:0:0:
112,240,173270,1,0,0:0:0:0:
288,240,173464,1,0,0:0:0:0:
168,240,173657,1,0,0:0:0:0:
48,240,173851,5,2,0:0:0:0:
248,240,174044,1,0,0:0:0:0:
104,240,174238,1,0,0:0:0:0:
280,240,174431,1,0,0:0:0:0:
80,240,174625,1,2,0:0:0:0:
200,240,174818,1,0,0:0:0:0:
456,240,175012,1,2,0:0:0:0:
312,240,175205,1,2,0:0:0:0:
456,240,175399,6,0,P|480:192|376:104,1,200,2|0,0:0|0:0,0:0:0:0:
288,96,175980,2,0,L|184:96,2,80,2|0|2,0:0|0:0|0:0,0:0:0:0:
120,96,176560,6,0,L|224:96,1,100,2|2,0:0|0:0,0:0:0:0:
352,96,176947,2,0,L|360:160,1,60,2|2,0:0|0:0,0:0:0:0:
176,104,177141,1,2,0:0:0:0:
155,112,177206,1,0,0:0:0:0:
140,135,177270,1,2,0:0:0:0:
136,160,177335,1,0,0:0:0:0:
152,192,177431,1,0,0:0:0:0:
184,192,177528,1,0,0:0:0:0:
216,192,177625,1,0,0:0:0:0:
272,192,177722,6,0,B|352:192|352:192|352:88,1,160,2|2,0:0|0:0,0:0:0:0:
176,120,178302,1,0,0:0:0:0:
256,120,178495,1,2,0:0:0:0:
336,120,178689,1,0,0:0:0:0:
176,120,178883,6,0,L|56:240,2,160,2|0|2,0:0|0:0|0:0,0:0:0:0:
256,192,179996,1,0,0:0:0:0:
392,192,180044,6,0,P|400:144|256:56,1,240,2|0,0:0|0:0,0:0:0:0:
392,96,180818,2,0,L|304:96,1,80
176,88,181205,6,0,L|368:88,2,160,2|2|2,0:0|0:0|0:0,0:0:0:0:
304,88,182318,1,0,0:0:0:0:
176,88,182367,6,0,P|120:104|176:232,1,240,2|0,0:0|0:0,0:0:0:0:
288,232,183141,2,0,L|384:232,1,80
176,88,183528,6,0,L|360:88,2,160,2|2|2,0:0|0:0|0:0,0:0:0:0:
392,88,184641,1,0,0:0:0:0:
256,88,184689,6,0,L|80:88,1,160,2|0,0:0|0:0,0:0:0:0:
200,88,185345,1,0,0:0:0:0:
368,88,185564,2,0,L|464:88,1,80,2|0,0:0|0:0,0:0:0:0:
96,88,186002,6,0,L|256:88,1,160,4|2,0:3|0:0,0:0:0:0:
152,88,186578,1,0,0:0:0:0:
336,88,186771,2,0,L|256:88,1,80,2|0,0:0|0:0,0:0:0:0:
432,288,187155,6,0,P|464:248|416:144,1,160,2|2,0:3|0:0,0:0:0:0:
256,160,187732,2,0,L|176:160,2,80,0|2|0,0:0|0:0|0:0,0:0:0:0:
416,88,188309,6,0,L|256:88,1,160,4|2,0:3|0:0,0:0:0:0:
360,88,188886,1,0,0:0:0:0:
176,88,189078,2,0,L|256:88,1,80,2|0,0:0|0:0,0:0:0:0:
80,288,189463,6,0,P|48:248|96:144,1,160,2|2,0:3|0:0,0:0:0:0:
256,160,190040,2,0,L|336:160,2,80,0|2|0,0:0|0:0|0:0,0:0:0:0:
416,88,190617,6,0,L|240:88,1,160,4|2,0:3|0:0,0:0:0:0:
120,88,191194,1,0,0:0:0:0:
280,88,191386,2,0,L|360:88,1,80,2|0,0:0|0:0,0:0:0:0:
152,88,191771,6,0,P|104:160|160:200,1,160,2|2,0:3|0:0,0:0:0:0:
288,80,192348,2,0,L|200:80,1,80,0|2,0:0|0:0,0:0:0:0:
464,80,192732,2,2,L|424:80,1,40
224,80,192925,6,0,L|336:80,2,80,2|0|2,0:0|0:0|0:0,0:0:0:0:
424,80,193502,2,0,L|320:80,2,80,2|0|2,0:0|0:0|0:0,0:0:0:0:
224,168,194078,5,2,0:0:0:0:
344,168,194271,1,0,0:0:0:0:
160,168,194463,2,0,L|136:256,1,80,2|0,0:0|0:0,0:0:0:0:
400,256,194848,1,2,0:0:0:0:
432,224,194944,1,0,0:0:0:0:
427,185,195040,1,0,0:0:0:0:
386,160,195136,1,0,0:0:0:0:
168,112,195232,6,0,L|256:112,1,80,4|0,0:3|0:0,0:0:0:0:
104,112,195617,2,0,L|72:200,1,80,2|0,0:0|0:0,0:0:0:0:
208,64,196002,2,0,L|128:64,1,80,2|0,0:0|0:0,0:0:0:0:
288,64,196386,6,0,L|416:192,2,160,2|2|2,0:3|0:0|0:0,0:0:0:0:
160,64,197540,6,0,L|336:64,1,160,4|2,0:3|0:0,0:0:0:0:
216,64,198117,1,0,0:0:0:0:
80,64,198309,2,0,L|160:64,1,80,2|0,0:0|0:0,0:0:0:0:
288,64,198694,6,0,L|168:64,1,120,2|0,0:3|0:0,0:0:0:0:
352,176,199078,2,0,L|368:88,1,80,2|0,0:0|0:0,0:0:0:0:
168,168,199463,2,0,L|160:80,1,80,2|0,0:0|0:0,0:0:0:0:
424,96,199848,6,0,P|464:144|424:200,1,120,4|0,0:1|0:0,0:0:0:0:
256,192,200232,1,2,0:0:0:0:
352,192,200425,1,2,0:0:0:0:
160,192,200617,1,2,0:0:0:0:
352,192,201002,5,2,0:0:0:0:
256,192,201194,1,2,0:0:0:0:
448,192,201386,1,2,0:0:0:0:
256,128,201771,2,0,L|336:128,1,80,2|2,0:0|0:0,0:0:0:0:
88,128,202155,6,0,P|40:208|80:272,1,160,4|0,0:1|0:0,0:0:0:0:
192,264,202732,1,0,0:0:0:0:
352,264,202925,2,0,L|440:264,1,80
168,128,203309,6,0,L|328:128,2,160,2|2|2,0:0|0:0|0:0,0:0:0:0:
104,128,204175,1,0,0:0:0:0:
64,160,204271,1,2,0:0:0:0:
80,208,204367,1,0,0:0:0:0:
352,224,204495,6,0,L|368:112,1,80,4|0,0:3|0:0,0:0:0:0:
208,160,204870,2,0,L|304:160,1,80,2|0,0:0|0:0,0:0:0:0:
144,56,205245,1,2,0:0:0:0:
72,112,205432,1,0,0:0:0:0:
72,191,205620,1,2,0:0:0:0:
143,255,205807,1,0,0:0:0:0:
288,256,205995,6,0,L|192:256,1,80,2|0,0:3|0:0,0:0:0:0:
344,256,206370,2,0,L|424:256,2,80,2|0|2,0:0|0:0|0:0,0:0:0:0:
136,192,207120,6,0,L|384:192,1,240,8|0,0:0|0:0,0:0:0:0:
216,136,207870,2,0,L|304:136,1,80,2|0,0:0|0:0,0:0:0:0:
160,136,208245,2,0,L|128:224,1,80,2|0,0:0|0:0,0:0:0:0:
400,136,208620,6,0,L|480:136,1,80,2|0,0:3|0:0,0:0:0:0:
136,136,208995,2,0,L|40:136,1,80,2|0,0:3|0:0,0:0:0:0:
296,136,209370,6,0,L|200:136,1,80,4|0,0:3|0:0,0:0:0:0:
360,136,209745,2,0,L|424:200,1,80,2|0,0:0|0:0,0:0:0:0:
216,136,210120,2,0,L|128:136,1,80,2|0,0:0|0:0,0:0:0:0:
360,136,210495,6,0,L|184:136,1,160,2|2,0:3|0:0,0:0:0:0:
304,136,211057,1,0,0:0:0:0:
48,136,211245,2,0,L|160:136,1,80,2|0,0:0|0:0,0:0:0:0:
416,64,211620,6,0,P|464:104|448:208,1,160,8|0,0:0|0:0,0:0:0:0:
352,192,212182,1,2,0:0:0:0:
160,192,212370,2,0,L|344:192,1,160,2|2,0:0|0:0,0:0:0:0:
160,192,212932,6,0,L|104:192,1,40,2|0,0:3|0:0,0:0:0:0:
320,192,213120,2,0,L|216:192,1,80,4|2,0:3|0:3,0:0:0:0:
296,192,213401,1,0,0:0:0:0:
464,192,213495,6,0,P|472:152|448:120,1,80,4|0,0:1|0:0,0:0:0:0:
256,112,213870,1,2,0:0:0:0:
296,112,213963,1,0,0:0:0:0:
336,112,214057,1,0,0:0:0:0:
376,112,214151,1,0,0:0:0:0:
120,112,214245,2,0,L|88:208,1,80,2|0,0:0|0:0,0:0:0:0:
256,152,214620,6,0,L|160:152,1,80,2|0,0:3|0:0,0:0:0:0:
320,152,214995,2,0,P|360:192|296:280,1,160,2|2,0:0|0:0,0:0:0:0:
190,275,215557,1,0,0:0:0:0:
448,280,215745,6,0,L|264:280,1,160,2|2,0:3|0:0,0:0:0:0:
384,280,216307,1,0,0:0:0:0:
224,280,216495,2,0,L|136:280,1,80,2|0,0:0|0:0,0:0:0:0:
416,208,216870,6,0,L|232:208,2,160,2|2|2,0:3|0:0|0:3,0:0:0:0:
312,208,217807,1,0,0:0:0:0:
64,80,217995,6,0,P|72:152|176:176,1,160,4|2,0:1|0:0,0:0:0:0:
288,192,218557,2,0,L|376:192,2,80,2|0|2,0:3|0:0|0:0,0:0:0:0:
464,80,219120,6,0,P|472:160|384:184,1,160,4|2,0:1|0:0,0:0:0:0:
256,160,219682,2,0,L|176:160,2,80,2|0|2,0:3|0:0|0:0,0:0:0:0:
464,80,220245,6,0,L|288:80,1,160,4|2,0:1|0:0,0:0:0:0:
432,208,220807,2,0,L|512:208,2,80,2|0|2,0:3|0:0|0:0,0:0:0:0:
280,216,221370,6,0,L|376:216,1,80,2|2,0:3|0:3,0:0:0:0:
216,216,221745,1,2,0:0:0:0:
157,165,221932,1,0,0:0:0:0:
159,88,222120,1,2,0:0:0:0:
221,41,222307,1,0,0:0:0:0:
464,40,222495,6,0,P|488:120|416:168,1,160,4|2,0:1|0:0,0:0:0:0:
288,168,223057,1,2,0:3:0:0:
440,168,223245,2,0,L|352:168,1,80,2|0,0:0|0:0,0:0:0:0:
96,168,223620,6,0,L|272:168,1,160,4|2,0:1|0:0,0:0:0:0:
360,168,224182,1,2,0:0:0:0:
200,168,224370,2,0,L|128:240,1,80,2|0,0:0|0:0,0:0:0:0:
392,168,224745,6,0,L|288:168,1,80,2|0,0:0|0:0,0:0:0:0:
152,168,225120,2,0,L|256:168,1,80,4|0,0:1|0:0,0:0:0:0:
384,168,225495,2,0,L|464:168,1,80,2|0,0:0|0:0,0:0:0:0:
208,168,225870,6,0,L|128:168,1,80,2|2,0:3|0:0,0:0:0:0:
408,168,226245,2,0,P|440:208|400:312,1,160,4|2,0:1|0:0,0:0:0:0:
312,304,226807,1,0,0:0:0:0:
64,304,226995,6,0,P|48:232|136:184,1,160,4|0,0:1|0:0,0:0:0:0:
256,192,227557,2,0,L|368:192,1,80,0|2,0:0|0:3,0:0:0:0:
112,88,228120,6,0,L|32:88,1,80,2|2,0:3|0:0,0:0:0:0:
288,88,228495,2,0,P|328:144|280:216,1,160,4|2,0:1|0:3,0:0:0:0:
152,208,229057,1,2,0:0:0:0:
392,192,229245,6,0,P|440:160|376:96,1,160,4|2,0:1|0:3,0:3:0:0:
256,88,229807,1,0,0:0:0:0:
496,88,229995,1,4,0:1:0:0:
288,200,230370,6,0,L|360:128,1,80,2|0,0:3|0:0,0:0:0:0:
88,88,230745,2,0,P|32:136|104:168,1,160,4|2,0:1|0:0,0:0:0:0:
384,184,231307,1,2,0:0:0:0:
144,160,231495,6,0,L|232:160,1,80,2|0,0:3|0:0,0:0:0:0:
464,168,231870,2,0,L|376:168,1,80,4|4,0:3|0:3,0:0:0:0:
112,80,232245,1,2,0:3:0:0:
80,102,232338,1,0,0:0:0:0:
72,141,232432,1,2,0:3:0:0:
93,174,232526,1,0,0:0:0:0:
296,48,232620,6,0,P|352:80|288:320,1,360.000013732911,2|2,0:0|0:0,0:0:0:0:
128,184,234307,6,0,L|40:184,2,60.0000022888184,2|0|2,0:0|0:0|0:0,0:0:0:0:
288,168,234870,6,0,L|144:168,1,120.000004577637,2|0,0:0|0:0,0:0:0:0:
320,168,235432,2,0,L|408:168,2,60.0000022888184,0|2|2,0:0|0:0|0:0,0:0:0:0:
144,112,235995,6,0,L|80:112,2,60.0000022888184,2|0|2,0:0|0:0|0:0,0:0:0:0:
288,112,236557,1,0,0:0:0:0:
144,112,236745,1,2,0:0:0:0:
320,112,236932,1,2,0:0:0:0:
64,112,237120,6,0,L|8:168,2,60.0000022888184,2|0|2,0:0|0:0|0:0,0:0:0:0:
320,104,237682,1,2,0:0:0:0:
168,104,237870,6,0,P|168:168|312:224,1,240.000009155274,2|0,0:0|0:0,0:0:0:0:
168,224,238807,2,0,L|96:224,2,60.0000022888184,2|0|2,0:0|0:0|0:0,0:0:0:0:
312,224,239370,6,0,L|448:224,1,120.000004577637,2|0,0:0|0:0,0:0:0:0:
344,224,239932,2,0,L|248:128,1,120.000004577637,2|0,0:0|0:0,0:0:0:0:
112,272,240495,5,2,0:0:0:0:
86,255,240588,1,0,0:0:0:0:
67,233,240682,1,0,0:0:0:0:
55,205,240776,1,0,0:0:0:0:
51,176,240870,1,2,0:0:0:0:
56,146,240963,1,0,0:0:0:0:
70,120,241057,1,0,0:0:0:0:
90,98,241151,1,0,0:0:0:0:
116,83,241245,1,2,0:0:0:0:
224,80,241432,1,0,0:0:0:0:
336,80,241620,6,0,P|360:104|336:192,1,120.000004577637,2|0,0:0|0:0,0:0:0:0:
224,192,242182,2,0,L|352:192,1,120.000004577637,2|0,0:0|0:0,0:0:0:0:
160,56,242745,6,0,P|120:112|168:208,1,180.000006866455,2|0,0:0|0:0,0:0:0:0:
288,208,243495,2,0,L|360:208,1,60.0000022888184,2|2,0:0|0:0,0:0:0:0:
88,200,243870,6,0,L|224:200,1,120.000004577637,2|2,0:0|0:0,0:0:0:0:
144,200,244432,1,2,0:0:0:0:
416,72,244620,6,0,P|448:120|256:248,1,360.000013732911,2|2,0:0|0:0,0:0:0:0:
368,176,246120,6,0,L|64:176,1,300.000011444092,2|0,0:0|0:0,0:0:0:0:
160,80,247245,6,0,P|296:88|296:224,1,300.000011444092,2|0,0:0|0:0,0:0:0:0:
256,192,248370,12,0,250729,0:0:0:0:
336,280,251066,6,0,L|336:192,1,80,2|0,0:0|0:0,0:0:0:0:
440,280,251527,2,0,L|440:200,1,80,2|0,0:0|0:0,0:0:0:0:
280,200,251989,2,0,L|368:200,1,80,2|0,0:0|0:0,0:0:0:0:
224,200,252450,2,0,L|136:200,1,80,2|0,0:0|0:0,0:0:0:0:
304,144,252912,6,0,L|224:144,1,80,2|0,0:0|0:0,0:0:0:0:
368,48,253373,1,2,0:0:0:0:
430,97,253603,1,0,0:0:0:0:
459,170,253834,1,2,0:0:0:0:
449,248,254065,1,0,0:0:0:0:
402,312,254296,1,2,0:0:0:0:
329,343,254526,1,0,0:0:0:0:
168,104,254758,6,0,L|168:184,1,80,2|0,0:0|0:0,0:0:0:0:
280,256,255219,2,0,L|176:256,1,80,2|0,0:0|0:0,0:0:0:0:
32,256,255681,2,0,L|136:256,1,80,2|0,0:0|0:0,0:0:0:0:
280,256,256142,2,0,L|376:256,1,80,2|0,0:0|0:0,0:0:0:0:
256,256,256604,5,0,0:0:0:0:
216,256,256732,2,0,P|168:232|224:104,1,200,2|0,0:0|0:0,0:0:0:0:
352,128,257629,5,2,0:0:0:0:
128,120,258142,1,2,0:0:0:0:
232,120,258270,1,0,0:0:0:0:
245,134,258334,1,0,0:0:0:0:
254,152,258398,1,0,0:0:0:0:
257,171,258462,1,0,0:0:0:0:
253,191,258527,1,0,0:0:0:0:
244,208,258591,1,0,0:0:0:0:
104,128,258692,6,0,L|104:208,1,80,2|0,0:0|0:0,0:0:0:0:
256,160,259192,2,0,L|160:160,1,80,2|0,0:0|0:0,0:0:0:0:
328,160,259692,2,0,L|440:160,3,80,2|0|2|0,0:0|0:0|0:0|0:0,0:0:0:0:
224,216,260692,6,0,L|288:136,1,80,2|0,0:0|0:0,0:0:0:0:
111,159,261192,2,0,L|168:216,1,80,2|0,0:0|0:0,0:0:0:0:
336,224,261692,2,0,L|336:144,1,80,2|0,0:0|0:0,0:0:0:0:
144,224,262192,2,0,L|144:144,1,80,2|0,0:0|0:0,0:0:0:0:
368,184,262692,6,0,L|464:184,2,80,2|0|0,0:0|0:0|0:0,0:0:0:0:
224,184,263442,1,2,0:0:0:0:
368,184,263692,2,0,L|368:96,1,80,2|0,0:0|0:0,0:0:0:0:
256,96,264192,2,0,L|352:96,1,80,2|0,0:0|0:0,0:0:0:0:
136,280,264692,5,2,0:0:0:0:
96,212,264942,1,0,0:0:0:0:
115,137,265192,1,2,0:0:0:0:
181,97,265442,1,0,0:0:0:0:
328,96,265692,2,0,L|344:200,1,80,2|0,0:0|0:0,0:0:0:0:
176,96,266192,1,2,0:0:0:0:
344,176,266692,6,0,L|456:176,2,80,2|0|0,0:0|0:0|0:0,0:0:0:0:
184,176,267442,1,2,0:0:0:0:
368,176,267692,2,0,L|384:80,1,80,2|0,0:0|0:0,0:0:0:0:
216,176,268192,2,0,L|184:88,1,80,2|0,0:0|0:0,0:0:0:0:
424,176,268692,6,0,L|336:176,1,80,2|0,0:0|0:0,0:0:0:0:
168,168,269192,1,2,0:0:0:0:
248,168,269442,1,2,0:0:0:0:
328,168,269692,2,0,P|352:216|312:320,1,160,2|0,0:0|0:0,0:0:0:0:
224,304,270442,2,0,L|184:304,1,40,2|0,0:0|0:0,0:0:0:0:
144,304,270692,6,0,P|120:272|168:144,1,160,2|0,0:0|0:0,0:0:0:0:
256,160,271692,1,2,0:0:0:0:
408,160,272192,2,0,L|328:160,1,80,2|0,0:0|0:0,0:0:0:0:
200,160,272629,1,0,0:0:0:0:
168,160,272692,6,0,P|152:208|288:312,1,240,2|0,0:0|0:0,0:0:0:0:
408,296,273694,6,0,P|432:248|384:152,1,160,2|2,0:0|0:0,0:0:0:0:
224,256,274957,6,0,L|144:256,1,80,4|0,0:3|0:0,0:0:0:0:
288,256,275341,2,0,L|288:152,1,80,2|0,0:0|0:0,0:0:0:0:
144,256,275726,2,0,L|144:152,1,80,2|0,0:0|0:0,0:0:0:0:
288,192,276110,6,0,L|208:192,1,80,4|0,0:3|0:0,0:0:0:0:
344,72,276495,1,2,0:0:0:0:
404,120,276687,1,2,0:0:0:0:
404,197,276880,1,2,0:0:0:0:
344,246,277072,1,0,0:0:0:0:
168,246,277264,5,4,0:3:0:0:
104,200,277457,1,0,0:0:0:0:
78,129,277649,1,2,0:0:0:0:
109,57,277841,1,2,0:0:0:0:
179,22,278033,1,2,0:0:0:0:
255,42,278226,1,0,0:0:0:0:
368,192,278418,6,0,L|280:192,1,80,4|0,0:3|0:0,0:0:0:0:
400,192,278746,1,2,0:0:0:0:
320,192,278933,1,2,0:0:0:0:
240,192,279121,1,2,0:0:0:0:
96,320,279543,5,4,0:3:0:0:
63,249,279730,1,0,0:0:0:0:
90,176,279918,1,2,0:0:0:0:
161,143,280105,1,0,0:0:0:0:
288,144,280293,2,0,L|400:144,1,80,2|0,0:0|0:0,0:0:0:0:
200,264,280668,6,0,L|160:152,1,80,2|0,0:0|0:0,0:0:0:0:
360,184,281043,1,2,0:0:0:0:
416,184,281230,1,2,0:0:0:0:
336,184,281418,1,2,0:0:0:0:
256,184,281605,1,0,0:0:0:0:
416,128,281793,6,0,L|328:128,1,80,4|0,0:3|0:0,0:0:0:0:
176,128,282168,2,0,L|256:128,1,80,2|0,0:0|0:0,0:0:0:0:
416,128,282543,2,0,L|464:128,2,40,2|0|0,0:0|0:0|0:0,0:0:0:0:
256,192,282918,12,0,287043,0:0:0:0:
224,224,287418,6,0,L|320:224,2,95.9999970703126,2|0|2,0:3|0:0|0:0,0:0:0:0:
472,224,287994,1,2,0:3:0:0:
320,224,288187,2,0,L|416:224,1,95.9999970703126,0|2,0:0|0:0,0:0:0:0:
112,224,288571,6,0,L|208:224,2,95.9999970703126,2|0|2,0:3|0:0|0:0,0:0:0:0:
376,224,289148,1,2,0:3:0:0:
232,224,289341,2,0,L|152:144,1,95.9999970703126,0|2,0:0|0:0,0:0:0:0:
416,296,289725,6,0,P|464:240|352:120,1,240,2|2,0:0|0:0,0:0:0:0:
256,112,290613,2,0,L|360:112,1,80,2|0,0:0|0:0,0:0:0:0:
144,104,291058,6,0,P|160:184|240:208,1,160,2|2,0:0|0:0,0:0:0:0:
360,216,291725,2,0,L|464:216,2,80,0|2|0,0:0|0:0|0:0,0:0:0:0:
224,216,292390,5,2,0:0:0:0:
392,216,292791,2,0,L|408:112,1,80,2|0,0:0|0:0,0:0:0:0:
256,112,293190,1,2,0:0:0:0:
432,112,293591,6,0,L|272:112,2,160,2|2|2,0:0|0:0|0:0,0:0:0:0:
272,184,294924,6,0,L|304:184,2,20,2|0|2,0:0|0:0|0:0,0:0:0:0:
136,192,295404,2,0,L|120:96,1,80,2|0,0:0|0:0,0:0:0:0:
256,96,295884,1,2,0:0:0:0:
184,224,296364,6,0,L|0:224,2,160,2|2|2,0:0|0:0|0:0,0:0:0:0:
352,232,297929,6,0,P|392:192|328:112,1,160,4|2,0:1|0:3,0:0:0:0:
224,112,298558,1,2,0:0:0:0:
376,112,298768,6,0,L|272:112,1,80,2|0,0:3|0:0,0:0:0:0:
336,112,299082,1,0,0:0:0:0:
432,112,299187,2,0,L|504:112,3,40,2|0|2|0,0:0|0:0|0:0|0:0,0:0:0:0:
288,104,299607,6,0,L|416:104,1,120,2|0,0:3|0:0,0:0:0:0:
288,104,300026,2,0,L|392:104,1,80,2|0,0:0|0:0,0:0:0:0:
320,104,300341,1,0,0:0:0:0:
160,104,300446,5,2,0:3:0:0:
99,152,300655,1,0,0:0:0:0:
98,229,300865,1,2,0:0:0:0:
160,280,301075,1,2,0:0:0:0:
448,168,301285,6,0,L|288:168,1,160,4|2,0:1|0:3,0:0:0:0:
160,168,301915,1,2,0:0:0:0:
288,168,302124,1,2,0:3:0:0:
319,190,302228,1,0,0:0:0:0:
321,229,302333,1,2,0:0:0:0:
292,254,302438,1,0,0:0:0:0:
232,256,302544,2,0,L|328:256,1,80,2|0,0:0|0:0,0:0:0:0:
144,168,302963,5,2,0:3:0:0:
336,168,303173,2,0,L|240:168,2,80,4|0|4,0:3|0:0|0:3,0:0:0:0:
72,168,303803,6,0,L|112:168,1,40,2|0,0:0|0:0,0:0:0:0:
200,168,304012,2,0,L|248:168,1,40,2|0,0:0|0:0,0:0:0:0:
112,232,304222,2,0,L|152:232,1,40,2|0,0:0|0:0,0:0:0:0:
240,168,304432,2,0,L|280:168,1,40
464,168,304642,6,0,L|304:168,1,160,4|2,0:1|0:3,0:0:0:0:
440,112,305271,2,0,L|392:112,1,40,2|0,0:0|0:0,0:0:0:0:
216,112,305481,2,0,L|328:112,1,80,2|2,0:3|0:0,0:0:0:0:
248,112,305796,1,0,0:0:0:0:
64,112,305901,2,0,L|48:216,1,80,2|2,0:3|0:0,0:0:0:0:
336,240,306320,6,0,P|392:200|288:104,1,240,4|2,0:1|0:0,0:0:0:0:
184,96,307159,1,2,0:3:0:0:
56,96,307369,2,0,L|112:96,1,40,2|0,0:0|0:0,0:0:0:0:
448,112,307579,2,0,L|464:216,1,80,2|2,0:3|0:0,0:0:0:0:
176,152,307998,6,0,L|296:152,1,120,4|0,0:1|0:0,0:0:0:0:
112,152,308418,2,0,L|64:152,3,40,2|0|2|0,0:3|0:0|0:0|0:0,0:0:0:0:
384,152,308838,2,0,L|328:152,1,40,4|0,0:1|0:0,0:0:0:0:
184,152,309047,2,0,L|240:152,1,40,2|0,0:0|0:0,0:0:0:0:
384,152,309257,2,0,L|432:152,1,40,2|0,0:3|0:0,0:0:0:0:
184,152,309467,2,0,L|128:152,1,40,2|0,0:0|0:0,0:0:0:0:
424,152,309677,5,4,0:3:0:0:
296,152,309887,2,0,L|224:152,1,40,2|0,0:3|0:0,0:0:0:0:
456,152,310096,1,4,0:3:0:0:
256,152,310306,2,0,L|256:216,1,40,2|0,0:3|0:0,0:0:0:0:
456,152,310516,1,4,0:3:0:0:
256,152,310726,2,0,L|320:152,1,40,2|0,0:3|0:0,0:0:0:0:
456,152,310935,2,0,L|512:152,3,40,8|0|8|0,0:0|0:0|0:0|0:0,0:0:0:0:
88,152,311355,5,4,0:3:0:0:
216,152,311565,2,0,L|288:152,1,40,2|0,0:3|0:0,0:0:0:0:
56,152,311774,1,4,0:3:0:0:
256,152,311984,2,0,L|256:216,1,40,2|0,0:3|0:0,0:0:0:0:
56,152,312194,1,4,0:3:0:0:
256,152,312404,2,0,L|192:152,1,40,2|0,0:3|0:0,0:0:0:0:
56,152,312614,2,0,L|0:152,3,40,8|0|8|0,0:0|0:0|0:0|0:0,0:0:0:0:
288,120,313033,6,0,L|392:120,1,80,4|2,0:3|0:3,0:0:0:0:
312,120,313348,1,0,0:0:0:0:
96,152,313453,2,0,L|72:232,1,80,4|2,0:3|0:3,0:0:0:0:
152,152,313768,1,0,0:0:0:0:
320,208,313873,2,0,L|208:208,1,80,4|2,0:3|0:3,0:0:0:0:
296,208,314187,1,0,0:0:0:0:
464,216,314292,1,8,0:0:0:0:
493,190,314396,1,0,0:0:0:0:
492,152,314501,1,8,0:0:0:0:
462,127,314606,1,0,0:0:0:0:
280,128,314712,6,0,L|392:128,1,80,4|2,0:3|0:3,0:0:0:0:
304,128,315026,1,0,0:0:0:0:
128,128,315131,2,0,L|24:128,1,80,4|2,0:3|0:3,0:0:0:0:
96,128,315446,1,0,0:0:0:0:
256,128,315551,2,0,L|312:128,1,40,4|0,0:3|0:0,0:0:0:0:
184,128,315761,2,2,L|120:128,1,40
328,168,315970,1,2,0:0:0:0:
384,168,316074,1,0,0:0:0:0:
328,168,316180,1,2,0:0:0:0:
272,168,316285,1,0,0:0:0:0:
112,176,316390,6,0,L|64:104,1,80,4|2,0:3|0:3,0:0:0:0:
144,88,316705,1,0,0:0:0:0:
304,88,316810,1,4,0:3:0:0:
160,192,317019,2,0,L|216:192,1,40,2|0,0:3|0:0,0:0:0:0:
384,200,317229,2,0,L|416:96,1,80,4|2,0:3|0:3,0:0:0:0:
328,120,317544,1,0,0:0:0:0:
128,160,317649,1,8,0:0:0:0:
103,130,317753,1,0,0:0:0:0:
119,96,317858,1,8,0:0:0:0:
157,94,317963,1,0,0:0:0:0:
328,96,318068,6,0,L|424:96,1,80,4|2,0:3|0:3,0:0:0:0:
352,96,318383,1,0,0:0:0:0:
184,96,318488,1,4,0:3:0:0:
352,192,318698,2,0,L|280:192,1,40,2|0,0:3|0:0,0:0:0:0:
96,192,318908,2,0,L|80:280,1,80,4|2,0:3|0:3,0:0:0:0:
168,192,319222,1,0,0:0:0:0:
408,192,319327,1,8,0:0:0:0:
416,154,319431,1,0,0:0:0:0:
392,123,319536,1,8,0:0:0:0:
354,122,319641,1,0,0:0:0:0:
158,122,319747,5,4,0:3:0:0:
320,120,319956,2,0,L|264:120,1,40,2|0,0:3|0:0,0:0:0:0:
440,120,320166,1,4,0:3:0:0:
256,120,320376,2,0,L|328:120,1,40,2|0,0:3|0:0,0:0:0:0:
128,120,320586,1,4,0:3:0:0:
256,120,320796,2,0,L|328:120,1,40,2|0,0:3|0:0,0:0:0:0:
72,120,321005,2,0,L|8:120,1,40,8|0,0:0|0:0,0:0:0:0:
352,120,321215,2,0,L|416:120,1,40,8|0,0:0|0:0,0:0:0:0:
96,248,321425,5,4,0:3:0:0:
256,248,321635,2,0,L|184:248,1,47.9999985351563,2|0,0:3|0:0,0:0:0:0:
40,248,321845,1,4,0:3:0:0:
184,248,322054,2,0,L|240:248,1,47.9999985351563,2|0,0:3|0:0,0:0:0:0:
424,264,322264,2,0,L|448:184,1,55.9999982910157,4|0,0:3|0:0,0:0:0:0:
256,216,322474,2,0,L|176:216,1,55.9999982910157,2|2,0:0|0:0,0:0:0:0:
384,168,322684,2,0,L|328:112,1,55.9999982910157,2|0,0:0|0:0,0:0:0:0:
160,216,322894,2,0,L|88:216,1,55.9999982910157,2|0,0:0|0:0,0:0:0:0:
344,224,323103,6,0,P|384:208|304:80,1,240,2|0,0:3|0:0,0:0:0:0:
183,73,323942,2,0,L|56:72,2,120,0|0|2,0:0|0:0|0:0,0:0:0:0:
256,72,324677,1,0,0:0:0:0:
424,72,324782,6,0,P|448:120|384:296,1,240,2|0,0:0|0:0,0:0:0:0:
128,152,325621,5,2,0:0:0:0:
148,152,325674,1,0,0:0:0:0:
168,152,325728,1,0,0:0:0:0:
188,152,325781,1,0,0:0:0:0:
208,152,325835,1,0,0:0:0:0:
228,152,325888,1,0,0:0:0:0:
248,152,325942,1,0,0:0:0:0:
268,152,325995,1,0,0:0:0:0:
288,152,326049,1,2,0:0:0:0:
308,152,326103,1,0,0:0:0:0:
328,152,326156,1,0,0:0:0:0:
348,152,326210,1,0,0:0:0:0:
368,152,326263,1,0,0:0:0:0:
192,152,326478,6,0,L|112:152,2,80,2|0|0,0:0|0:0|0:0,0:0:0:0:
352,160,327335,2,0,L|384:72,1,80,2|0,0:0|0:0,0:0:0:0:
224,128,327763,2,0,L|200:40,1,80,2|0,0:0|0:0,0:0:0:0:
384,72,328192,6,0,P|424:128|376:216,1,160,2|0,0:0|0:0,0:0:0:0:
224,112,329049,1,2,0:0:0:0:
424,112,329478,1,2,0:0:0:0:
168,112,329906,6,0,L|88:112,2,80,2|0|2,0:0|0:0|0:0,0:0:0:0:
288,112,330549,1,0,0:0:0:0:
144,112,330763,1,2,0:0:0:0:
96,173,330977,1,2,0:0:0:0:
113,248,331191,1,2,0:0:0:0:
183,283,331405,1,2,0:0:0:0:
328,288,331620,6,0,L|144:288,1,160,2|2,0:0|0:0,0:0:0:0:
416,280,332478,2,0,P|440:232|376:128,1,160
224,264,333335,6,0,P|168:224|232:88,1,240,4|0,0:0|0:0,0:0:0:0:
376,176,334192,2,0,L|128:176,1,240,4|0,0:0|0:0,0:0:0:0:
288,264,335049,6,0,P|344:224|280:88,1,240,4|0,0:0|0:0,0:0:0:0:
136,176,335906,2,0,L|384:176,1,240,4|2,0:0|0:0,0:0:0:0:
288,176,336656,1,0,0:0:0:0:
112,176,336763,6,0,P|72:216|120:304,1,160,2|0,0:0|0:0,0:0:0:0:
296,192,337620,2,0,L|128:192,1,160,2|0,0:0|0:0,0:0:0:0:
368,288,338478,6,0,P|408:232|264:88,1,320,2|4,0:0|0:3,0:0:0:0:
96,96,339763,1,2,0:3:0:0:
280,88,340192,6,0,L|360:88,1,80
184,88,340620,2,0,L|96:88,2,60.0000022888184,2|0|2,0:3|0:0|0:0,0:0:0:0:
360,88,341049,2,0,L|432:88,2,60.0000022888184,2|0|2,0:3|0:0|0:0,0:0:0:0:
184,88,341478,2,0,L|272:88,1,80,2|0,0:0|0:0,0:0:0:0:
72,160,341906,6,0,L|176:160,1,80,4|0,0:1|0:0,0:1:0:0:
296,256,342335,2,0,P|336:240|328:128,1,160,2|2,0:3|0:0,0:0:0:0:
224,128,342978,1,0,0:0:0:0:
376,136,343192,2,0,L|264:136,1,80,2|0,0:0|0:0,0:0:0:0:
128,136,343620,6,0,L|232:136,1,80,4|0,0:1|0:0,0:0:0:0:
352,144,344049,1,2,0:3:0:0:
304,144,344156,1,0,0:0:0:0:
248,144,344263,1,2,0:0:0:0:
432,144,344478,1,2,0:3:0:0:
384,144,344585,1,0,0:0:0:0:
328,144,344692,1,2,0:0:0:0:
64,144,344906,1,2,0:0:0:0:
224,144,345120,1,2,0:0:0:0:
24,288,345335,6,0,P|0:256|72:152,1,160,4|2,0:0|0:0,0:0:0:0:
192,144,345978,1,2,0:0:0:0:
368,128,346192,2,0,L|272:128,1,80,4|0,0:0|0:0,0:0:0:0:
472,128,346620,1,2,0:0:0:0:
328,128,346835,1,2,0:0:0:0:
40,120,347049,6,0,L|136:120,1,80,4|0,0:1|0:0,0:0:0:0:
288,144,347478,1,2,0:3:0:0:
240,144,347585,1,0,0:0:0:0:
184,144,347692,1,2,0:0:0:0:
368,144,347907,1,2,0:3:0:0:
320,144,348014,1,0,0:0:0:0:
264,144,348121,1,2,0:0:0:0:
464,200,348335,2,0,L|488:96,1,80,2|0,0:0|0:0,0:0:0:0:
288,144,348763,5,2,0:0:0:0:
336,144,348870,1,0,0:0:0:0:
392,144,348977,1,2,0:0:0:0:
336,144,349085,1,0,0:0:0:0:
136,144,349192,2,0,P|96:176|160:264,1,160,4|2,0:0|0:3,0:0:0:0:
256,264,349835,1,2,0:3:0:0:
104,264,350049,2,0,L|80:184,1,80,2|0,0:0|0:0,0:0:0:0:
376,240,350478,6,0,L|128:240,1,240,4|0,0:0|0:0,0:0:0:0:
432,240,351347,2,0,P|480:224|416:88,1,240,4|0,0:0|0:0,0:0:0:0:
80,240,352217,6,0,L|56:136,1,80,4|2,0:3|0:0,0:0:0:0:
336,192,352651,1,2,0:3:0:0:
288,192,352759,1,0,0:0:0:0:
240,192,352868,1,2,0:0:0:0:
192,192,352977,1,0,0:0:0:0:
392,192,353086,2,0,L|464:192,1,47.9999985351563,2|0,0:3|0:0,0:0:0:0:
256,192,353304,2,0,L|176:192,1,47.9999985351563,2|0,0:3|0:0,0:0:0:0:
432,192,353521,2,0,L|504:192,1,55.9999982910157,2|0,0:3|0:0,0:0:0:0:
160,192,353738,2,0,L|88:192,1,55.9999982910157,2|0,0:3|0:0,0:0:0:0:
336,200,353938,6,0,P|376:176|320:88,1,160,4|0,0:0|0:0,0:0:0:0:
224,88,354576,1,2,0:0:0:0:
408,88,355001,2,0,L|296:88,2,80,2|2|2,0:0|0:0|0:0,0:0:0:0:
256,96,355640,6,0,L|432:96,1,160,2|2,0:3|0:3,0:0:0:0:
312,96,356278,1,2,0:0:0:0:
128,112,356491,2,0,L|208:112,1,80,2|0,0:0|0:0,0:0:0:0:
384,112,356916,2,0,L|304:112,1,80,2|0,0:0|0:0,0:0:0:0:
104,112,357342,6,0,P|56:160|128:224,1,160,4|2,0:0|0:0,0:0:0:0:
256,224,357980,2,0,L|96:224,1,160,2|2,0:0|0:0,0:0:0:0:
416,216,358618,2,0,L|440:112,1,80,2|0,0:0|0:0,0:0:0:0:
144,168,359044,6,0,L|224:168,1,80,2|0,0:0|0:0,0:0:0:0:
360,176,359469,1,2,0:0:0:0:
400,144,359575,1,0,0:0:0:0:
384,96,359681,1,2,0:0:0:0:
336,72,359788,1,0,0:0:0:0:
176,72,359895,1,4,0:3:0:0:
48,72,360108,2,0,L|112:72,1,40,2|0,0:0|0:0,0:0:0:0:
288,72,360320,2,0,L|336:72,1,40,2|0,0:3|0:0,0:0:0:0:
136,72,360533,2,0,L|64:72,1,40,2|0,0:3|0:0,0:0:0:0:
384,72,360746,6,0,L|400:104,4,20,4|0|0|0|2,0:3|0:0|0:0|0:0|0:0,0:0:0:0:
80,104,361172,2,0,L|120:104,1,40,2|0,0:3|0:0,0:0:0:0:
288,104,361384,2,0,L|344:104,1,40,2|0,0:0|0:0,0:0:0:0:
80,104,361597,2,0,L|16:104,1,47.9999985351563,2|0,0:3|0:0,0:0:0:0:
328,104,361810,2,0,L|248:104,1,47.9999985351563,2|0,0:3|0:0,0:0:0:0:
120,104,362023,2,0,L|48:104,1,55.9999982910157,2|0,0:3|0:0,0:0:0:0:
384,104,362235,2,0,L|440:104,1,55.9999982910157,0|2,0:0|0:0,0:0:0:0:
128,296,362448,6,0,P|96:240|184:112,1,240,4|2,0:0|0:0,0:0:0:0:
344,304,363317,2,0,P|400:248|280:168,1,240,4|2,0:0|0:0,0:0:0:0:
168,160,364187,6,0,P|248:160|408:160,1,240,4|2,0:1|0:0,0:0:0:0:
80,296,365038,2,0,P|48:248|168:120,1,240,2|2,0:3|0:0,0:0:0:0:
224,120,365782,1,0,0:0:0:0:
304,120,365889,6,0,L|48:120,1,240,4|2,0:1|0:0,0:0:0:0:
216,64,366740,1,2,0:0:0:0:
286,95,366952,1,2,0:0:0:0:
305,170,367165,1,2,0:0:0:0:
257,231,367378,1,2,0:0:0:0:
408,168,367591,6,0,L|144:168,1,240,4|2,0:1|0:0,0:0:0:0:
440,88,368430,2,0,P|464:136|344:248,1,240,2|2,0:3|0:0,0:0:0:0:
256,248,369164,1,0,0:0:0:0:
158,249,369269,6,0,L|400:248,1,240,4|2,0:1|0:0,0:0:0:0:
128,248,370108,1,2,0:0:0:0:
88,216,370212,1,0,0:0:0:0:
86,177,370317,1,2,0:0:0:0:
123,144,370422,1,0,0:0:0:0:
224,136,370528,2,0,L|336:136,1,80,2|0,0:0|0:0,0:0:0:0:
96,256,370947,6,0,L|80:160,1,80,4|0,0:1|0:0,0:0:0:0:
256,232,371367,2,0,L|368:232,1,80,2|0,0:0|0:0,0:0:0:0:
192,232,371786,2,0,L|120:160,1,80,2|0,0:3|0:0,0:0:0:0:
336,160,372206,2,0,L|248:160,1,80,2|0,0:0|0:0,0:0:0:0:
432,160,372625,6,0,L|456:256,1,80,4|0,0:1|0:0,0:0:0:0:
280,160,373045,2,0,L|368:160,1,80,2|0,0:0|0:0,0:0:0:0:
144,160,373465,2,0,L|224:160,1,80,2|0,0:3|0:0,0:0:0:0:
408,168,373884,1,2,0:0:0:0:
368,168,373988,1,0,0:0:0:0:
328,168,374093,1,2,0:0:0:0:
288,168,374198,1,0,0:0:0:0:
104,296,374304,6,0,P|72:272|120:176,1,160,4|2,0:1|0:0,0:0:0:0:
208,168,374933,1,2,0:0:0:0:
352,160,375143,2,0,L|368:256,1,80,2|0,0:3|0:0,0:0:0:0:
168,160,375563,2,0,L|144:256,1,80,2|0,0:0|0:0,0:0:0:0:
336,168,375982,6,0,L|256:168,1,80,4|0,0:1|0:0,0:0:0:0:
400,168,376402,2,0,L|456:168,2,40,2|0|2,0:0|0:0|0:0,0:0:0:0:
224,160,376822,1,2,0:3:0:0:
328,160,377032,2,0,L|384:160,1,40,2|0,0:0|0:0,0:0:0:0:
152,160,377242,1,2,0:0:0:0:
120,183,377346,1,0,0:0:0:0:
107,221,377451,1,2,0:0:0:0:
117,259,377555,1,0,0:0:0:0:
288,256,377660,6,0,L|392:256,3,80,2|0|0|0,0:0|0:0|0:0|0:0,0:0:0:0:
224,256,378500,1,2,0:0:0:0:
170,199,378709,1,0,0:0:0:0:
171,121,378919,1,0,0:0:0:0:
226,66,379129,1,0,0:0:0:0:
392,280,379339,5,2,0:0:0:0:
312,280,379564,1,0,0:0:0:0:
232,280,379790,1,0,0:0:0:0:
152,280,380015,1,0,0:0:0:0:
288,280,380241,2,0,P|320:240|296:128,1,160,2|2,0:0|0:0,0:0:0:0:
176,128,380972,1,2,0:0:0:0:
328,272,381216,6,0,P|272:232|312:128,1,160,2|2,0:0|0:0,0:0:0:0:
400,152,382012,1,2,0:0:0:0:
256,160,382277,6,0,P|184:160|192:248,1,160,2|2,0:0|0:0,0:0:0:0:
304,280,383154,1,2,0:0:0:0:
400,280,383504,2,0,L|432:280,2,20,2|0|0,0:0|0:0|0:0,0:0:0:0:
256,192,383768,12,0,391268,0:0:0:0:
224,168,391709,6,0,L|168:168,2,30.0000011444092
