osu file format v14

[General]
AudioFilename: audio.mp3
AudioLeadIn: 0
PreviewTime: 36399
Countdown: 0
SampleSet: Normal
StackLeniency: 0.7
Mode: 3
LetterboxInBreaks: 0
SpecialStyle: 0
WidescreenStoryboard: 1

[Editor]
DistanceSpacing: 0.8
BeatDivisor: 4
GridSize: 8
TimelineZoom: 1

[Metadata]
Title:Itadakimasu
TitleUnicode:Itadakimasu
Artist:Kagi
ArtistUnicode:Kagi
Creator:FLint[FX]
Version:Delight
Source:
Tags:
BeatmapID:1438863
BeatmapSetID:679767

[Difficulty]
HPDrainRate:7
CircleSize:4
OverallDifficulty:8
ApproachRate:5
SliderMultiplier:1.4
SliderTickRate:1

[Events]
//Background and Video events
0,0,"maxresdefault.jpg",0,0
//Break Periods
//Storyboard Layer 0 (Background)
//Storyboard Layer 1 (Fail)
//Storyboard Layer 2 (Pass)
//Storyboard Layer 3 (Foreground)
//Storyboard Sound Samples

[TimingPoints]
1490,363.636363636364,4,1,0,5,1,0
128035,-500,4,1,0,5,0,0
128126,-500,4,1,0,5,0,0
128217,-222.222222222222,4,1,0,5,0,0
128399,-222.222222222222,4,1,0,5,0,0
128580,-222.222222222222,4,1,0,5,0,0
128762,-100,4,1,0,5,0,0

[HitObjects]
64,192,1490,5,8,0:0:0:0:
320,192,1853,1,8,0:0:0:0:
192,192,2217,1,8,0:0:0:0:
448,192,2490,1,8,0:0:0:0:
448,192,2762,1,8,0:0:0:0:
320,192,3126,1,8,0:0:0:0:
192,192,3308,1,8,0:0:0:0:
64,192,3490,1,8,0:0:0:0:
320,192,3671,1,8,0:0:0:0:
192,192,3944,1,8,0:0:0:0:
448,192,4217,1,8,0:0:0:0:
64,192,4399,1,8,0:0:0:0:
320,192,4762,1,8,0:0:0:0:
64,192,5126,1,8,0:0:0:0:
64,192,5399,1,8,0:0:0:0:
192,192,5671,1,8,0:0:0:0:
64,192,6035,1,8,0:0:0:0:
192,192,6217,1,8,0:0:0:0:
320,192,6399,1,8,0:0:0:0:
448,192,6580,1,8,0:0:0:0:
64,192,7308,1,8,0:0:0:0:
320,192,7671,1,8,0:0:0:0:
192,192,8035,1,8,0:0:0:0:
192,192,8308,1,8,0:0:0:0:
448,192,8580,1,8,0:0:0:0:
320,192,8944,1,8,0:0:0:0:
192,192,9126,1,8,0:0:0:0:
64,192,9308,1,8,0:0:0:0:
320,192,9490,1,8,0:0:0:0:
192,192,9762,1,8,0:0:0:0:
320,192,10035,1,8,0:0:0:0:
64,192,10217,1,8,0:0:0:0:
64,192,10580,1,8,0:0:0:0:
192,192,10944,1,8,0:0:0:0:
448,192,11217,1,8,0:0:0:0:
320,192,11490,1,8,0:0:0:0:
448,192,11853,1,8,0:0:0:0:
320,192,12035,1,8,0:0:0:0:
192,192,12217,1,8,0:0:0:0:
64,192,12399,1,8,0:0:0:0:
192,192,12717,1,0,0:0:0:0:
320,192,12808,1,0,0:0:0:0:
320,192,13126,1,8,0:0:0:0:
448,192,13126,1,0,0:0:0:0:
320,192,13490,1,8,0:0:0:0:
448,192,13490,1,0,0:0:0:0:
192,192,13853,1,8,0:0:0:0:
64,192,14126,1,8,0:0:0:0:
192,192,14399,1,8,0:0:0:0:
448,192,14762,1,8,0:0:0:0:
320,192,14944,1,8,0:0:0:0:
448,192,15126,1,0,0:0:0:0:
64,192,15126,1,0,0:0:0:0:
320,192,15171,1,0,0:0:0:0:
192,192,15217,1,0,0:0:0:0:
64,192,15262,1,0,0:0:0:0:
448,192,15308,1,0,0:0:0:0:
192,192,15580,1,8,0:0:0:0:
320,192,15853,1,8,0:0:0:0:
192,192,16035,1,8,0:0:0:0:
64,192,16035,1,0,0:0:0:0:
192,192,16399,1,8,0:0:0:0:
64,192,16399,1,0,0:0:0:0:
320,192,16762,1,8,0:0:0:0:
192,192,17035,1,8,0:0:0:0:
320,192,17308,1,8,0:0:0:0:
64,192,17671,1,8,0:0:0:0:
192,192,17853,1,8,0:0:0:0:
64,192,18035,1,0,0:0:0:0:
448,192,18035,1,0,0:0:0:0:
192,192,18080,1,0,0:0:0:0:
320,192,18126,1,0,0:0:0:0:
448,192,18171,1,0,0:0:0:0:
64,192,18217,1,0,0:0:0:0:
448,192,18944,1,8,0:0:0:0:
320,192,18944,1,8,0:0:0:0:
320,192,19308,1,8,0:0:0:0:
448,192,19308,1,8,0:0:0:0:
320,192,19671,1,8,0:0:0:0:
192,192,19944,1,8,0:0:0:0:
64,192,20217,1,8,0:0:0:0:
448,192,20580,1,0,0:0:0:0:
320,192,20762,1,0,0:0:0:0:
448,192,20944,1,0,0:0:0:0:
64,192,20944,1,0,0:0:0:0:
320,192,20990,1,0,0:0:0:0:
192,192,21035,1,0,0:0:0:0:
64,192,21080,1,0,0:0:0:0:
448,192,21126,1,0,0:0:0:0:
448,192,21399,1,8,0:0:0:0:
192,192,21671,1,8,0:0:0:0:
64,192,21853,1,8,0:0:0:0:
192,192,21853,1,8,0:0:0:0:
192,192,22217,1,8,0:0:0:0:
64,192,22217,1,8,0:0:0:0:
320,192,22580,1,8,0:0:0:0:
448,192,22853,1,8,0:0:0:0:
448,192,23126,1,8,0:0:0:0:
320,192,23490,1,8,0:0:0:0:
192,192,23671,1,8,0:0:0:0:
64,192,23853,1,0,0:0:0:0:
192,192,23899,1,0,0:0:0:0:
320,192,23944,1,0,0:0:0:0:
448,192,23990,1,0,0:0:0:0:
64,192,24035,1,0,0:0:0:0:
320,192,24217,1,0,0:0:0:0:
448,192,24308,1,0,0:0:0:0:
320,192,24399,1,0,0:0:0:0:
64,192,24535,1,0,0:0:0:0:
320,192,24762,1,8,0:0:0:0:
64,192,24762,128,8,24944:0:0:0:0:
192,192,24944,128,8,25126:0:0:0:0:
320,192,25126,128,8,25308:0:0:0:0:
448,192,25126,1,0,0:0:0:0:
448,192,25308,128,8,25671:0:0:0:0:
192,192,25490,1,0,0:0:0:0:
192,192,25671,128,8,25853:0:0:0:0:
64,192,25762,1,0,0:0:0:0:
320,192,25853,128,8,26035:0:0:0:0:
448,192,26035,128,8,26399:0:0:0:0:
64,192,26035,1,0,0:0:0:0:
320,192,26399,128,8,26580:0:0:0:0:
192,192,26399,1,0,0:0:0:0:
192,192,26580,128,8,26762:0:0:0:0:
64,192,26580,1,0,0:0:0:0:
64,192,26762,128,8,27126:0:0:0:0:
448,192,26762,1,0,0:0:0:0:
320,192,26944,1,0,0:0:0:0:
320,192,27126,128,8,27308:0:0:0:0:
192,192,27126,1,0,0:0:0:0:
448,192,27217,1,0,0:0:0:0:
192,192,27308,128,8,27490:0:0:0:0:
320,192,27490,128,8,27671:0:0:0:0:
448,192,27490,1,0,0:0:0:0:
448,192,27671,128,8,27853:0:0:0:0:
64,192,27671,1,0,0:0:0:0:
320,192,27853,128,8,28035:0:0:0:0:
192,192,28035,128,8,28217:0:0:0:0:
448,192,28035,1,0,0:0:0:0:
64,192,28217,128,8,28580:0:0:0:0:
320,192,28399,1,0,0:0:0:0:
448,192,28580,128,8,28762:0:0:0:0:
192,192,28671,1,0,0:0:0:0:
320,192,28762,128,8,28944:0:0:0:0:
448,192,28944,128,8,29308:0:0:0:0:
64,192,28944,1,0,0:0:0:0:
320,192,29308,128,8,29490:0:0:0:0:
64,192,29308,1,0,0:0:0:0:
448,192,29490,128,8,29671:0:0:0:0:
192,192,29490,1,0,0:0:0:0:
64,192,29671,128,8,29853:0:0:0:0:
320,192,29671,1,0,0:0:0:0:
320,192,29853,128,8,30580:0:0:0:0:
192,192,29853,1,0,0:0:0:0:
448,192,30580,128,0,30762:0:0:0:0:
64,192,30580,1,0,0:0:0:0:
64,192,30762,128,0,30944:0:0:0:0:
192,192,30944,128,0,31126:0:0:0:0:
320,192,30944,1,0,0:0:0:0:
320,192,31126,128,0,31490:0:0:0:0:
448,192,31308,1,0,0:0:0:0:
448,192,31490,128,0,31671:0:0:0:0:
64,192,31490,1,0,0:0:0:0:
192,192,31671,128,0,31853:0:0:0:0:
64,192,31853,128,0,32217:0:0:0:0:
448,192,31853,1,0,0:0:0:0:
448,192,32217,128,0,32399:0:0:0:0:
320,192,32217,1,0,0:0:0:0:
320,192,32399,128,0,32580:0:0:0:0:
64,192,32399,1,0,0:0:0:0:
192,192,32580,128,0,32762:0:0:0:0:
64,192,32762,128,0,32944:0:0:0:0:
448,192,32762,1,0,0:0:0:0:
320,192,32944,128,0,33126:0:0:0:0:
192,192,33035,1,0,0:0:0:0:
64,192,33126,128,0,33308:0:0:0:0:
192,192,33308,128,0,33490:0:0:0:0:
448,192,33308,1,0,0:0:0:0:
448,192,33490,128,0,33671:0:0:0:0:
320,192,33671,128,0,33853:0:0:0:0:
64,192,33671,1,0,0:0:0:0:
192,192,33853,128,0,34035:0:0:0:0:
64,192,34035,128,0,34399:0:0:0:0:
320,192,34217,1,0,0:0:0:0:
192,192,34399,128,0,34580:0:0:0:0:
448,192,34490,1,0,0:0:0:0:
320,192,34580,128,0,34762:0:0:0:0:
448,192,34762,128,0,35126:0:0:0:0:
64,192,34762,1,0,0:0:0:0:
192,192,35126,128,0,35308:0:0:0:0:
320,192,35126,1,0,0:0:0:0:
448,192,35308,128,0,35490:0:0:0:0:
64,192,35490,128,0,35671:0:0:0:0:
192,192,35490,1,0,0:0:0:0:
448,192,35671,128,0,36035:0:0:0:0:
320,192,35671,1,0,0:0:0:0:
192,192,36035,1,0,0:0:0:0:
64,192,36399,1,0,0:0:0:0:
320,192,36399,1,0,0:0:0:0:
448,192,36580,1,0,0:0:0:0:
192,192,36762,1,0,0:0:0:0:
320,192,36762,1,0,0:0:0:0:
64,192,36944,1,0,0:0:0:0:
192,192,37126,1,0,0:0:0:0:
448,192,37126,1,0,0:0:0:0:
320,192,37308,1,0,0:0:0:0:
192,192,37399,1,0,0:0:0:0:
448,192,37399,1,0,0:0:0:0:
320,192,37671,1,0,0:0:0:0:
192,192,37853,1,0,0:0:0:0:
320,192,38035,1,0,0:0:0:0:
192,192,38217,1,0,0:0:0:0:
64,192,38399,1,0,0:0:0:0:
320,192,38580,1,0,0:0:0:0:
192,192,38580,1,0,0:0:0:0:
448,192,38762,1,0,0:0:0:0:
192,192,38853,1,0,0:0:0:0:
320,192,38853,1,0,0:0:0:0:
448,192,39126,1,0,0:0:0:0:
64,192,39308,1,0,0:0:0:0:
320,192,39308,1,0,0:0:0:0:
192,192,39490,1,0,0:0:0:0:
448,192,39671,1,0,0:0:0:0:
64,192,39671,1,0,0:0:0:0:
320,192,39853,1,0,0:0:0:0:
192,192,40035,1,0,0:0:0:0:
64,192,40035,1,0,0:0:0:0:
320,192,40217,1,0,0:0:0:0:
192,192,40308,1,0,0:0:0:0:
64,192,40308,1,0,0:0:0:0:
320,192,40580,1,0,0:0:0:0:
192,192,40762,1,0,0:0:0:0:
64,192,40944,1,0,0:0:0:0:
192,192,41126,1,0,0:0:0:0:
320,192,41308,1,0,0:0:0:0:
448,192,41490,1,0,0:0:0:0:
192,192,41490,1,0,0:0:0:0:
64,192,41490,128,0,41671:0:0:0:0:
448,192,41671,128,0,41853:0:0:0:0:
320,192,41671,1,0,0:0:0:0:
192,192,41853,128,0,42035:0:0:0:0:
64,192,41853,1,0,0:0:0:0:
320,192,42035,128,0,42217:0:0:0:0:
448,192,42035,1,0,0:0:0:0:
192,192,42217,1,0,0:0:0:0:
64,192,42217,1,0,0:0:0:0:
320,192,42399,1,0,0:0:0:0:
192,192,42580,1,0,0:0:0:0:
448,192,42580,1,0,0:0:0:0:
64,192,42762,1,0,0:0:0:0:
320,192,42944,1,0,0:0:0:0:
448,192,42944,1,0,0:0:0:0:
192,192,43126,1,0,0:0:0:0:
320,192,43217,1,0,0:0:0:0:
448,192,43217,1,0,0:0:0:0:
192,192,43490,1,0,0:0:0:0:
64,192,43671,1,0,0:0:0:0:
192,192,43853,1,0,0:0:0:0:
320,192,44035,1,0,0:0:0:0:
448,192,44217,1,0,0:0:0:0:
64,192,44399,1,0,0:0:0:0:
192,192,44399,1,0,0:0:0:0:
320,192,44580,1,0,0:0:0:0:
192,192,44671,1,0,0:0:0:0:
64,192,44671,1,0,0:0:0:0:
320,192,44944,1,0,0:0:0:0:
448,192,45126,1,0,0:0:0:0:
192,192,45126,1,0,0:0:0:0:
320,192,45308,1,0,0:0:0:0:
448,192,45490,1,0,0:0:0:0:
64,192,45490,1,0,0:0:0:0:
320,192,45671,1,0,0:0:0:0:
192,192,45853,1,0,0:0:0:0:
64,192,45853,1,0,0:0:0:0:
320,192,46035,1,0,0:0:0:0:
192,192,46126,1,0,0:0:0:0:
64,192,46126,1,0,0:0:0:0:
320,192,46399,1,0,0:0:0:0:
448,192,46580,1,0,0:0:0:0:
320,192,46762,1,0,0:0:0:0:
192,192,46944,1,0,0:0:0:0:
64,192,47126,1,0,0:0:0:0:
320,192,47308,128,0,47490:0:0:0:0:
448,192,47308,1,0,0:0:0:0:
192,192,47490,1,0,0:0:0:0:
64,192,47490,128,0,47671:0:0:0:0:
448,192,47671,128,0,47853:0:0:0:0:
320,192,47671,1,0,0:0:0:0:
64,192,47853,128,0,48035:0:0:0:0:
192,192,47853,1,0,0:0:0:0:
448,192,48035,1,0,0:0:0:0:
320,192,48217,1,0,0:0:0:0:
448,192,48399,1,0,0:0:0:0:
192,192,48399,1,0,0:0:0:0:
64,192,48580,1,0,0:0:0:0:
320,192,48762,1,0,0:0:0:0:
448,192,48762,1,0,0:0:0:0:
192,192,48944,1,0,0:0:0:0:
448,192,49035,1,0,0:0:0:0:
320,192,49035,1,0,0:0:0:0:
192,192,49308,1,0,0:0:0:0:
64,192,49490,1,0,0:0:0:0:
448,192,49490,1,0,0:0:0:0:
192,192,49671,1,0,0:0:0:0:
320,192,49853,1,0,0:0:0:0:
64,192,49853,1,0,0:0:0:0:
448,192,50035,1,0,0:0:0:0:
192,192,50217,1,0,0:0:0:0:
64,192,50217,1,0,0:0:0:0:
320,192,50399,1,0,0:0:0:0:
64,192,50490,1,0,0:0:0:0:
192,192,50490,1,0,0:0:0:0:
320,192,50762,1,0,0:0:0:0:
448,192,50944,1,0,0:0:0:0:
192,192,50944,1,0,0:0:0:0:
320,192,51126,1,0,0:0:0:0:
192,192,51308,1,0,0:0:0:0:
64,192,51490,1,0,0:0:0:0:
448,192,51671,1,0,0:0:0:0:
320,192,51671,1,0,0:0:0:0:
192,192,51853,1,0,0:0:0:0:
320,192,51944,1,0,0:0:0:0:
448,192,51944,1,0,0:0:0:0:
192,192,52217,1,0,0:0:0:0:
64,192,52399,1,0,0:0:0:0:
448,192,52399,1,0,0:0:0:0:
192,192,52580,1,0,0:0:0:0:
320,192,52762,1,0,0:0:0:0:
64,192,52762,1,0,0:0:0:0:
448,192,52944,1,0,0:0:0:0:
192,192,53126,1,0,0:0:0:0:
64,192,53126,128,0,53308:0:0:0:0:
320,192,53308,128,0,53490:0:0:0:0:
448,192,53308,1,0,0:0:0:0:
448,192,53490,128,0,53671:0:0:0:0:
64,192,53490,1,0,0:0:0:0:
192,192,53671,128,0,53853:0:0:0:0:
64,192,53853,1,0,0:0:0:0:
320,192,53853,1,0,0:0:0:0:
192,192,54035,1,0,0:0:0:0:
320,192,54217,1,0,0:0:0:0:
64,192,54217,1,0,0:0:0:0:
448,192,54399,1,0,0:0:0:0:
64,192,54580,1,0,0:0:0:0:
192,192,54580,1,0,0:0:0:0:
320,192,54762,1,0,0:0:0:0:
192,192,54853,1,0,0:0:0:0:
64,192,54853,1,0,0:0:0:0:
320,192,55126,1,0,0:0:0:0:
448,192,55308,1,0,0:0:0:0:
64,192,55308,1,0,0:0:0:0:
320,192,55490,1,0,0:0:0:0:
192,192,55490,1,0,0:0:0:0:
192,192,55671,1,0,0:0:0:0:
448,192,55671,1,0,0:0:0:0:
64,192,55853,1,0,0:0:0:0:
448,192,56035,1,0,0:0:0:0:
320,192,56035,1,0,0:0:0:0:
192,192,56217,1,0,0:0:0:0:
320,192,56308,1,0,0:0:0:0:
448,192,56308,1,0,0:0:0:0:
192,192,56580,1,0,0:0:0:0:
320,192,56762,1,0,0:0:0:0:
64,192,56762,1,0,0:0:0:0:
192,192,56944,1,0,0:0:0:0:
320,192,57126,1,0,0:0:0:0:
64,192,57126,1,0,0:0:0:0:
448,192,57308,1,0,0:0:0:0:
192,192,57490,1,0,0:0:0:0:
64,192,57490,1,0,0:0:0:0:
320,192,57671,1,0,0:0:0:0:
64,192,57762,1,0,0:0:0:0:
192,192,57762,1,0,0:0:0:0:
320,192,58035,1,0,0:0:0:0:
448,192,58217,1,0,0:0:0:0:
64,192,58217,1,0,0:0:0:0:
320,192,58399,1,0,0:0:0:0:
192,192,58580,1,0,0:0:0:0:
64,192,58762,1,0,0:0:0:0:
448,192,58762,1,0,0:0:0:0:
320,192,58944,1,0,0:0:0:0:
192,192,59035,1,0,0:0:0:0:
64,192,59126,1,0,0:0:0:0:
192,192,59217,1,0,0:0:0:0:
448,192,59308,1,0,0:0:0:0:
320,192,59308,1,0,0:0:0:0:
64,192,59671,1,0,0:0:0:0:
448,192,59853,1,0,0:0:0:0:
192,192,60035,1,0,0:0:0:0:
448,192,60217,1,0,0:0:0:0:
64,192,60399,1,0,0:0:0:0:
448,192,60535,1,0,0:0:0:0:
192,192,60626,1,0,0:0:0:0:
448,192,60808,1,0,0:0:0:0:
64,192,60899,1,0,0:0:0:0:
448,192,61126,1,0,0:0:0:0:
320,192,61308,1,0,0:0:0:0:
448,192,61490,1,0,0:0:0:0:
320,192,61580,1,0,0:0:0:0:
192,192,61671,1,0,0:0:0:0:
64,192,61853,1,0,0:0:0:0:
192,192,62035,1,0,0:0:0:0:
448,192,62126,1,0,0:0:0:0:
320,192,62308,1,0,0:0:0:0:
64,192,62399,1,0,0:0:0:0:
448,192,62580,1,0,0:0:0:0:
64,192,62762,1,0,0:0:0:0:
320,192,62944,1,0,0:0:0:0:
64,192,63126,1,0,0:0:0:0:
448,192,63308,1,0,0:0:0:0:
64,192,63444,1,0,0:0:0:0:
320,192,63535,1,0,0:0:0:0:
64,192,63717,1,0,0:0:0:0:
448,192,63808,1,0,0:0:0:0:
192,192,63990,1,0,0:0:0:0:
320,192,64217,1,0,0:0:0:0:
448,192,64399,1,0,0:0:0:0:
320,192,64490,1,0,0:0:0:0:
192,192,64580,1,0,0:0:0:0:
64,192,64671,1,0,0:0:0:0:
192,192,64762,1,0,0:0:0:0:
320,192,64944,1,0,0:0:0:0:
64,192,65080,1,0,0:0:0:0:
448,192,65217,1,0,0:0:0:0:
192,192,65308,1,0,0:0:0:0:
64,192,65490,1,0,0:0:0:0:
448,192,65671,1,0,0:0:0:0:
192,192,65853,1,0,0:0:0:0:
448,192,66035,1,0,0:0:0:0:
64,192,66217,1,0,0:0:0:0:
448,192,66353,1,0,0:0:0:0:
192,192,66399,1,0,0:0:0:0:
448,192,66626,1,0,0:0:0:0:
64,192,66717,1,0,0:0:0:0:
448,192,66944,1,0,0:0:0:0:
192,192,67126,1,0,0:0:0:0:
448,192,67308,1,0,0:0:0:0:
320,192,67399,1,0,0:0:0:0:
192,192,67490,1,0,0:0:0:0:
320,192,67671,1,0,0:0:0:0:
64,192,67853,1,0,0:0:0:0:
320,192,67944,1,0,0:0:0:0:
192,192,68126,1,0,0:0:0:0:
448,192,68217,1,0,0:0:0:0:
320,192,68399,1,0,0:0:0:0:
192,192,68399,128,0,70580:0:0:0:0:
64,192,68580,1,0,0:0:0:0:
320,192,68762,1,0,0:0:0:0:
64,192,68944,1,0,0:0:0:0:
448,192,69126,1,0,0:0:0:0:
64,192,69262,1,0,0:0:0:0:
320,192,69353,1,0,0:0:0:0:
64,192,69535,1,0,0:0:0:0:
448,192,69626,1,0,0:0:0:0:
320,192,69808,1,0,0:0:0:0:
320,192,70035,1,0,0:0:0:0:
448,192,70217,1,0,0:0:0:0:
320,192,70308,1,0,0:0:0:0:
64,192,70399,1,0,0:0:0:0:
320,192,70490,1,0,0:0:0:0:
448,192,70580,1,0,0:0:0:0:
64,192,70580,1,0,0:0:0:0:
320,192,70671,1,0,0:0:0:0:
192,192,70762,1,0,0:0:0:0:
448,192,70762,1,0,0:0:0:0:
64,192,70853,1,0,0:0:0:0:
192,192,70944,1,0,0:0:0:0:
64,192,71308,5,8,0:0:0:0:
320,192,71671,1,8,0:0:0:0:
192,192,72035,1,8,0:0:0:0:
448,192,72308,1,8,0:0:0:0:
448,192,72580,1,8,0:0:0:0:
320,192,72944,1,8,0:0:0:0:
192,192,73126,1,8,0:0:0:0:
64,192,73308,1,8,0:0:0:0:
320,192,73490,1,8,0:0:0:0:
192,192,73762,1,8,0:0:0:0:
448,192,74035,1,8,0:0:0:0:
64,192,74217,1,8,0:0:0:0:
320,192,74580,1,8,0:0:0:0:
64,192,74944,1,8,0:0:0:0:
64,192,75217,1,8,0:0:0:0:
192,192,75490,1,8,0:0:0:0:
64,192,75853,1,8,0:0:0:0:
192,192,76035,1,8,0:0:0:0:
320,192,76217,1,8,0:0:0:0:
448,192,76399,1,8,0:0:0:0:
64,192,77126,1,8,0:0:0:0:
320,192,77490,1,8,0:0:0:0:
192,192,77853,1,8,0:0:0:0:
192,192,78126,1,8,0:0:0:0:
448,192,78399,1,8,0:0:0:0:
320,192,78762,1,8,0:0:0:0:
192,192,78944,1,8,0:0:0:0:
64,192,79126,1,8,0:0:0:0:
320,192,79308,1,8,0:0:0:0:
192,192,79580,1,8,0:0:0:0:
320,192,79853,1,8,0:0:0:0:
64,192,80035,1,8,0:0:0:0:
64,192,80399,1,8,0:0:0:0:
192,192,80762,1,8,0:0:0:0:
448,192,81035,1,8,0:0:0:0:
320,192,81308,1,8,0:0:0:0:
448,192,81671,1,8,0:0:0:0:
320,192,81853,1,8,0:0:0:0:
192,192,82035,1,8,0:0:0:0:
64,192,82217,1,8,0:0:0:0:
192,192,82580,1,0,0:0:0:0:
320,192,82626,1,0,0:0:0:0:
448,192,82944,1,0,0:0:0:0:
320,192,82944,1,0,0:0:0:0:
192,192,83126,1,0,0:0:0:0:
448,192,83308,1,0,0:0:0:0:
64,192,83308,1,0,0:0:0:0:
192,192,83490,1,0,0:0:0:0:
320,192,83580,1,0,0:0:0:0:
192,192,83671,1,0,0:0:0:0:
320,192,83762,1,0,0:0:0:0:
192,192,83853,1,0,0:0:0:0:
448,192,84035,1,0,0:0:0:0:
64,192,84035,1,0,0:0:0:0:
192,192,84217,1,0,0:0:0:0:
320,192,84399,1,0,0:0:0:0:
192,192,84580,1,0,0:0:0:0:
448,192,84762,1,0,0:0:0:0:
64,192,84762,1,0,0:0:0:0:
192,192,84944,1,0,0:0:0:0:
320,192,85035,1,0,0:0:0:0:
192,192,85126,1,0,0:0:0:0:
320,192,85217,1,0,0:0:0:0:
192,192,85308,1,0,0:0:0:0:
448,192,85490,1,0,0:0:0:0:
64,192,85490,1,0,0:0:0:0:
320,192,85671,1,0,0:0:0:0:
192,192,85853,1,0,0:0:0:0:
320,192,86035,1,0,0:0:0:0:
64,192,86217,1,0,0:0:0:0:
192,192,86217,1,0,0:0:0:0:
448,192,86399,1,0,0:0:0:0:
192,192,86490,1,0,0:0:0:0:
448,192,86580,1,0,0:0:0:0:
192,192,86671,1,0,0:0:0:0:
448,192,86762,1,0,0:0:0:0:
320,192,86944,1,0,0:0:0:0:
192,192,86944,1,0,0:0:0:0:
64,192,87126,1,0,0:0:0:0:
192,192,87308,1,0,0:0:0:0:
320,192,87490,1,0,0:0:0:0:
448,192,87671,1,0,0:0:0:0:
192,192,87671,1,0,0:0:0:0:
320,192,87853,1,0,0:0:0:0:
64,192,87944,1,0,0:0:0:0:
320,192,88035,1,0,0:0:0:0:
64,192,88126,1,0,0:0:0:0:
320,192,88217,1,0,0:0:0:0:
64,192,88399,1,0,0:0:0:0:
192,192,88399,1,0,0:0:0:0:
320,192,88580,1,0,0:0:0:0:
448,192,88671,1,0,0:0:0:0:
320,192,88944,1,0,0:0:0:0:
64,192,89126,1,0,0:0:0:0:
320,192,89126,1,0,0:0:0:0:
192,192,89308,1,0,0:0:0:0:
448,192,89399,1,0,0:0:0:0:
192,192,89490,1,0,0:0:0:0:
448,192,89580,1,0,0:0:0:0:
192,192,89671,1,0,0:0:0:0:
64,192,89853,1,0,0:0:0:0:
448,192,89853,1,0,0:0:0:0:
192,192,90035,1,0,0:0:0:0:
320,192,90217,1,0,0:0:0:0:
192,192,90399,1,0,0:0:0:0:
64,192,90580,1,0,0:0:0:0:
448,192,90580,1,0,0:0:0:0:
320,192,90762,1,0,0:0:0:0:
192,192,90853,1,0,0:0:0:0:
320,192,90944,1,0,0:0:0:0:
192,192,91035,1,0,0:0:0:0:
320,192,91126,1,0,0:0:0:0:
448,192,91308,1,0,0:0:0:0:
64,192,91308,1,0,0:0:0:0:
192,192,91490,1,0,0:0:0:0:
448,192,91671,1,0,0:0:0:0:
320,192,91671,128,0,93853:0:0:0:0:
192,192,91853,1,0,0:0:0:0:
64,192,92035,1,0,0:0:0:0:
448,192,92035,1,0,0:0:0:0:
192,192,92217,1,0,0:0:0:0:
448,192,92308,1,0,0:0:0:0:
192,192,92399,1,0,0:0:0:0:
448,192,92490,1,0,0:0:0:0:
192,192,92580,1,0,0:0:0:0:
64,192,92762,1,0,0:0:0:0:
448,192,92762,1,0,0:0:0:0:
192,192,92944,1,0,0:0:0:0:
448,192,93126,1,0,0:0:0:0:
192,192,93308,1,0,0:0:0:0:
64,192,93490,1,0,0:0:0:0:
448,192,93490,1,0,0:0:0:0:
192,192,93671,1,0,0:0:0:0:
448,192,93762,1,0,0:0:0:0:
192,192,93853,1,0,0:0:0:0:
448,192,93944,1,0,0:0:0:0:
192,192,94035,1,0,0:0:0:0:
448,192,94217,1,0,0:0:0:0:
320,192,94217,1,0,0:0:0:0:
64,192,94217,1,0,0:0:0:0:
192,192,94399,1,0,0:0:0:0:
64,192,94580,1,0,0:0:0:0:
320,192,94580,1,0,0:0:0:0:
448,192,94580,1,0,0:0:0:0:
192,192,94762,1,0,0:0:0:0:
320,192,94944,1,0,0:0:0:0:
64,192,94944,1,0,0:0:0:0:
192,192,94944,1,0,0:0:0:0:
320,192,95126,1,0,0:0:0:0:
192,192,95308,1,0,0:0:0:0:
448,192,95308,1,0,0:0:0:0:
64,192,95308,1,0,0:0:0:0:
320,192,95580,1,0,0:0:0:0:
192,192,95580,1,0,0:0:0:0:
64,192,95762,1,0,0:0:0:0:
448,192,95853,1,0,0:0:0:0:
320,192,95853,1,0,0:0:0:0:
192,192,95853,1,0,0:0:0:0:
448,192,96035,1,0,0:0:0:0:
320,192,96035,1,0,0:0:0:0:
192,192,96035,1,0,0:0:0:0:
192,192,96217,1,0,0:0:0:0:
64,192,96399,1,0,0:0:0:0:
448,192,96399,1,0,0:0:0:0:
320,192,96399,1,0,0:0:0:0:
192,192,96580,1,0,0:0:0:0:
448,192,96762,1,0,0:0:0:0:
192,192,96762,1,0,0:0:0:0:
64,192,96762,1,0,0:0:0:0:
320,192,96944,1,0,0:0:0:0:
448,192,97035,1,0,0:0:0:0:
192,192,97035,1,0,0:0:0:0:
64,192,97035,1,0,0:0:0:0:
320,192,97308,1,0,0:0:0:0:
192,192,97490,1,0,0:0:0:0:
64,192,97490,1,0,0:0:0:0:
320,192,97490,1,0,0:0:0:0:
320,192,97671,1,0,0:0:0:0:
448,192,97853,1,0,0:0:0:0:
192,192,97853,1,0,0:0:0:0:
64,192,97853,1,0,0:0:0:0:
64,192,98035,1,0,0:0:0:0:
320,192,98217,1,0,0:0:0:0:
192,192,98217,1,0,0:0:0:0:
448,192,98217,1,0,0:0:0:0:
448,192,98399,1,0,0:0:0:0:
320,192,98490,1,0,0:0:0:0:
64,192,98490,1,0,0:0:0:0:
192,192,98490,1,0,0:0:0:0:
448,192,98762,1,0,0:0:0:0:
320,192,98762,1,0,0:0:0:0:
192,192,98762,1,0,0:0:0:0:
64,192,98944,1,0,0:0:0:0:
448,192,99126,1,0,0:0:0:0:
192,192,99126,1,0,0:0:0:0:
64,192,99126,1,0,0:0:0:0:
192,192,99308,1,0,0:0:0:0:
448,192,99308,1,0,0:0:0:0:
320,192,99308,1,0,0:0:0:0:
64,192,99490,1,0,0:0:0:0:
320,192,99490,1,0,0:0:0:0:
448,192,99490,1,0,0:0:0:0:
64,192,99671,1,0,0:0:0:0:
320,192,99671,1,0,0:0:0:0:
192,192,99671,1,0,0:0:0:0:
448,192,99671,128,0,99853:0:0:0:0:
64,192,99853,128,0,100035:0:0:0:0:
320,192,100035,128,0,100217:0:0:0:0:
192,192,100217,128,0,100399:0:0:0:0:
448,192,100399,1,0,0:0:0:0:
320,192,100399,1,0,0:0:0:0:
64,192,100399,1,0,0:0:0:0:
448,192,100580,1,0,0:0:0:0:
320,192,100762,1,0,0:0:0:0:
192,192,100762,1,0,0:0:0:0:
64,192,100762,1,0,0:0:0:0:
320,192,100944,1,0,0:0:0:0:
448,192,101126,1,0,0:0:0:0:
192,192,101126,1,0,0:0:0:0:
64,192,101126,1,0,0:0:0:0:
192,192,101308,1,0,0:0:0:0:
320,192,101399,1,0,0:0:0:0:
64,192,101399,1,0,0:0:0:0:
448,192,101399,1,0,0:0:0:0:
448,192,101580,1,0,0:0:0:0:
192,192,101671,1,0,0:0:0:0:
320,192,101671,1,0,0:0:0:0:
64,192,101671,1,0,0:0:0:0:
320,192,101853,1,0,0:0:0:0:
448,192,102035,1,0,0:0:0:0:
192,192,102035,1,0,0:0:0:0:
64,192,102035,1,0,0:0:0:0:
64,192,102217,1,0,0:0:0:0:
192,192,102217,1,0,0:0:0:0:
320,192,102217,1,0,0:0:0:0:
448,192,102399,1,0,0:0:0:0:
320,192,102399,1,0,0:0:0:0:
64,192,102399,1,0,0:0:0:0:
192,192,102580,1,0,0:0:0:0:
320,192,102580,1,0,0:0:0:0:
64,192,102580,1,0,0:0:0:0:
320,192,102762,1,0,0:0:0:0:
448,192,102853,1,0,0:0:0:0:
192,192,102853,1,0,0:0:0:0:
64,192,102853,1,0,0:0:0:0:
192,192,103126,1,0,0:0:0:0:
64,192,103308,1,0,0:0:0:0:
320,192,103308,1,0,0:0:0:0:
448,192,103308,1,0,0:0:0:0:
192,192,103490,1,0,0:0:0:0:
320,192,103671,1,0,0:0:0:0:
192,192,103671,1,0,0:0:0:0:
64,192,103671,1,0,0:0:0:0:
320,192,103853,1,0,0:0:0:0:
192,192,104035,1,0,0:0:0:0:
64,192,104035,1,0,0:0:0:0:
448,192,104035,1,0,0:0:0:0:
192,192,104217,1,0,0:0:0:0:
320,192,104308,1,0,0:0:0:0:
64,192,104308,1,0,0:0:0:0:
448,192,104308,1,0,0:0:0:0:
448,192,104580,1,0,0:0:0:0:
320,192,104580,1,0,0:0:0:0:
64,192,104580,1,0,0:0:0:0:
192,192,104762,1,0,0:0:0:0:
448,192,104762,1,0,0:0:0:0:
64,192,104944,1,0,0:0:0:0:
320,192,104944,1,0,0:0:0:0:
64,192,105126,1,0,0:0:0:0:
192,192,105126,1,0,0:0:0:0:
320,192,105126,1,0,0:0:0:0:
320,192,105308,1,0,0:0:0:0:
448,192,105308,1,0,0:0:0:0:
64,192,105308,1,0,0:0:0:0:
192,192,105490,1,0,0:0:0:0:
320,192,105490,1,0,0:0:0:0:
448,192,105490,1,0,0:0:0:0:
64,192,105550,1,0,0:0:0:0:
192,192,105611,1,0,0:0:0:0:
320,192,105671,1,0,0:0:0:0:
448,192,105732,1,0,0:0:0:0:
320,192,105793,1,0,0:0:0:0:
192,192,105853,1,0,0:0:0:0:
64,192,106035,1,0,0:0:0:0:
320,192,106080,1,0,0:0:0:0:
64,192,106217,128,8,106399:0:0:0:0:
448,192,106217,1,8,0:0:0:0:
192,192,106399,128,8,106580:0:0:0:0:
320,192,106580,128,8,106762:0:0:0:0:
64,192,106580,1,0,0:0:0:0:
448,192,106762,128,8,107126:0:0:0:0:
64,192,106944,1,0,0:0:0:0:
192,192,107126,128,8,107308:0:0:0:0:
448,192,107217,1,0,0:0:0:0:
320,192,107308,128,8,107490:0:0:0:0:
448,192,107490,128,8,107853:0:0:0:0:
64,192,107490,1,0,0:0:0:0:
320,192,107853,128,8,108035:0:0:0:0:
192,192,107853,1,0,0:0:0:0:
192,192,108035,128,8,108217:0:0:0:0:
448,192,108035,1,0,0:0:0:0:
64,192,108217,128,8,108580:0:0:0:0:
320,192,108217,1,0,0:0:0:0:
192,192,108399,1,0,0:0:0:0:
320,192,108580,128,8,108762:0:0:0:0:
448,192,108671,1,0,0:0:0:0:
192,192,108762,128,8,108944:0:0:0:0:
320,192,108944,128,8,109126:0:0:0:0:
64,192,108944,1,0,0:0:0:0:
448,192,109126,128,8,109308:0:0:0:0:
192,192,109126,1,0,0:0:0:0:
320,192,109308,128,8,109490:0:0:0:0:
192,192,109490,128,8,109671:0:0:0:0:
448,192,109490,1,0,0:0:0:0:
64,192,109671,128,8,110035:0:0:0:0:
192,192,109853,1,0,0:0:0:0:
448,192,110035,128,8,110217:0:0:0:0:
320,192,110035,1,0,0:0:0:0:
320,192,110217,128,8,110399:0:0:0:0:
448,192,110399,128,8,110762:0:0:0:0:
64,192,110399,1,0,0:0:0:0:
320,192,110762,128,8,110944:0:0:0:0:
192,192,110762,1,0,0:0:0:0:
448,192,110944,128,8,111126:0:0:0:0:
64,192,110944,1,0,0:0:0:0:
64,192,111126,128,8,111308:0:0:0:0:
192,192,111126,1,0,0:0:0:0:
320,192,111308,128,8,112035:0:0:0:0:
448,192,111308,1,0,0:0:0:0:
448,192,112035,128,0,112217:0:0:0:0:
192,192,112035,1,0,0:0:0:0:
64,192,112217,128,0,112399:0:0:0:0:
192,192,112399,128,0,112580:0:0:0:0:
448,192,112399,1,0,0:0:0:0:
320,192,112580,128,0,112944:0:0:0:0:
64,192,112762,1,0,0:0:0:0:
448,192,112944,128,0,113126:0:0:0:0:
192,192,112944,1,0,0:0:0:0:
192,192,113126,128,0,113308:0:0:0:0:
64,192,113308,128,0,113671:0:0:0:0:
320,192,113308,1,0,0:0:0:0:
448,192,113671,128,0,113853:0:0:0:0:
320,192,113671,1,0,0:0:0:0:
320,192,113853,128,0,114035:0:0:0:0:
192,192,113853,1,0,0:0:0:0:
192,192,114035,128,0,114217:0:0:0:0:
64,192,114035,1,0,0:0:0:0:
64,192,114217,128,0,114399:0:0:0:0:
320,192,114399,128,0,114580:0:0:0:0:
448,192,114399,1,0,0:0:0:0:
64,192,114580,128,0,114762:0:0:0:0:
192,192,114762,128,0,114944:0:0:0:0:
320,192,114762,1,0,0:0:0:0:
448,192,114944,128,0,115126:0:0:0:0:
64,192,114944,1,0,0:0:0:0:
320,192,115126,128,0,115308:0:0:0:0:
192,192,115308,128,0,115490:0:0:0:0:
448,192,115308,1,0,0:0:0:0:
64,192,115490,128,0,115853:0:0:0:0:
320,192,115671,1,0,0:0:0:0:
192,192,115853,128,0,116035:0:0:0:0:
448,192,115944,1,0,0:0:0:0:
320,192,116035,128,0,116217:0:0:0:0:
448,192,116217,128,0,116580:0:0:0:0:
64,192,116217,1,0,0:0:0:0:
192,192,116580,128,0,116762:0:0:0:0:
64,192,116580,1,0,0:0:0:0:
448,192,116762,128,0,116944:0:0:0:0:
320,192,116762,1,0,0:0:0:0:
64,192,116944,128,0,117126:0:0:0:0:
192,192,116944,1,0,0:0:0:0:
448,192,117126,128,0,117853:0:0:0:0:
320,192,117126,1,0,0:0:0:0:
320,192,117853,1,0,0:0:0:0:
64,192,117853,1,0,0:0:0:0:
192,192,117944,1,0,0:0:0:0:
320,192,118035,1,0,0:0:0:0:
448,192,118126,1,0,0:0:0:0:
64,192,118126,1,0,0:0:0:0:
320,192,118217,1,0,0:0:0:0:
192,192,118308,1,0,0:0:0:0:
64,192,118399,1,0,0:0:0:0:
320,192,118399,1,0,0:0:0:0:
448,192,118490,1,0,0:0:0:0:
320,192,118580,1,0,0:0:0:0:
64,192,118580,1,0,0:0:0:0:
192,192,118671,1,0,0:0:0:0:
448,192,118762,1,0,0:0:0:0:
192,192,118853,1,0,0:0:0:0:
448,192,118944,1,0,0:0:0:0:
320,192,118944,1,0,0:0:0:0:
192,192,119035,1,0,0:0:0:0:
64,192,119126,1,0,0:0:0:0:
192,192,119217,1,0,0:0:0:0:
320,192,119308,1,0,0:0:0:0:
64,192,119308,1,0,0:0:0:0:
448,192,119399,1,0,0:0:0:0:
320,192,119490,1,0,0:0:0:0:
64,192,119580,1,0,0:0:0:0:
320,192,119671,1,0,0:0:0:0:
192,192,119671,1,0,0:0:0:0:
448,192,119762,1,0,0:0:0:0:
64,192,119853,1,0,0:0:0:0:
192,192,119944,1,0,0:0:0:0:
320,192,120035,1,0,0:0:0:0:
448,192,120035,1,0,0:0:0:0:
192,192,120126,1,0,0:0:0:0:
320,192,120217,1,0,0:0:0:0:
64,192,120308,1,0,0:0:0:0:
192,192,120399,1,0,0:0:0:0:
448,192,120399,1,0,0:0:0:0:
320,192,120490,1,0,0:0:0:0:
64,192,120580,1,0,0:0:0:0:
192,192,120671,1,0,0:0:0:0:
320,192,120762,1,0,0:0:0:0:
64,192,120762,1,0,0:0:0:0:
448,192,120853,1,0,0:0:0:0:
192,192,120853,1,0,0:0:0:0:
320,192,121035,1,0,0:0:0:0:
448,192,121126,1,0,0:0:0:0:
192,192,121126,1,0,0:0:0:0:
320,192,121217,1,0,0:0:0:0:
192,192,121308,1,0,0:0:0:0:
64,192,121399,1,0,0:0:0:0:
192,192,121490,1,0,0:0:0:0:
448,192,121490,1,0,0:0:0:0:
320,192,121580,1,0,0:0:0:0:
448,192,121671,1,0,0:0:0:0:
64,192,121762,1,0,0:0:0:0:
320,192,121853,1,0,0:0:0:0:
192,192,121853,1,0,0:0:0:0:
448,192,121944,1,0,0:0:0:0:
320,192,122035,1,0,0:0:0:0:
192,192,122126,1,0,0:0:0:0:
448,192,122217,1,0,0:0:0:0:
320,192,122217,1,0,0:0:0:0:
64,192,122217,1,0,0:0:0:0:
192,192,122399,1,0,0:0:0:0:
448,192,122490,1,0,0:0:0:0:
64,192,122580,1,0,0:0:0:0:
320,192,122580,1,0,0:0:0:0:
192,192,122671,1,0,0:0:0:0:
320,192,122762,1,0,0:0:0:0:
448,192,122853,1,0,0:0:0:0:
192,192,122944,1,0,0:0:0:0:
320,192,122944,1,0,0:0:0:0:
64,192,123035,1,0,0:0:0:0:
192,192,123126,1,0,0:0:0:0:
320,192,123217,1,0,0:0:0:0:
448,192,123308,1,0,0:0:0:0:
192,192,123308,1,0,0:0:0:0:
320,192,123399,1,0,0:0:0:0:
192,192,123490,1,0,0:0:0:0:
320,192,123580,1,0,0:0:0:0:
448,192,123671,1,0,0:0:0:0:
64,192,123671,1,0,0:0:0:0:
320,192,123762,1,0,0:0:0:0:
192,192,123853,1,0,0:0:0:0:
64,192,123944,1,0,0:0:0:0:
448,192,123944,1,0,0:0:0:0:
320,192,124035,1,0,0:0:0:0:
192,192,124126,1,0,0:0:0:0:
320,192,124217,1,0,0:0:0:0:
64,192,124217,1,0,0:0:0:0:
448,192,124308,1,0,0:0:0:0:
320,192,124399,1,0,0:0:0:0:
64,192,124399,1,0,0:0:0:0:
192,192,124490,1,0,0:0:0:0:
320,192,124580,1,0,0:0:0:0:
192,192,124671,1,0,0:0:0:0:
320,192,124762,1,0,0:0:0:0:
64,192,124762,1,0,0:0:0:0:
192,192,124853,1,0,0:0:0:0:
320,192,124944,1,0,0:0:0:0:
448,192,125035,1,0,0:0:0:0:
320,192,125126,1,0,0:0:0:0:
64,192,125217,1,0,0:0:0:0:
320,192,125308,1,0,0:0:0:0:
192,192,125308,1,0,0:0:0:0:
448,192,125399,1,0,0:0:0:0:
320,192,125490,1,0,0:0:0:0:
192,192,125580,1,0,0:0:0:0:
448,192,125671,1,0,0:0:0:0:
320,192,125671,1,0,0:0:0:0:
64,192,125762,1,0,0:0:0:0:
192,192,125762,1,0,0:0:0:0:
448,192,125853,1,0,0:0:0:0:
320,192,125853,1,0,0:0:0:0:
192,192,125944,1,0,0:0:0:0:
64,192,126035,1,0,0:0:0:0:
192,192,126126,1,0,0:0:0:0:
448,192,126217,1,0,0:0:0:0:
64,192,126217,1,0,0:0:0:0:
192,192,126308,1,0,0:0:0:0:
320,192,126399,1,0,0:0:0:0:
448,192,126490,1,0,0:0:0:0:
64,192,126580,1,0,0:0:0:0:
192,192,126580,1,0,0:0:0:0:
448,192,126671,1,0,0:0:0:0:
320,192,126671,1,0,0:0:0:0:
64,192,126762,1,0,0:0:0:0:
192,192,126762,1,0,0:0:0:0:
320,192,126853,1,0,0:0:0:0:
448,192,126853,1,0,0:0:0:0:
192,192,126944,1,0,0:0:0:0:
64,192,126944,1,0,0:0:0:0:
320,192,127035,1,0,0:0:0:0:
448,192,127035,1,0,0:0:0:0:
192,192,127126,1,0,0:0:0:0:
64,192,127126,1,0,0:0:0:0:
320,192,127217,1,0,0:0:0:0:
448,192,127217,1,0,0:0:0:0:
192,192,127308,1,0,0:0:0:0:
64,192,127308,1,0,0:0:0:0:
320,192,127399,1,0,0:0:0:0:
448,192,127399,1,0,0:0:0:0:
192,192,127490,1,0,0:0:0:0:
64,192,127490,1,0,0:0:0:0:
448,192,127580,1,0,0:0:0:0:
320,192,127580,1,0,0:0:0:0:
192,192,127671,1,0,0:0:0:0:
64,192,127671,1,0,0:0:0:0:
320,192,127762,1,0,0:0:0:0:
448,192,127762,1,0,0:0:0:0:
192,192,127853,1,0,0:0:0:0:
64,192,127853,1,0,0:0:0:0:
320,192,127944,1,0,0:0:0:0:
448,192,127944,1,0,0:0:0:0:
192,192,128035,1,0,0:0:0:0:
64,192,128035,1,0,0:0:0:0:
448,192,128762,1,0,0:0:0:0:
64,192,128853,1,0,0:0:0:0:
448,192,128944,1,0,0:0:0:0:
64,192,129035,1,0,0:0:0:0:
320,192,129126,1,0,0:0:0:0:
192,192,129217,1,0,0:0:0:0:
320,192,129308,1,0,0:0:0:0:
192,192,129399,1,0,0:0:0:0:
64,192,129490,1,0,0:0:0:0:
448,192,129490,1,0,0:0:0:0:
448,192,129671,1,0,0:0:0:0:
320,192,129671,1,0,0:0:0:0:
320,192,129853,1,0,0:0:0:0:
192,192,129853,1,0,0:0:0:0:
320,192,130035,1,0,0:0:0:0:
192,192,130217,1,0,0:0:0:0:
448,192,130217,1,0,0:0:0:0:
64,192,130217,1,0,0:0:0:0:
320,192,130399,1,0,0:0:0:0:
192,192,130490,1,0,0:0:0:0:
448,192,130490,1,0,0:0:0:0:
64,192,130490,1,0,0:0:0:0:
320,192,130762,1,0,0:0:0:0:
448,192,130762,1,0,0:0:0:0:
192,192,130944,1,0,0:0:0:0:
320,192,130944,1,0,0:0:0:0:
64,192,131126,1,0,0:0:0:0:
192,192,131126,1,0,0:0:0:0:
320,192,131308,1,0,0:0:0:0:
64,192,131490,1,0,0:0:0:0:
320,192,131671,1,0,0:0:0:0:
192,192,131671,1,0,0:0:0:0:
64,192,131671,1,0,0:0:0:0:
448,192,131853,1,0,0:0:0:0:
192,192,131944,1,0,0:0:0:0:
320,192,131944,1,0,0:0:0:0:
64,192,131944,1,0,0:0:0:0:
448,192,132217,1,0,0:0:0:0:
64,192,132399,1,0,0:0:0:0:
320,192,132399,1,0,0:0:0:0:
192,192,132580,1,0,0:0:0:0:
448,192,132762,1,0,0:0:0:0:
64,192,132762,1,0,0:0:0:0:
320,192,132944,1,0,0:0:0:0:
192,192,133126,1,0,0:0:0:0:
64,192,133126,1,0,0:0:0:0:
448,192,133126,1,0,0:0:0:0:
320,192,133308,1,0,0:0:0:0:
192,192,133399,1,0,0:0:0:0:
64,192,133399,1,0,0:0:0:0:
448,192,133399,1,0,0:0:0:0:
320,192,133671,1,0,0:0:0:0:
64,192,133671,1,0,0:0:0:0:
192,192,133853,1,0,0:0:0:0:
448,192,133853,1,0,0:0:0:0:
64,192,134035,1,0,0:0:0:0:
192,192,134035,1,0,0:0:0:0:
192,192,134217,1,0,0:0:0:0:
320,192,134217,1,0,0:0:0:0:
64,192,134399,1,0,0:0:0:0:
448,192,134399,1,0,0:0:0:0:
448,192,134580,1,0,0:0:0:0:
192,192,134580,1,0,0:0:0:0:
64,192,134580,128,0,134762:0:0:0:0:
448,192,134762,128,0,134944:0:0:0:0:
320,192,134762,1,0,0:0:0:0:
192,192,134944,128,0,135126:0:0:0:0:
64,192,134944,1,0,0:0:0:0:
448,192,135126,1,0,0:0:0:0:
320,192,135126,128,0,135308:0:0:0:0:
192,192,135308,1,0,0:0:0:0:
64,192,135308,1,0,0:0:0:0:
320,192,135490,1,0,0:0:0:0:
192,192,135671,1,0,0:0:0:0:
64,192,135671,1,0,0:0:0:0:
320,192,135853,1,0,0:0:0:0:
320,192,136035,1,0,0:0:0:0:
448,192,136035,1,0,0:0:0:0:
64,192,136035,1,0,0:0:0:0:
192,192,136217,1,0,0:0:0:0:
320,192,136308,1,0,0:0:0:0:
448,192,136308,1,0,0:0:0:0:
64,192,136308,1,0,0:0:0:0:
192,192,136580,1,0,0:0:0:0:
320,192,136580,1,0,0:0:0:0:
64,192,136762,1,0,0:0:0:0:
320,192,136762,1,0,0:0:0:0:
192,192,136944,1,0,0:0:0:0:
448,192,136944,1,0,0:0:0:0:
320,192,137126,1,0,0:0:0:0:
64,192,137126,1,0,0:0:0:0:
448,192,137308,1,0,0:0:0:0:
64,192,137308,1,0,0:0:0:0:
64,192,137490,1,0,0:0:0:0:
192,192,137490,1,0,0:0:0:0:
448,192,137490,1,0,0:0:0:0:
320,192,137671,1,0,0:0:0:0:
192,192,137762,1,0,0:0:0:0:
64,192,137762,1,0,0:0:0:0:
448,192,137762,1,0,0:0:0:0:
320,192,138035,1,0,0:0:0:0:
448,192,138217,1,0,0:0:0:0:
192,192,138217,1,0,0:0:0:0:
320,192,138399,1,0,0:0:0:0:
448,192,138580,1,0,0:0:0:0:
64,192,138580,1,0,0:0:0:0:
320,192,138762,1,0,0:0:0:0:
192,192,138944,1,0,0:0:0:0:
64,192,138944,1,0,0:0:0:0:
448,192,138944,1,0,0:0:0:0:
320,192,139126,1,0,0:0:0:0:
192,192,139217,1,0,0:0:0:0:
64,192,139217,1,0,0:0:0:0:
448,192,139217,1,0,0:0:0:0:
320,192,139490,1,0,0:0:0:0:
192,192,139490,1,0,0:0:0:0:
448,192,139671,1,0,0:0:0:0:
192,192,139671,1,0,0:0:0:0:
320,192,139853,1,0,0:0:0:0:
64,192,139853,1,0,0:0:0:0:
192,192,140035,1,0,0:0:0:0:
448,192,140035,1,0,0:0:0:0:
64,192,140217,1,0,0:0:0:0:
192,192,140217,1,0,0:0:0:0:
320,192,140399,128,0,140580:0:0:0:0:
448,192,140399,1,0,0:0:0:0:
192,192,140580,1,0,0:0:0:0:
64,192,140580,128,0,140762:0:0:0:0:
448,192,140762,128,0,140944:0:0:0:0:
320,192,140762,1,0,0:0:0:0:
64,192,140944,128,0,141126:0:0:0:0:
192,192,140944,1,0,0:0:0:0:
448,192,141126,1,0,0:0:0:0:
320,192,141308,1,0,0:0:0:0:
448,192,141490,1,0,0:0:0:0:
192,192,141490,1,0,0:0:0:0:
64,192,141490,1,0,0:0:0:0:
192,192,141671,1,0,0:0:0:0:
320,192,141853,1,0,0:0:0:0:
448,192,141853,1,0,0:0:0:0:
64,192,141853,1,0,0:0:0:0:
192,192,142035,1,0,0:0:0:0:
448,192,142126,1,0,0:0:0:0:
320,192,142126,1,0,0:0:0:0:
64,192,142126,1,0,0:0:0:0:
192,192,142399,1,0,0:0:0:0:
64,192,142580,1,0,0:0:0:0:
448,192,142580,1,0,0:0:0:0:
192,192,142762,1,0,0:0:0:0:
64,192,142944,1,0,0:0:0:0:
448,192,142944,1,0,0:0:0:0:
320,192,143126,1,0,0:0:0:0:
192,192,143308,1,0,0:0:0:0:
64,192,143308,1,0,0:0:0:0:
448,192,143308,1,0,0:0:0:0:
320,192,143490,1,0,0:0:0:0:
64,192,143580,1,0,0:0:0:0:
192,192,143580,1,0,0:0:0:0:
448,192,143580,1,0,0:0:0:0:
320,192,143853,1,0,0:0:0:0:
64,192,143853,1,0,0:0:0:0:
448,192,144035,1,0,0:0:0:0:
192,192,144035,1,0,0:0:0:0:
320,192,144217,1,0,0:0:0:0:
448,192,144217,1,0,0:0:0:0:
192,192,144399,1,0,0:0:0:0:
320,192,144399,1,0,0:0:0:0:
64,192,144580,1,0,0:0:0:0:
320,192,144580,1,0,0:0:0:0:
448,192,144762,1,0,0:0:0:0:
320,192,144762,1,0,0:0:0:0:
64,192,144762,1,0,0:0:0:0:
192,192,144944,1,0,0:0:0:0:
320,192,145035,1,0,0:0:0:0:
448,192,145035,1,0,0:0:0:0:
64,192,145035,1,0,0:0:0:0:
192,192,145308,1,0,0:0:0:0:
64,192,145490,1,0,0:0:0:0:
448,192,145490,1,0,0:0:0:0:
192,192,145671,1,0,0:0:0:0:
320,192,145853,1,0,0:0:0:0:
64,192,145853,1,0,0:0:0:0:
448,192,146035,1,0,0:0:0:0:
192,192,146217,1,0,0:0:0:0:
64,192,146217,128,0,146399:0:0:0:0:
320,192,146399,128,0,146580:0:0:0:0:
448,192,146399,1,0,0:0:0:0:
448,192,146580,128,0,146762:0:0:0:0:
64,192,146580,1,0,0:0:0:0:
192,192,146762,128,0,146944:0:0:0:0:
64,192,146944,1,0,0:0:0:0:
320,192,146944,1,0,0:0:0:0:
192,192,147126,1,0,0:0:0:0:
64,192,147308,1,0,0:0:0:0:
448,192,147308,1,0,0:0:0:0:
320,192,147490,1,0,0:0:0:0:
64,192,147671,1,0,0:0:0:0:
192,192,147671,1,0,0:0:0:0:
448,192,147671,1,0,0:0:0:0:
320,192,147853,1,0,0:0:0:0:
192,192,147944,1,0,0:0:0:0:
64,192,147944,1,0,0:0:0:0:
448,192,147944,1,0,0:0:0:0:
320,192,148217,1,0,0:0:0:0:
448,192,148399,1,0,0:0:0:0:
64,192,148399,1,0,0:0:0:0:
320,192,148580,1,0,0:0:0:0:
192,192,148580,1,0,0:0:0:0:
192,192,148762,1,0,0:0:0:0:
448,192,148762,1,0,0:0:0:0:
64,192,148944,1,0,0:0:0:0:
448,192,149126,1,0,0:0:0:0:
320,192,149126,1,0,0:0:0:0:
64,192,149126,1,0,0:0:0:0:
192,192,149308,1,0,0:0:0:0:
320,192,149399,1,0,0:0:0:0:
448,192,149399,1,0,0:0:0:0:
64,192,149399,1,0,0:0:0:0:
192,192,149671,1,0,0:0:0:0:
320,192,149853,1,0,0:0:0:0:
64,192,149853,1,0,0:0:0:0:
192,192,150035,1,0,0:0:0:0:
64,192,150217,1,0,0:0:0:0:
448,192,150217,1,0,0:0:0:0:
320,192,150399,1,0,0:0:0:0:
192,192,150580,1,0,0:0:0:0:
64,192,150580,1,0,0:0:0:0:
448,192,150580,1,0,0:0:0:0:
320,192,150762,1,0,0:0:0:0:
64,192,150853,1,0,0:0:0:0:
192,192,150853,1,0,0:0:0:0:
448,192,150853,1,0,0:0:0:0:
320,192,151126,1,0,0:0:0:0:
448,192,151308,1,0,0:0:0:0:
64,192,151308,1,0,0:0:0:0:
320,192,151490,1,0,0:0:0:0:
192,192,151490,1,0,0:0:0:0:
192,192,151671,1,0,0:0:0:0:
448,192,151671,1,0,0:0:0:0:
64,192,151853,1,0,0:0:0:0:
448,192,151853,1,0,0:0:0:0:
320,192,152035,1,0,0:0:0:0:
192,192,152126,1,0,0:0:0:0:
64,192,152217,1,0,0:0:0:0:
192,192,152308,1,0,0:0:0:0:
448,192,152399,1,0,0:0:0:0:
320,192,152399,1,0,0:0:0:0:
192,192,152490,1,0,0:0:0:0:
64,192,152580,1,0,0:0:0:0:
320,192,152580,1,0,0:0:0:0:
192,192,152671,1,0,0:0:0:0:
448,192,152762,1,0,0:0:0:0:
320,192,152762,1,0,0:0:0:0:
64,192,152762,1,0,0:0:0:0:
448,192,152944,128,0,153035:0:0:0:0:
192,192,153126,128,0,153217:0:0:0:0:
448,192,153308,128,0,153399:0:0:0:0:
64,192,153490,128,0,153580:0:0:0:0:
448,192,153626,128,0,153717:0:0:0:0:
192,192,153717,128,0,153808:0:0:0:0:
448,192,153899,128,0,153990:0:0:0:0:
64,192,153990,128,0,154080:0:0:0:0:
448,192,154217,1,0,0:0:0:0:
320,192,154399,1,0,0:0:0:0:
448,192,154580,1,0,0:0:0:0:
320,192,154671,1,0,0:0:0:0:
192,192,154762,1,0,0:0:0:0:
64,192,154944,1,0,0:0:0:0:
192,192,155126,1,0,0:0:0:0:
448,192,155217,1,0,0:0:0:0:
320,192,155399,1,0,0:0:0:0:
64,192,155490,1,0,0:0:0:0:
448,192,155671,128,0,155762:0:0:0:0:
64,192,155853,128,0,155944:0:0:0:0:
320,192,156035,128,0,156126:0:0:0:0:
64,192,156217,128,0,156308:0:0:0:0:
448,192,156399,128,0,156490:0:0:0:0:
64,192,156535,128,0,156626:0:0:0:0:
320,192,156626,128,0,156717:0:0:0:0:
64,192,156808,128,0,156899:0:0:0:0:
448,192,156899,128,0,156990:0:0:0:0:
192,192,157080,1,0,0:0:0:0:
320,192,157308,1,0,0:0:0:0:
448,192,157490,1,0,0:0:0:0:
320,192,157580,1,0,0:0:0:0:
192,192,157671,1,0,0:0:0:0:
64,192,157762,1,0,0:0:0:0:
192,192,157853,1,0,0:0:0:0:
320,192,158035,1,0,0:0:0:0:
64,192,158171,1,0,0:0:0:0:
448,192,158308,1,0,0:0:0:0:
192,192,158399,1,0,0:0:0:0:
64,192,158580,128,0,158671:0:0:0:0:
448,192,158762,128,0,158853:0:0:0:0:
192,192,158944,128,0,159035:0:0:0:0:
448,192,159126,128,0,159217:0:0:0:0:
64,192,159308,128,0,159399:0:0:0:0:
448,192,159444,128,0,159535:0:0:0:0:
192,192,159490,128,0,159580:0:0:0:0:
448,192,159717,128,0,159808:0:0:0:0:
64,192,159808,128,0,159899:0:0:0:0:
448,192,160035,128,0,160126:0:0:0:0:
192,192,160217,1,0,0:0:0:0:
448,192,160399,1,0,0:0:0:0:
320,192,160490,1,0,0:0:0:0:
192,192,160580,1,0,0:0:0:0:
320,192,160762,1,0,0:0:0:0:
64,192,160944,1,0,0:0:0:0:
320,192,161035,1,0,0:0:0:0:
192,192,161217,1,0,0:0:0:0:
448,192,161308,1,0,0:0:0:0:
320,192,161490,1,0,0:0:0:0:
192,192,161490,128,0,163671:0:0:0:0:
64,192,161671,1,0,0:0:0:0:
320,192,161853,1,0,0:0:0:0:
64,192,162035,1,0,0:0:0:0:
448,192,162217,1,0,0:0:0:0:
64,192,162353,1,0,0:0:0:0:
320,192,162444,1,0,0:0:0:0:
64,192,162626,1,0,0:0:0:0:
448,192,162717,1,0,0:0:0:0:
320,192,162899,1,0,0:0:0:0:
320,192,163126,1,0,0:0:0:0:
448,192,163308,1,0,0:0:0:0:
320,192,163399,1,0,0:0:0:0:
64,192,163490,1,0,0:0:0:0:
320,192,163580,1,0,0:0:0:0:
448,192,163671,1,0,0:0:0:0:
64,192,163671,1,0,0:0:0:0:
320,192,163762,1,0,0:0:0:0:
192,192,163853,1,0,0:0:0:0:
448,192,163853,1,0,0:0:0:0:
64,192,163944,1,0,0:0:0:0:
192,192,164035,1,0,0:0:0:0:
64,192,164399,128,8,164580:0:0:0:0:
192,192,164399,1,0,0:0:0:0:
320,192,164399,1,0,0:0:0:0:
192,192,164580,128,8,164762:0:0:0:0:
320,192,164762,128,8,164944:0:0:0:0:
448,192,164762,1,0,0:0:0:0:
64,192,164762,1,0,0:0:0:0:
448,192,164944,128,8,165308:0:0:0:0:
192,192,165126,1,0,0:0:0:0:
320,192,165126,1,0,0:0:0:0:
64,192,165126,1,0,0:0:0:0:
192,192,165308,128,8,165490:0:0:0:0:
64,192,165399,1,0,0:0:0:0:
320,192,165399,1,0,0:0:0:0:
448,192,165399,1,0,0:0:0:0:
320,192,165490,128,8,165671:0:0:0:0:
448,192,165671,128,8,166035:0:0:0:0:
64,192,165671,1,0,0:0:0:0:
192,192,165671,1,0,0:0:0:0:
320,192,165853,1,0,0:0:0:0:
64,192,165853,1,0,0:0:0:0:
320,192,166035,128,8,166217:0:0:0:0:
192,192,166035,1,0,0:0:0:0:
192,192,166217,128,8,166399:0:0:0:0:
64,192,166217,1,0,0:0:0:0:
448,192,166217,1,0,0:0:0:0:
64,192,166399,128,8,166762:0:0:0:0:
448,192,166580,1,0,0:0:0:0:
192,192,166580,1,0,0:0:0:0:
320,192,166762,128,8,166944:0:0:0:0:
192,192,166762,1,0,0:0:0:0:
448,192,166853,1,0,0:0:0:0:
64,192,166853,1,0,0:0:0:0:
192,192,166944,128,8,167126:0:0:0:0:
320,192,167126,128,8,167308:0:0:0:0:
448,192,167126,1,0,0:0:0:0:
64,192,167126,1,0,0:0:0:0:
448,192,167308,128,8,167490:0:0:0:0:
64,192,167308,1,0,0:0:0:0:
192,192,167308,1,0,0:0:0:0:
320,192,167490,128,8,167671:0:0:0:0:
192,192,167671,128,8,167853:0:0:0:0:
448,192,167671,1,0,0:0:0:0:
64,192,167671,1,0,0:0:0:0:
64,192,167853,128,8,168217:0:0:0:0:
320,192,168035,1,0,0:0:0:0:
448,192,168035,1,0,0:0:0:0:
192,192,168035,1,0,0:0:0:0:
448,192,168217,128,8,168399:0:0:0:0:
192,192,168308,1,0,0:0:0:0:
64,192,168308,1,0,0:0:0:0:
320,192,168308,1,0,0:0:0:0:
320,192,168399,128,8,168580:0:0:0:0:
448,192,168580,128,8,168944:0:0:0:0:
64,192,168580,1,0,0:0:0:0:
192,192,168580,1,0,0:0:0:0:
320,192,168762,1,0,0:0:0:0:
192,192,168762,1,0,0:0:0:0:
320,192,168944,128,8,169126:0:0:0:0:
448,192,169126,128,8,169308:0:0:0:0:
192,192,169126,1,0,0:0:0:0:
64,192,169126,1,0,0:0:0:0:
64,192,169308,128,8,169490:0:0:0:0:
320,192,169490,128,8,170217:0:0:0:0:
192,192,169490,1,0,0:0:0:0:
448,192,169490,1,0,0:0:0:0:
448,192,170217,128,0,170399:0:0:0:0:
64,192,170217,1,0,0:0:0:0:
64,192,170399,128,0,170580:0:0:0:0:
192,192,170580,128,0,170762:0:0:0:0:
320,192,170580,1,0,0:0:0:0:
448,192,170580,1,0,0:0:0:0:
320,192,170762,128,0,171126:0:0:0:0:
448,192,170944,1,0,0:0:0:0:
192,192,170944,1,0,0:0:0:0:
64,192,170944,1,0,0:0:0:0:
448,192,171126,128,0,171308:0:0:0:0:
192,192,171126,1,0,0:0:0:0:
64,192,171126,1,0,0:0:0:0:
192,192,171308,128,0,171490:0:0:0:0:
320,192,171399,1,0,0:0:0:0:
448,192,171399,1,0,0:0:0:0:
64,192,171490,128,0,171853:0:0:0:0:
448,192,171671,1,0,0:0:0:0:
320,192,171671,1,0,0:0:0:0:
192,192,171671,1,0,0:0:0:0:
448,192,171853,128,0,172035:0:0:0:0:
320,192,171853,1,0,0:0:0:0:
320,192,172035,128,0,172217:0:0:0:0:
64,192,172035,1,0,0:0:0:0:
192,192,172035,1,0,0:0:0:0:
192,192,172217,128,0,172399:0:0:0:0:
64,192,172399,128,0,172580:0:0:0:0:
448,192,172399,1,0,0:0:0:0:
320,192,172399,1,0,0:0:0:0:
320,192,172580,128,0,172762:0:0:0:0:
192,192,172671,1,0,0:0:0:0:
448,192,172671,1,0,0:0:0:0:
64,192,172762,128,0,172944:0:0:0:0:
192,192,172944,128,0,173126:0:0:0:0:
448,192,172944,1,0,0:0:0:0:
320,192,172944,1,0,0:0:0:0:
448,192,173126,128,0,173308:0:0:0:0:
320,192,173126,1,0,0:0:0:0:
64,192,173126,1,0,0:0:0:0:
320,192,173308,128,0,173490:0:0:0:0:
192,192,173490,128,0,173671:0:0:0:0:
448,192,173490,1,0,0:0:0:0:
64,192,173490,1,0,0:0:0:0:
64,192,173671,128,0,174035:0:0:0:0:
320,192,173853,1,0,0:0:0:0:
448,192,173853,1,0,0:0:0:0:
192,192,173853,1,0,0:0:0:0:
192,192,174035,128,0,174217:0:0:0:0:
448,192,174126,1,0,0:0:0:0:
64,192,174126,1,0,0:0:0:0:
320,192,174217,128,0,174399:0:0:0:0:
448,192,174399,128,0,174762:0:0:0:0:
64,192,174399,1,0,0:0:0:0:
192,192,174399,1,0,0:0:0:0:
320,192,174580,1,0,0:0:0:0:
192,192,174580,1,0,0:0:0:0:
64,192,174580,1,0,0:0:0:0:
192,192,174762,128,0,174944:0:0:0:0:
320,192,174762,1,0,0:0:0:0:
64,192,174762,1,0,0:0:0:0:
448,192,174944,128,0,175126:0:0:0:0:
320,192,174944,1,0,0:0:0:0:
64,192,175126,128,0,175308:0:0:0:0:
192,192,175126,1,0,0:0:0:0:
320,192,175126,1,0,0:0:0:0:
448,192,175308,128,0,175671:0:0:0:0:
320,192,175308,1,0,0:0:0:0:
192,192,175308,1,0,0:0:0:0:
192,192,175671,1,0,0:0:0:0:
