osu file format v14

[General]
AudioFilename: audio.mp3
AudioLeadIn: 0
PreviewTime: 23716
Countdown: 0
SampleSet: Normal
StackLeniency: 0.7
Mode: 1
LetterboxInBreaks: 0
WidescreenStoryboard: 1

[Editor]
DistanceSpacing: 0.1
BeatDivisor: 1
GridSize: 32
TimelineZoom: 1.1

[Metadata]
Title:N no Dragon
TitleUnicode:Nのドラゴン
Artist:Kageyama Shouta
ArtistUnicode:景山将太
Creator:Antti
Version:Kantan
Source:ポケットモンスターブラック・ホワイト
Tags:Pokemon Black and White Super Music Collection Nintendo ニンテンドーDS ミュージックコレクション Video Game Instrumental Natural Harmonia Gropius ナチュラル・ハルモニア・グロピウス Pokémon Zekrom Reshiram Castle Fifth Battle NDS Company FREAK GAMEFREAK pocket monsters Gen 5 V Unova Rival Antagonist ZMCP-5919 shota
BeatmapID:2721138
BeatmapSetID:1313012

[Difficulty]
HPDrainRate:9.5
CircleSize:2
OverallDifficulty:3
ApproachRate:10
SliderMultiplier:1.4
SliderTickRate:1

[Events]
//Background and Video events
0,0,"zekromwoww.jpg",0,110
//Break Periods
//Storyboard Layer 0 (Background)
//Storyboard Layer 1 (Fail)
//Storyboard Layer 2 (Pass)
//Storyboard Layer 3 (Foreground)
//Storyboard Layer 4 (Overlay)
//Storyboard Sound Samples

[TimingPoints]
5809,264.31718061674,4,1,0,95,1,0
5809,-119.331742243437,4,1,0,95,0,0
6866,312.5,4,1,0,90,1,0
19366,-105.263157894737,4,1,0,90,0,0
23741,-102.040816326531,4,1,0,90,0,0
24053,-99.009900990099,4,1,0,92,0,0
24366,-96.1538461538461,4,1,0,95,0,0
29366,-93.4579439252336,4,1,0,100,0,1
34366,-100,4,1,0,85,0,0

[HitObjects]
256,192,5809,5,8,0:0:0:0:
256,192,6073,1,0,0:0:0:0:
256,192,6337,1,8,0:0:0:0:
256,192,6601,1,0,0:0:0:0:
256,192,6866,1,0,0:0:0:0:
256,192,7491,1,8,0:0:0:0:
256,192,8116,1,8,0:0:0:0:
256,192,8741,1,8,0:0:0:0:
256,192,9053,1,8,0:0:0:0:
256,192,9366,1,0,0:0:0:0:
256,192,9991,1,8,0:0:0:0:
256,192,10616,1,0,0:0:0:0:
256,192,11553,1,0,0:0:0:0:
256,192,11866,1,8,0:0:0:0:
256,192,12491,1,0,0:0:0:0:
256,192,13116,1,0,0:0:0:0:
256,192,13741,1,8,0:0:0:0:
256,192,14053,1,8,0:0:0:0:
256,192,14366,1,0,0:0:0:0:
256,192,14991,1,8,0:0:0:0:
256,192,15616,1,8,0:0:0:0:
256,192,16553,1,8,0:0:0:0:
256,192,16866,1,0,0:0:0:0:
256,192,17491,1,8,0:0:0:0:
256,192,18116,1,0,0:0:0:0:
256,192,18741,1,8,0:0:0:0:
256,192,19053,1,8,0:0:0:0:
256,192,19366,1,0,0:0:0:0:
256,192,19991,1,0,0:0:0:0:
256,192,20616,1,8,0:0:0:0:
256,192,21241,1,0,0:0:0:0:
256,192,21866,1,0,0:0:0:0:
256,192,22491,1,0,0:0:0:0:
256,192,23116,1,8,0:0:0:0:
256,192,23741,1,0,0:0:0:0:
256,192,24053,1,8,0:0:0:0:
256,192,24366,1,8,0:0:0:0:
256,192,25303,1,0,0:0:0:0:
256,192,25616,1,0,0:0:0:0:
256,192,26553,1,0,0:0:0:0:
256,192,26866,1,0,0:0:0:0:
256,192,27178,1,8,0:0:0:0:
256,192,27491,1,0,0:0:0:0:
256,192,28116,1,8,0:0:0:0:
256,192,28741,1,0,0:0:0:0:
256,192,29053,1,0,0:0:0:0:
256,192,29366,1,8,0:0:0:0:
256,192,29990,1,8,0:0:0:0:
256,192,30615,1,8,0:0:0:0:
256,192,30928,1,0,0:0:0:0:
256,192,31240,1,8,0:0:0:0:
256,192,31553,1,0,0:0:0:0:
256,192,31865,1,8,0:0:0:0:
256,192,32490,1,8,0:0:0:0:
256,192,33115,1,8,0:0:0:0:
256,192,33428,1,0,0:0:0:0:
256,192,33740,1,8,0:0:0:0:
256,192,34366,12,0,41866,0:0:0:0:
