osu file format v14

[General]
AudioFilename: audio.mp3
AudioLeadIn: 0
PreviewTime: 23716
Countdown: 0
SampleSet: Normal
StackLeniency: 0.7
Mode: 1
LetterboxInBreaks: 0
WidescreenStoryboard: 0

[Editor]
DistanceSpacing: 0.1
BeatDivisor: 4
GridSize: 32
TimelineZoom: 4.399998

[Metadata]
Title:N no Dragon
TitleUnicode:Nのドラゴン
Artist:Kageyama Shouta
ArtistUnicode:景山将太
Creator:Antti
Version:Dragon Claw
Source:ポケットモンスターブラック・ホワイト
Tags:Pokemon Black and White Super Music Collection Nintendo ニンテンドーDS ミュージックコレクション Video Game Instrumental Natural Harmonia Gropius ナチュラル・ハルモニア・グロピウス Pokémon Zekrom Reshiram Castle Fifth Battle NDS Company FREAK GAMEFREAK pocket monsters Gen 5 V Unova Rival Antagonist ZMCP-5919 shota
BeatmapID:2721097
BeatmapSetID:1313012

[Difficulty]
HPDrainRate:7.5
CircleSize:2
OverallDifficulty:6
ApproachRate:10
SliderMultiplier:1.4
SliderTickRate:1

[Events]
//Background and Video events
0,0,"zekromwoww.jpg",0,110
//Break Periods
//Storyboard Layer 0 (Background)
//Storyboard Layer 1 (Fail)
//Storyboard Layer 2 (Pass)
//Storyboard Layer 3 (Foreground)
//Storyboard Layer 4 (Overlay)
//Storyboard Sound Samples

[TimingPoints]
5809,264.31718061674,4,1,0,95,1,0
5809,-81.3008130081301,4,1,0,95,0,0
5875,-81.9672131147541,4,1,0,95,0,0
5941,-82.6446280991736,4,1,0,95,0,0
6007,-83.3333333333333,4,1,0,95,0,0
6073,-84.0336134453781,4,1,0,95,0,0
6139,-84.7457627118644,4,1,0,95,0,0
6205,-85.4700854700855,4,1,0,95,0,0
6271,-86.2068965517241,4,1,0,95,0,0
6337,-86.9565217391304,4,1,0,95,0,0
6403,-87.719298245614,4,1,0,95,0,0
6469,-89.2857142857143,4,1,0,95,0,0
6535,-90.9090909090909,4,1,0,95,0,0
6601,-92.5925925925926,4,1,0,95,0,0
6668,-94.3396226415094,4,1,0,95,0,0
6734,-96.1538461538461,4,1,0,95,0,0
6800,-98.0392156862745,4,1,0,95,0,0
6866,312.5,4,1,0,90,1,0
6866,-84.5809016324114,4,1,0,90,0,0
7178,-95.2380952380952,4,1,0,90,0,0
7282,-96.1538461538461,4,1,0,90,0,0
7386,-97.0873786407767,4,1,0,90,0,0
7491,-98.0392156862745,4,1,0,90,0,0
7803,-94.3396226415094,4,1,0,90,0,0
7907,-95.2380952380952,4,1,0,90,0,0
8011,-96.1538461538461,4,1,0,90,0,0
8116,-97.0873786407767,4,1,0,90,0,0
8428,-90.9090909090909,4,1,0,90,0,0
8532,-91.743119266055,4,1,0,90,0,0
8636,-92.5925925925926,4,1,0,90,0,0
8741,-93.4579439252336,4,1,0,90,0,0
8845,-94.3396226415094,4,1,0,90,0,0
8949,-95.2380952380952,4,1,0,90,0,0
9053,-96.1538461538461,4,1,0,90,0,0
9105,-97.0873786407767,4,1,0,90,0,0
9157,-98.0392156862745,4,1,0,90,0,0
9261,-99.009900990099,4,1,0,90,0,0
9366,-100,4,1,0,90,0,0
9678,-95.2380952380952,4,1,0,90,0,0
9782,-96.1538461538461,4,1,0,90,0,0
9886,-97.0873786407767,4,1,0,90,0,0
9991,-98.0392156862745,4,1,0,90,0,0
10303,-94.3396226415094,4,1,0,90,0,0
10407,-95.2380952380952,4,1,0,90,0,0
10511,-96.1538461538461,4,1,0,90,0,0
10616,-97.0873786407767,4,1,0,90,0,0
10928,-90.9090909090909,4,1,0,90,0,0
11032,-91.743119266055,4,1,0,90,0,0
11136,-92.5925925925926,4,1,0,90,0,0
11241,-93.4579439252336,4,1,0,90,0,0
11345,-94.3396226415094,4,1,0,90,0,0
11449,-95.2380952380952,4,1,0,90,0,0
11553,-96.1538461538461,4,1,0,90,0,0
11605,-97.0873786407767,4,1,0,90,0,0
11657,-98.0392156862745,4,1,0,90,0,0
11761,-99.009900990099,4,1,0,90,0,0
11866,-100,4,1,0,90,0,0
12178,-95.2380952380952,4,1,0,90,0,0
12282,-96.1538461538461,4,1,0,90,0,0
12386,-97.0873786407767,4,1,0,90,0,0
12491,-98.0392156862745,4,1,0,90,0,0
12803,-94.3396226415094,4,1,0,90,0,0
12907,-95.2380952380952,4,1,0,90,0,0
13011,-96.1538461538461,4,1,0,90,0,0
13116,-97.0873786407767,4,1,0,90,0,0
13428,-90.9090909090909,4,1,0,90,0,0
13532,-91.743119266055,4,1,0,90,0,0
13636,-92.5925925925926,4,1,0,90,0,0
13741,-93.4579439252336,4,1,0,90,0,0
13845,-94.3396226415094,4,1,0,90,0,0
13949,-95.2380952380952,4,1,0,90,0,0
14053,-96.1538461538461,4,1,0,90,0,0
14105,-97.0873786407767,4,1,0,90,0,0
14157,-98.0392156862745,4,1,0,90,0,0
14261,-99.009900990099,4,1,0,90,0,0
14366,-100,4,1,0,90,0,0
14678,-95.2380952380952,4,1,0,90,0,0
14782,-96.1538461538461,4,1,0,90,0,0
14886,-97.0873786407767,4,1,0,90,0,0
14991,-98.0392156862745,4,1,0,90,0,0
15303,-94.3396226415094,4,1,0,90,0,0
15407,-95.2380952380952,4,1,0,90,0,0
15511,-96.1538461538461,4,1,0,90,0,0
15616,-97.0873786407767,4,1,0,90,0,0
15928,-90.9090909090909,4,1,0,90,0,0
16032,-91.743119266055,4,1,0,90,0,0
16136,-92.5925925925926,4,1,0,90,0,0
16241,-93.4579439252336,4,1,0,90,0,0
16345,-94.3396226415094,4,1,0,90,0,0
16449,-95.2380952380952,4,1,0,90,0,0
16553,-96.1538461538461,4,1,0,90,0,0
16605,-97.0873786407767,4,1,0,90,0,0
16657,-98.0392156862745,4,1,0,90,0,0
16761,-99.009900990099,4,1,0,90,0,0
16866,-100,4,1,0,90,0,0
17178,-95.2380952380952,4,1,0,90,0,0
17282,-96.1538461538461,4,1,0,90,0,0
17386,-97.0873786407767,4,1,0,90,0,0
17491,-98.0392156862745,4,1,0,90,0,0
17803,-94.3396226415094,4,1,0,90,0,0
17907,-95.2380952380952,4,1,0,90,0,0
18011,-96.1538461538461,4,1,0,90,0,0
18116,-97.0873786407767,4,1,0,90,0,0
18428,-90.9090909090909,4,1,0,90,0,0
18532,-91.743119266055,4,1,0,90,0,0
18636,-92.5925925925926,4,1,0,90,0,0
18741,-93.4579439252336,4,1,0,90,0,0
18845,-94.3396226415094,4,1,0,90,0,0
18949,-95.2380952380952,4,1,0,90,0,0
19053,-96.1538461538461,4,1,0,90,0,0
19105,-97.0873786407767,4,1,0,90,0,0
19157,-98.0392156862745,4,1,0,90,0,0
19261,-99.009900990099,4,1,0,90,0,0
19366,-100,4,1,0,90,0,0
19678,-101.010101010101,4,1,0,90,0,0
19782,-102.040816326531,4,1,0,90,0,0
19886,-103.092783505155,4,1,0,90,0,0
19991,-104.166666666667,4,1,0,90,0,0
23741,-108.695652173913,4,1,0,90,0,0
23845,-106.382978723404,4,1,0,90,0,0
23949,-104.166666666667,4,1,0,90,0,0
24053,-102.040816326531,4,1,0,90,0,0
24157,-100,4,1,0,90,0,0
24261,-98.0392156862745,4,1,0,90,0,0
24366,-96.1538461538461,4,1,0,90,0,0
24678,-97.0873786407767,4,1,0,90,0,0
24782,-98.0392156862745,4,1,0,90,0,0
24886,-99.009900990099,4,1,0,90,0,0
24991,-100,4,1,0,90,0,0
25303,-95.2380952380952,4,1,0,90,0,0
25407,-96.1538461538461,4,1,0,90,0,0
25511,-97.0873786407767,4,1,0,90,0,0
25616,-98.0392156862745,4,1,0,90,0,0
25928,-90.9090909090909,4,1,0,90,0,0
26032,-91.743119266055,4,1,0,90,0,0
26136,-92.5925925925926,4,1,0,90,0,0
26241,-93.4579439252336,4,1,0,90,0,0
26345,-94.3396226415094,4,1,0,90,0,0
26449,-95.2380952380952,4,1,0,90,0,0
26553,-96.1538461538461,4,1,0,90,0,0
26605,-97.0873786407767,4,1,0,90,0,0
26657,-98.0392156862745,4,1,0,90,0,0
26761,-99.009900990099,4,1,0,90,0,0
26866,-100,4,1,0,90,0,0
27178,-94.3396226415094,4,1,0,90,0,0
27282,-95.2380952380952,4,1,0,90,0,0
27386,-96.1538461538461,4,1,0,90,0,0
27491,-97.0873786407767,4,1,0,90,0,0
27803,-90.9090909090909,4,1,0,90,0,0
27907,-91.743119266055,4,1,0,90,0,0
28011,-92.5925925925926,4,1,0,90,0,0
28116,-93.4579439252336,4,1,0,90,0,0
28428,-96.1538461538461,4,1,0,90,0,0
28532,-97.0873786407767,4,1,0,90,0,0
28636,-98.0392156862745,4,1,0,90,0,0
28740,-99.009900990099,4,1,0,90,0,0
28845,-98.0392156862745,4,1,0,90,0,0
28949,-97.0873786407767,4,1,0,90,0,0
29053,-95.2380952380952,4,1,0,90,0,0
29105,-92.5925925925926,4,1,0,90,0,0
29157,-89.2857142857143,4,1,0,90,0,0
29261,-86.9565217391304,4,1,0,90,0,0
29366,-84.0336134453781,4,1,0,100,0,1
31553,-84.7457627118644,4,1,0,100,0,1
31605,-86.2068965517241,4,1,0,100,0,1
31657,-88.4955752212389,4,1,0,100,0,1
34053,-89.2857142857143,4,1,0,100,0,1
34105,-90.9090909090909,4,1,0,100,0,1
34157,-93.4579439252336,4,1,0,100,0,1
34261,-97.0873786407767,4,1,0,100,0,1
34366,-100,4,1,0,85,0,0

[HitObjects]
256,192,5809,5,8,0:0:0:0:
256,192,5875,1,8,0:0:0:0:
256,192,5941,1,0,0:0:0:0:
256,192,6007,1,0,0:0:0:0:
256,192,6073,1,8,0:0:0:0:
256,192,6139,1,0,0:0:0:0:
256,192,6205,1,0,0:0:0:0:
256,192,6271,1,0,0:0:0:0:
256,192,6337,1,8,0:0:0:0:
256,192,6403,1,0,0:0:0:0:
256,192,6469,1,8,0:0:0:0:
256,192,6535,1,8,0:0:0:0:
256,192,6601,1,0,0:0:0:0:
256,192,6668,1,0,0:0:0:0:
256,192,6734,1,8,0:0:0:0:
256,192,6800,1,8,0:0:0:0:
256,192,6866,1,0,0:0:0:0:
256,192,7178,1,8,0:0:0:0:
256,192,7282,1,8,0:0:0:0:
256,192,7386,1,0,0:0:0:0:
256,192,7491,1,0,0:0:0:0:
256,192,7803,1,8,0:0:0:0:
256,192,7907,1,8,0:0:0:0:
256,192,8011,1,0,0:0:0:0:
256,192,8116,1,0,0:0:0:0:
256,192,8428,1,8,0:0:0:0:
256,192,8532,1,8,0:0:0:0:
256,192,8636,1,0,0:0:0:0:
256,192,8741,1,0,0:0:0:0:
256,192,8845,1,8,0:0:0:0:
256,192,8949,1,0,0:0:0:0:
256,192,9053,1,8,0:0:0:0:
256,192,9105,1,0,0:0:0:0:
256,192,9157,1,8,0:0:0:0:
256,192,9261,1,0,0:0:0:0:
256,192,9366,1,8,0:0:0:0:
256,192,9678,1,8,0:0:0:0:
256,192,9782,1,8,0:0:0:0:
256,192,9886,1,8,0:0:0:0:
256,192,9991,1,0,0:0:0:0:
256,192,10303,1,8,0:0:0:0:
256,192,10407,1,8,0:0:0:0:
256,192,10511,1,8,0:0:0:0:
256,192,10616,1,0,0:0:0:0:
256,192,10928,1,8,0:0:0:0:
256,192,11032,1,8,0:0:0:0:
256,192,11136,1,8,0:0:0:0:
256,192,11241,1,0,0:0:0:0:
256,192,11345,1,8,0:0:0:0:
256,192,11449,1,8,0:0:0:0:
256,192,11553,1,0,0:0:0:0:
256,192,11605,1,0,0:0:0:0:
256,192,11657,1,8,0:0:0:0:
256,192,11761,1,8,0:0:0:0:
256,192,11866,1,0,0:0:0:0:
256,192,12178,1,8,0:0:0:0:
256,192,12282,1,0,0:0:0:0:
256,192,12386,1,8,0:0:0:0:
256,192,12491,1,0,0:0:0:0:
256,192,12803,1,8,0:0:0:0:
256,192,12907,1,0,0:0:0:0:
256,192,13011,1,8,0:0:0:0:
256,192,13116,1,0,0:0:0:0:
256,192,13428,1,8,0:0:0:0:
256,192,13532,1,0,0:0:0:0:
256,192,13636,1,8,0:0:0:0:
256,192,13741,1,0,0:0:0:0:
256,192,13845,1,8,0:0:0:0:
256,192,13949,1,8,0:0:0:0:
256,192,14053,1,8,0:0:0:0:
256,192,14105,1,8,0:0:0:0:
256,192,14157,1,0,0:0:0:0:
256,192,14261,1,0,0:0:0:0:
256,192,14366,1,8,0:0:0:0:
256,192,14678,1,8,0:0:0:0:
256,192,14782,1,0,0:0:0:0:
256,192,14886,1,0,0:0:0:0:
256,192,14991,1,0,0:0:0:0:
256,192,15303,1,8,0:0:0:0:
256,192,15407,1,0,0:0:0:0:
256,192,15511,1,0,0:0:0:0:
256,192,15616,1,0,0:0:0:0:
256,192,15928,1,8,0:0:0:0:
256,192,16032,1,0,0:0:0:0:
256,192,16136,1,0,0:0:0:0:
256,192,16241,1,8,0:0:0:0:
256,192,16345,1,8,0:0:0:0:
256,192,16449,1,0,0:0:0:0:
256,192,16553,1,8,0:0:0:0:
256,192,16605,1,8,0:0:0:0:
256,192,16657,1,0,0:0:0:0:
256,192,16761,1,8,0:0:0:0:
256,192,16866,1,0,0:0:0:0:
256,192,17178,1,8,0:0:0:0:
256,192,17282,1,8,0:0:0:0:
256,192,17386,1,0,0:0:0:0:
256,192,17491,1,0,0:0:0:0:
256,192,17803,1,8,0:0:0:0:
256,192,17907,1,8,0:0:0:0:
256,192,18011,1,0,0:0:0:0:
256,192,18116,1,0,0:0:0:0:
256,192,18428,1,8,0:0:0:0:
256,192,18532,1,8,0:0:0:0:
256,192,18636,1,0,0:0:0:0:
256,192,18741,1,0,0:0:0:0:
256,192,18845,1,8,0:0:0:0:
256,192,18949,1,8,0:0:0:0:
256,192,19053,1,0,0:0:0:0:
256,192,19105,1,0,0:0:0:0:
256,192,19157,1,8,0:0:0:0:
256,192,19261,1,8,0:0:0:0:
256,192,19366,1,0,0:0:0:0:
256,192,19678,1,0,0:0:0:0:
256,192,19782,1,0,0:0:0:0:
256,192,19886,1,0,0:0:0:0:
256,192,19991,1,0,0:0:0:0:
256,192,20303,1,8,0:0:0:0:
256,192,20616,1,8,0:0:0:0:
256,192,20928,1,0,0:0:0:0:
256,192,21241,1,0,0:0:0:0:
256,192,21553,1,8,0:0:0:0:
256,192,21866,1,8,0:0:0:0:
256,192,22178,1,0,0:0:0:0:
256,192,22491,1,0,0:0:0:0:
256,192,22803,1,8,0:0:0:0:
256,192,23116,1,8,0:0:0:0:
256,192,23428,1,0,0:0:0:0:
256,192,23741,1,0,0:0:0:0:
256,192,23845,1,8,0:0:0:0:
256,192,23949,1,0,0:0:0:0:
256,192,24053,1,8,0:0:0:0:
256,192,24157,1,8,0:0:0:0:
256,192,24261,1,0,0:0:0:0:
256,192,24366,1,8,0:0:0:0:
256,192,24678,1,0,0:0:0:0:
256,192,24782,1,0,0:0:0:0:
256,192,24886,1,0,0:0:0:0:
256,192,24991,1,0,0:0:0:0:
256,192,25303,1,0,0:0:0:0:
256,192,25407,1,8,0:0:0:0:
256,192,25511,1,8,0:0:0:0:
256,192,25616,1,0,0:0:0:0:
256,192,25928,1,0,0:0:0:0:
256,192,26032,1,0,0:0:0:0:
256,192,26136,1,0,0:0:0:0:
256,192,26241,1,8,0:0:0:0:
256,192,26345,1,0,0:0:0:0:
256,192,26449,1,8,0:0:0:0:
256,192,26553,1,0,0:0:0:0:
256,192,26605,1,0,0:0:0:0:
256,192,26657,1,8,0:0:0:0:
256,192,26761,1,8,0:0:0:0:
256,192,26866,1,0,0:0:0:0:
256,192,27178,1,8,0:0:0:0:
256,192,27282,1,8,0:0:0:0:
256,192,27386,1,0,0:0:0:0:
256,192,27491,1,0,0:0:0:0:
256,192,27803,1,0,0:0:0:0:
256,192,27907,1,0,0:0:0:0:
256,192,28011,1,0,0:0:0:0:
256,192,28116,1,8,0:0:0:0:
256,192,28428,1,0,0:0:0:0:
256,192,28532,1,8,0:0:0:0:
256,192,28636,1,8,0:0:0:0:
256,192,28741,1,0,0:0:0:0:
256,192,28845,1,8,0:0:0:0:
256,192,28949,1,8,0:0:0:0:
256,192,29053,1,0,0:0:0:0:
256,192,29105,1,0,0:0:0:0:
256,192,29157,1,8,0:0:0:0:
256,192,29261,1,8,0:0:0:0:
256,192,29366,1,8,0:0:0:0:
256,192,29470,1,0,0:0:0:0:
256,192,29574,1,8,0:0:0:0:
256,192,29678,1,8,0:0:0:0:
256,192,29782,1,0,0:0:0:0:
256,192,29886,1,8,0:0:0:0:
256,192,29990,1,8,0:0:0:0:
256,192,30095,1,0,0:0:0:0:
256,192,30199,1,8,0:0:0:0:
256,192,30303,1,0,0:0:0:0:
256,192,30407,1,0,0:0:0:0:
256,192,30511,1,8,0:0:0:0:
256,192,30615,1,8,0:0:0:0:
256,192,30720,1,0,0:0:0:0:
256,192,30824,1,8,0:0:0:0:
256,192,30928,1,0,0:0:0:0:
256,192,31032,1,8,0:0:0:0:
256,192,31136,1,8,0:0:0:0:
256,192,31240,1,8,0:0:0:0:
256,192,31345,1,0,0:0:0:0:
256,192,31449,1,8,0:0:0:0:
256,192,31553,1,0,0:0:0:0:
256,192,31605,1,0,0:0:0:0:
256,192,31657,1,8,0:0:0:0:
256,192,31761,1,0,0:0:0:0:
256,192,31865,1,8,0:0:0:0:
256,192,31970,1,0,0:0:0:0:
256,192,32074,1,8,0:0:0:0:
256,192,32178,1,8,0:0:0:0:
256,192,32282,1,0,0:0:0:0:
256,192,32386,1,8,0:0:0:0:
256,192,32490,1,8,0:0:0:0:
256,192,32595,1,0,0:0:0:0:
256,192,32699,1,8,0:0:0:0:
256,192,32803,1,0,0:0:0:0:
256,192,32907,1,0,0:0:0:0:
256,192,33011,1,8,0:0:0:0:
256,192,33115,1,8,0:0:0:0:
256,192,33220,1,0,0:0:0:0:
256,192,33324,1,8,0:0:0:0:
256,192,33428,1,0,0:0:0:0:
256,192,33532,1,8,0:0:0:0:
256,192,33636,1,8,0:0:0:0:
256,192,33740,1,8,0:0:0:0:
256,192,33845,1,0,0:0:0:0:
256,192,33949,1,8,0:0:0:0:
256,192,34053,1,0,0:0:0:0:
256,192,34105,1,0,0:0:0:0:
256,192,34157,1,8,0:0:0:0:
256,192,34261,1,0,0:0:0:0:
256,192,34366,12,0,41866,0:0:0:0:
