osu file format v14

[General]
AudioFilename: audio.mp3
AudioLeadIn: 0
PreviewTime: 543
Countdown: 0
SampleSet: Normal
StackLeniency: 0.7
Mode: 1
LetterboxInBreaks: 0
WidescreenStoryboard: 0

[Editor]
DistanceSpacing: 1.3
BeatDivisor: 4
GridSize: 16
TimelineZoom: 0.8

[Metadata]
Title:Mishiro Town
TitleUnicode:ミシロタウン
Artist:Kageyama Shouta
ArtistUnicode:景山将太
Creator:Toofu
Version:Nostalgia
Source:ポケットモンスター オメガルビー・アルファサファイア
Tags:Littleroot video game videogame pokémon pokemon pocket monster instrumental omega ruby alpha sapphire nintendo ost original sound track soundtrack game freak 一之瀬剛 Ichinose Go Shota vgm music
BeatmapID:3279252
BeatmapSetID:1605943

[Difficulty]
HPDrainRate:9
CircleSize:5
OverallDifficulty:2.5
ApproachRate:5
SliderMultiplier:1.4
SliderTickRate:1

[Events]
//Background and Video events
0,0,"Littleroot_Town.png",0,0
//Break Periods
//Storyboard Layer 0 (Background)
//Storyboard Layer 1 (Fail)
//Storyboard Layer 2 (Pass)
//Storyboard Layer 3 (Foreground)
//Storyboard Layer 4 (Overlay)
//Storyboard Sound Samples

[TimingPoints]
-7583,560.747663551402,4,1,0,60,1,0

[HitObjects]
238,174,547,5,0,0:0:0:0:
238,174,828,1,8,0:0:0:0:
238,174,1108,1,8,0:0:0:0:
238,174,1389,1,8,0:0:0:0:
238,174,2230,1,0,0:0:0:0:
238,174,2510,1,8,0:0:0:0:
238,174,2790,1,0,0:0:0:0:
238,162,3071,1,8,0:0:0:0:
238,162,3351,1,0,0:0:0:0:
238,174,3631,1,8,0:0:0:0:
226,168,4473,1,8,0:0:0:0:
226,168,4753,1,0,0:0:0:0:
217,167,5314,1,8,0:0:0:0:
217,167,5594,1,0,0:0:0:0:
226,162,5874,1,8,0:0:0:0:
226,162,6435,1,8,0:0:0:0:
226,162,6996,1,0,0:0:0:0:
226,162,7557,1,8,0:0:0:0:
226,162,7837,1,8,0:0:0:0:
226,162,8117,1,0,0:0:0:0:
226,162,8398,1,0,0:0:0:0:
226,162,8678,1,8,0:0:0:0:
226,162,8959,1,0,0:0:0:0:
226,162,9239,1,8,0:0:0:0:
218,170,9800,1,0,0:0:0:0:
218,170,10080,1,0,0:0:0:0:
218,170,10360,1,8,0:0:0:0:
223,171,11482,1,8,0:0:0:0:
223,171,11762,1,8,0:0:0:0:
223,171,12043,1,0,0:0:0:0:
223,171,12323,1,8,0:0:0:0:
223,171,12603,1,0,0:0:0:0:
223,171,13725,1,8,0:0:0:0:
223,171,14005,1,0,0:0:0:0:
223,171,14286,1,8,0:0:0:0:
223,171,14566,1,0,0:0:0:0:
223,171,14846,1,8,0:0:0:0:
223,171,16529,1,8,0:0:0:0:
225,179,16809,1,0,0:0:0:0:
225,179,17089,1,8,0:0:0:0:
225,179,17931,1,8,0:0:0:0:
242,175,18211,1,8,0:0:0:0:
226,172,18491,1,0,0:0:0:0:
226,172,18772,1,8,0:0:0:0:
226,172,19052,1,8,0:0:0:0:
226,172,19332,1,4,0:0:0:0:
226,172,20174,1,0,0:0:0:0:
226,172,20454,1,8,0:0:0:0:
226,172,20734,1,8,0:0:0:0:
226,172,21015,1,0,0:0:0:0:
226,172,21295,1,8,0:0:0:0:
226,172,21856,1,0,0:0:0:0:
226,172,22417,1,8,0:0:0:0:
226,172,22697,1,0,0:0:0:0:
226,172,23258,1,0,0:0:0:0:
226,172,23538,1,8,0:0:0:0:
226,172,23818,1,0,0:0:0:0:
241,172,24379,1,8,0:0:0:0:
241,172,24940,1,8,0:0:0:0:
241,172,25501,1,0,0:0:0:0:
241,172,25781,1,8,0:0:0:0:
241,172,26061,1,0,0:0:0:0:
241,172,26342,1,0,0:0:0:0:
241,172,26622,1,8,0:0:0:0:
241,172,26903,1,0,0:0:0:0:
241,172,27183,1,8,0:0:0:0:
241,172,27744,1,0,0:0:0:0:
241,172,28024,1,0,0:0:0:0:
241,172,28304,1,8,0:0:0:0:
241,172,29426,1,8,0:0:0:0:
231,166,29706,1,0,0:0:0:0:
241,166,29987,1,8,0:0:0:0:
241,166,30267,1,8,0:0:0:0:
241,166,30547,1,0,0:0:0:0:
241,166,31669,1,8,0:0:0:0:
273,93,31809,1,8,0:0:0:0:
241,166,31949,1,8,0:0:0:0:
241,166,32230,1,0,0:0:0:0:
241,166,32510,1,0,0:0:0:0:
241,166,32790,1,8,0:0:0:0:
239,169,34473,1,8,0:0:0:0:
239,169,34753,1,0,0:0:0:0:
239,169,35033,1,8,0:0:0:0:
239,169,35874,1,0,0:0:0:0:
240,161,36155,1,8,0:0:0:0:
240,161,36716,1,0,0:0:0:0:
240,161,36996,1,0,0:0:0:0:
240,161,37276,1,8,0:0:0:0:
240,161,38398,1,8,0:0:0:0:
240,161,38678,1,0,0:0:0:0:
240,161,38959,1,8,0:0:0:0:
240,161,39239,1,8,0:0:0:0:
240,161,39519,1,0,0:0:0:0:
243,140,39800,1,8,0:0:0:0:
240,161,40360,1,8,0:0:0:0:
240,161,40641,1,0,0:0:0:0:
240,161,41202,1,0,0:0:0:0:
240,161,41482,1,8,0:0:0:0:
240,161,41762,1,8,0:0:0:0:
241,161,43164,1,8,0:0:0:0:
241,161,43445,1,0,0:0:0:0:
241,161,43725,1,0,0:0:0:0:
241,161,44005,1,8,0:0:0:0:
241,161,44286,1,0,0:0:0:0:
241,161,44846,1,0,0:0:0:0:
241,161,45127,1,8,0:0:0:0:
241,161,45688,1,8,0:0:0:0:
241,161,45968,1,0,0:0:0:0:
241,161,46248,1,8,0:0:0:0:
241,161,47650,1,0,0:0:0:0:
241,161,47931,1,0,0:0:0:0:
259,166,48211,1,8,0:0:0:0:
259,166,48491,1,8,0:0:0:0:
259,166,48772,1,0,0:0:0:0:
259,166,49052,1,8,0:0:0:0:
259,166,49332,1,8,0:0:0:0:
259,166,49613,1,0,0:0:0:0:
259,166,50174,1,0,0:0:0:0:
259,166,50454,1,8,0:0:0:0:
259,166,50734,1,8,0:0:0:0:
259,166,52136,1,8,0:0:0:0:
191,94,52276,1,8,0:0:0:0:
259,166,52417,1,8,0:0:0:0:
265,175,52697,1,0,0:0:0:0:
265,175,52977,1,8,0:0:0:0:
265,175,53258,1,0,0:0:0:0:
254,102,53818,1,0,0:0:0:0:
265,175,54099,1,8,0:0:0:0:
265,175,54660,1,8,0:0:0:0:
265,175,54940,1,0,0:0:0:0:
265,175,55220,1,12,0:0:0:0:
