osu file format v14

[General]
AudioFilename: audio.mp3
AudioLeadIn: 0
PreviewTime: 18863
Countdown: 0
SampleSet: Soft
StackLeniency: 0.7
Mode: 0
LetterboxInBreaks: 0
WidescreenStoryboard: 1

[Editor]
Bookmarks: 1545,10273,19000,27727,36454
DistanceSpacing: 1
BeatDivisor: 4
GridSize: 32
TimelineZoom: 1

[Metadata]
Title:Yuukyuu o Tsugishi Monotachi
TitleUnicode:悠久を継ぎし者たち
Artist:Kageyama Shota
ArtistUnicode:景山将太
Creator:Wanpachi
Version:Normal
Source:ポケットモンスター オメガルビー・アルファサファイア
Tags:folk pokemon pokémon omega ruby alpha sapphire the heirs to eternity zinnia higana ヒガナ cycopton hypercyte hypercute nintendo game freak gen 3 6 oras pocket monsters instrumental video game
BeatmapID:2589061
BeatmapSetID:1245554

[Difficulty]
HPDrainRate:4
CircleSize:3.5
OverallDifficulty:4.5
ApproachRate:5
SliderMultiplier:1.3
SliderTickRate:1

[Events]
//Background and Video events
0,0,"aster.jpg",0,0
//Break Periods
//Storyboard Layer 0 (Background)
//Storyboard Layer 1 (Fail)
//Storyboard Layer 2 (Pass)
//Storyboard Layer 3 (Foreground)
//Storyboard Layer 4 (Overlay)
//Storyboard Sound Samples

[TimingPoints]
-636,545.454545454545,4,2,2,60,1,0
454,-100,4,2,2,60,0,0
1545,-100,4,2,2,60,0,0
19000,-100,4,2,2,70,0,0
36454,-100,4,2,2,70,0,0
38636,-100,4,2,2,70,0,0
41909,-100,4,2,2,50,0,0
43000,-100,4,2,2,30,0,0
44091,-100,4,2,2,10,0,0
45182,-100,4,2,2,5,0,0

[Colours]
Combo1 : 143,177,220
Combo2 : 214,173,231
Combo3 : 216,214,167
Combo4 : 236,138,140

[HitObjects]
63,59,454,6,0,P|95:54|127:48,1,64.9999999999999,0|2,3:2|0:2,0:0:0:0:
175,117,1000,1,2,3:2:0:0:
334,63,1545,6,0,P|379:120|357:186,1,130,6|10,3:2|0:0,0:0:0:0:
396,338,2636,2,0,P|431:344|467:353,2,65,0|2|10,3:0|0:0|0:0,0:0:0:0:
312,328,3454,1,2,0:2:0:0:
238,369,3727,6,0,B|168:382|182:341|112:355,1,130,2|8,3:2|0:0,0:0:0:0:
77,189,4818,2,0,P|61:120|43:73,1,97.4999999999999,2|2,3:2|0:2,0:0:0:0:
149,13,5636,1,2,0:2:0:0:
200,80,5909,6,0,P|251:115|315:109,1,130,2|8,3:2|0:0,0:0:0:0:
483,135,7000,2,0,P|498:202|499:259,1,97.4999999999999,2|2,3:2|0:2,0:0:0:0:
465,352,7818,1,2,0:2:0:0:
387,321,8091,6,0,P|323:336|273:297,1,130,2|8,3:2|0:0,0:0:0:0:
207,248,8909,1,2,0:2:0:0:
148,308,9182,2,0,P|134:350|125:385,1,64.9999999999999,2|0,3:2|0:0,0:0:0:0:
44,374,9727,1,10,0:2:0:0:
36,205,10273,6,0,P|11:196|-10:191,2,32.5,6|2|2,3:2|0:2|0:2,0:0:0:0:
119,220,10818,2,0,P|133:179|142:146,1,64.9999999999999,10|2,0:2|0:0,0:0:0:0:
90,91,11363,2,0,P|49:77|16:68,2,64.9999999999999,0|2|10,3:0|0:0|0:0,0:0:0:0:
153,148,12182,1,2,0:2:0:0:
208,84,12454,6,0,P|264:65|313:115,1,130,2|8,3:2|0:0,0:0:0:0:
254,268,13545,2,0,P|233:317|223:372,1,97.4999999999999,2|2,3:2|0:2,0:0:0:0:
348,334,14363,1,2,0:2:0:0:
385,258,14636,6,0,B|455:245|441:286|511:272,1,130,2|8,3:2|0:0,0:0:0:0:
455,112,15727,2,0,P|441:58|408:-3,1,97.4999999999999,2|2,3:2|0:2,0:0:0:0:
335,112,16545,1,2,0:2:0:0:
285,180,16818,6,0,P|229:209|162:182,1,130,2|8,3:2|0:0,0:0:0:0:
99,236,17636,1,2,0:2:0:0:
82,318,17909,2,0,P|68:351|57:388,1,64.9999999999999,2|0,3:2|0:0,0:0:0:0:
144,375,18454,2,0,P|179:370|217:361,1,64.9999999999999,10|0,0:2|0:0,0:0:0:0:
252,290,19000,6,0,P|295:232|348:176,1,130,6|8,3:2|0:0,0:0:0:0:
288,118,19818,1,2,0:2:0:0:
351,61,20091,2,0,P|411:77|470:83,1,97.4999999999999,2|2,3:2|0:2,0:0:0:0:
476,111,20636,2,0,P|485:147|489:182,1,64.9999999999999,8|2,0:0|0:2,0:0:0:0:
444,246,21182,6,0,B|374:232|388:273|318:259,1,130,2|8,3:2|0:0,0:0:0:0:
300,341,22000,1,2,0:2:0:0:
220,316,22273,2,0,P|184:306|143:300,1,64.9999999999999,2|0,3:2|0:0,0:0:0:0:
97,241,22818,2,0,P|87:205|81:164,1,64.9999999999999,10|0,0:2|0:0,0:0:0:0:
142,117,23363,6,0,P|176:97|273:125,1,130,2|8,3:2|0:0,0:0:0:0:
321,173,24182,1,2,0:2:0:0:
390,125,24454,2,0,P|455:136|512:160,1,97.4999999999999,2|2,3:2|0:2,0:0:0:0:
506,182,25000,2,0,P|495:212|490:244,1,64.9999999999999,8|2,0:0|0:2,0:0:0:0:
429,304,25545,6,0,P|367:317|314:269,1,130,2|8,3:2|0:0,0:0:0:0:
235,295,26363,1,2,0:2:0:0:
196,220,26636,1,2,3:2:0:0:
212,137,26909,1,2,0:2:0:0:
149,79,27182,2,0,P|117:71|84:70,1,64.9999999999999,10|2,0:2|0:2,0:0:0:0:
19,123,27727,6,0,B|5:192|46:178|32:248,1,130,6|8,3:2|0:0,0:0:0:0:
54,330,28545,1,2,0:2:0:0:
132,297,28818,2,0,P|197:314|241:335,1,97.4999999999999,2|2,3:2|0:2,0:0:0:0:
256,353,29363,2,0,P|285:340|317:332,1,64.9999999999999,8|2,0:0|0:2,0:0:0:0:
380,275,29909,6,0,P|427:315|487:298,1,130,2|8,3:2|0:0,0:0:0:0:
499,214,30727,1,2,0:2:0:0:
451,144,31000,2,0,P|439:113|433:81,1,64.9999999999999,2|0,3:2|0:0,0:0:0:0:
350,62,31545,2,0,P|361:31|367:-1,1,64.9999999999999,10|0,0:2|0:0,0:0:0:0:
282,9,32091,6,0,P|218:20|157:43,1,130,2|8,3:2|0:0,0:0:0:0:
90,94,32909,1,2,0:2:0:0:
152,151,33182,2,0,P|169:196|177:244,1,97.4999999999999,2|2,3:2|0:2,0:0:0:0:
152,279,33727,2,0,P|138:314|132:351,1,64.9999999999999,8|2,0:0|0:2,0:0:0:0:
217,338,34273,6,0,B|286:351|272:310|342:324,1,130,2|8,3:2|0:0,0:0:0:0:
391,254,35091,1,2,0:2:0:0:
341,186,35363,1,2,3:2:0:0:
256,187,35636,1,2,0:2:0:0:
215,114,35909,2,0,P|214:81|220:49,1,64.9999999999999,10|2,0:2|0:2,0:0:0:0:
300,19,36454,6,0,P|361:3|419:31,1,130,2|8,3:2|0:0,0:0:0:0:
500,55,37273,1,2,0:2:0:0:
488,138,37545,1,2,3:2:0:0:
405,157,37818,1,2,0:2:0:0:
400,241,38091,2,0,P|405:273|412:304,1,64.9999999999999,10|2,0:2|0:2,0:0:0:0:
364,374,38636,5,6,0:2:0:0:
261,300,39045,2,0,P|190:310|144:322,1,97.4999999999999,6|2,0:2|3:2,0:0:0:0:
105,376,39727,1,6,0:2:0:0:
23,227,40273,2,0,P|36:186|37:149,1,64.9999999999999,6|0,0:2|3:0,0:0:0:0:
19,81,40818,5,6,3:2:0:0:
256,192,41091,12,0,45182,0:0:0:0:
