osu file format v14

[General]
AudioFilename: audio.mp3
AudioLeadIn: 0
PreviewTime: 18863
Countdown: 0
SampleSet: Soft
StackLeniency: 0.7
Mode: 0
LetterboxInBreaks: 0
WidescreenStoryboard: 1

[Editor]
Bookmarks: 1545,10273,19000,27727,36454
DistanceSpacing: 1.6
BeatDivisor: 4
GridSize: 32
TimelineZoom: 1.6

[Metadata]
Title:Yuukyuu o Tsugishi Monotachi
TitleUnicode:悠久を継ぎし者たち
Artist:Kageyama Shota
ArtistUnicode:景山将太
Creator:Wanpachi
Version:Hard
Source:ポケットモンスター オメガルビー・アルファサファイア
Tags:folk pokemon pokémon omega ruby alpha sapphire the heirs to eternity zinnia higana ヒガナ cycopton hypercyte hypercute nintendo game freak gen 3 6 oras pocket monsters instrumental video game
BeatmapID:2589059
BeatmapSetID:1245554

[Difficulty]
HPDrainRate:4.8
CircleSize:3.8
OverallDifficulty:6
ApproachRate:7.5
SliderMultiplier:2.2
SliderTickRate:1

[Events]
//Background and Video events
0,0,"aster.jpg",0,0
//Break Periods
//Storyboard Layer 0 (Background)
//Storyboard Layer 1 (Fail)
//Storyboard Layer 2 (Pass)
//Storyboard Layer 3 (Foreground)
//Storyboard Layer 4 (Overlay)
//Storyboard Sound Samples

[TimingPoints]
-636,545.454545454545,4,2,2,60,1,0
454,-111.111111111111,4,2,2,60,0,0
1545,-100,4,2,2,60,0,0
19000,-90.9090909090909,4,2,2,70,0,0
36454,-100,4,2,2,70,0,0
38636,-90.9090909090909,4,2,2,70,0,0
41909,-100,4,2,2,50,0,0
43000,-100,4,2,2,30,0,0
44091,-100,4,2,2,10,0,0
45182,-100,4,2,2,5,0,0

[Colours]
Combo1 : 143,177,220
Combo2 : 214,173,231
Combo3 : 216,214,167
Combo4 : 236,138,140

[HitObjects]
61,235,454,5,0,3:2:0:0:
61,235,591,2,0,P|58:257|48:288,2,49.4999984893799,2|2|2,0:2|0:2|0:2,0:0:0:0:
46,160,1000,2,0,L|98:149,1,49.4999984893799,2|2,3:2|0:2,0:0:0:0:
140,85,1273,2,0,L|192:96,1,49.4999984893799,2|2,0:2|0:2,0:0:0:0:
274,44,1545,6,0,P|311:81|365:82,1,110,6|0,3:2|0:0,0:0:0:0:
454,209,2091,1,10,0:0:0:0:
406,282,2227,2,0,L|337:271,1,55,2|0,0:0|0:0,0:0:0:0:
273,233,2500,6,0,L|162:250,1,110,2|0,0:0|0:0,0:0:0:0:
112,321,2909,2,0,P|84:322|58:313,1,55,2|0,0:0|0:0,0:0:0:0:
24,232,3182,1,10,0:0:0:0:
63,85,3454,1,2,0:2:0:0:
63,85,3591,1,2,0:2:0:0:
145,113,3727,6,0,B|204:127|189:82|249:97,1,110,2|0,3:2|0:0,0:0:0:0:
374,6,4273,2,0,L|390:67,1,55,8|0,0:0|0:0,0:0:0:0:
425,138,4545,1,0,0:0:0:0:
477,283,4818,6,0,P|427:299|375:282,1,110,2|0,3:2|0:0,0:0:0:0:
304,226,5227,2,0,B|268:208|268:208|176:229,1,110,2|0,0:2|0:0,0:0:0:0:
113,242,5636,1,2,0:2:0:0:
103,65,5909,6,0,B|150:60|150:60|163:71|163:71|210:65,1,110,2|0,3:2|0:0,0:0:0:0:
362,39,6454,2,0,P|370:68|363:99,1,55,8|0,0:0|0:0,0:0:0:0:
283,124,6727,1,0,0:0:0:0:
374,249,7000,6,0,L|494:263,1,110,2|0,3:2|0:0,0:0:0:0:
484,350,7409,2,0,P|431:368|380:350,1,110,2|0,0:2|0:0,0:0:0:0:
293,344,7818,1,2,0:2:0:0:
145,246,8091,6,0,B|87:230|102:276|41:261,1,110,2|0,3:2|0:0,0:0:0:0:
43,104,8636,2,0,L|50:42,1,55,8|0,0:0|0:0,0:0:0:0:
135,32,8909,2,0,L|142:86,1,55,2|0,0:2|0:0,0:0:0:0:
204,148,9182,6,0,P|250:163|313:125,1,110,2|0,3:2|0:0,0:0:0:0:
376,86,9591,1,0,0:0:0:0:
376,86,9727,2,0,L|386:202,1,110,10|0,0:2|0:0,0:0:0:0:
238,331,10273,6,0,L|244:262,1,55,6|2,3:2|0:2,0:0:0:0:
315,225,10545,1,2,0:2:0:0:
269,52,10819,1,10,0:2:0:0:
196,101,10955,2,0,P|167:92|127:90,1,55,2|2,0:0|0:0,0:0:0:0:
58,64,11227,6,0,P|27:118|36:185,1,110,2|0,0:0|0:0,0:0:0:0:
87,231,11636,2,0,L|80:311,1,55,2|0,0:0|0:0,0:0:0:0:
152,341,11910,1,10,0:0:0:0:
276,248,12182,1,2,0:2:0:0:
276,248,12319,1,2,0:2:0:0:
357,285,12454,6,0,B|404:280|404:280|414:267|414:267|461:262,1,110,2|0,3:2|0:0,0:0:0:0:
497,111,13001,2,0,P|500:83|493:57,1,55,8|0,0:0|0:0,0:0:0:0:
411,88,13273,1,0,0:0:0:0:
267,35,13545,6,0,B|225:53|225:53|154:40,1,110,2|0,3:2|0:0,0:0:0:0:
80,77,13954,2,0,L|94:203,1,110,2|0,0:2|0:0,0:0:0:0:
36,256,14364,1,2,0:2:0:0:
199,325,14636,6,0,P|266:335|324:309,1,110,2|0,3:2|0:0,0:0:0:0:
445,256,15182,2,0,L|435:191,1,55,8|0,0:0|0:0,0:0:0:0:
510,153,15455,1,0,0:0:0:0:
397,50,15727,6,0,L|268:40,1,110,2|0,3:2|0:0,0:0:0:0:
212,90,16136,2,0,B|154:105|168:60|108:74,1,110,2|0,0:2|0:0,0:0:0:0:
54,145,16546,1,2,0:2:0:0:
90,317,16818,6,0,B|132:333|132:333|198:305,1,110,2|0,3:2|0:0,0:0:0:0:
328,235,17364,2,0,P|335:202|330:170,1,55,8|0,0:0|0:0,0:0:0:0:
244,176,17636,2,0,P|236:208|242:239,1,55,2|0,0:2|0:0,0:0:0:0:
281,308,17909,6,0,L|402:320,1,110,2|0,3:2|0:0,0:0:0:0:
468,275,18318,1,0,0:0:0:0:
468,275,18454,2,0,P|483:212|473:148,1,110,10|0,0:2|0:0,0:0:0:0:
324,49,19000,6,0,B|223:24|250:98|150:74,1,181.500005538941,6|0,3:2|0:0,0:0:0:0:
109,161,19545,1,8,0:0:0:0:
187,313,19818,2,0,L|263:322,1,60.5000018463135,2|0,0:2|0:0,0:0:0:0:
299,238,20091,6,0,P|274:183|290:126,1,121.000003692627,2|0,3:2|0:0,0:0:0:0:
278,30,20500,2,0,P|337:35|378:78,1,121.000003692627,2|0,0:2|0:0,0:0:0:0:
371,174,20909,1,2,0:2:0:0:
297,326,21182,6,0,B|217:317|217:317|201:296|201:296|124:287,1,181.500005538941,2|0,3:2|0:0,0:0:0:0:
43,337,21727,1,8,0:0:0:0:
43,168,22000,2,0,P|36:137|44:107,1,60.5000018463135,2|0,0:2|0:0,0:0:0:0:
119,49,22273,6,0,L|245:77,1,121.000003692627,2|0,3:2|0:0,0:0:0:0:
316,17,22682,1,0,0:0:0:0:
390,78,22818,2,0,B|418:116|418:116|398:187,1,121.000003692627,10|0,0:2|0:0,0:0:0:0:
261,324,23363,6,0,P|186:340|114:268,1,181.500005538941,2|0,3:2|0:0,0:0:0:0:
70,186,23909,1,8,0:0:0:0:
179,57,24182,2,0,L|254:69,1,60.5000018463135,2|0,0:2|0:0,0:0:0:0:
308,134,24454,6,0,L|456:110,1,121.000003692627,2|0,3:2|0:0,0:0:0:0:
482,194,24863,2,0,P|453:246|468:302,1,121.000003692627,2|0,0:2|0:0,0:0:0:0:
386,355,25272,1,2,0:2:0:0:
273,234,25545,6,0,B|172:210|196:285|97:259,1,181.500005538941,2|0,3:2|0:0,0:0:0:0:
19,313,26091,1,8,0:0:0:0:
61,151,26363,2,0,L|47:77,1,60.5000018463135,2|0,0:2|0:0,0:0:0:0:
132,38,26636,6,0,P|161:39|189:52,1,60.5000018463135,2|0,3:2|0:0,0:0:0:0:
287,52,26909,2,0,P|300:77|303:108,1,60.5000018463135,2|0,0:2|0:0,0:0:0:0:
352,192,27182,2,0,P|334:217|310:235,1,60.5000018463135,10|0,0:2|0:0,0:0:0:0:
263,318,27454,2,0,P|232:316|204:303,1,60.5000018463135,2|0,0:2|0:0,0:0:0:0:
108,304,27727,6,0,P|122:240|225:213,1,181.500005538941,6|0,3:2|0:0,0:0:0:0:
294,146,28273,1,8,0:0:0:0:
439,231,28545,2,0,L|456:162,1,60.5000018463135,2|0,0:2|0:0,0:0:0:0:
475,77,28818,6,0,B|422:71|422:71|408:83|408:83|357:78,1,121.000003692627,2|0,3:2|0:0,0:0:0:0:
274,30,29227,2,0,P|208:26|164:94,1,121.000003692627,2|0,0:2|0:0,0:0:0:0:
81,24,29636,1,2,0:2:0:0:
29,186,29909,6,0,B|8:237|8:237|58:362,1,181.500005538941,2|0,3:2|0:0,0:0:0:0:
152,355,30454,1,8,0:0:0:0:
264,228,30727,2,0,P|292:223|330:236,1,60.5000018463135,2|0,0:2|0:0,0:0:0:0:
405,280,31000,6,0,L|422:154,1,121.000003692627,2|0,3:2|0:0,0:0:0:0:
441,68,31409,1,0,0:0:0:0:
441,68,31545,2,0,B|375:51|391:101|325:84,1,121.000003692627,10|0,0:2|0:0,0:0:0:0:
131,66,32091,6,0,P|151:128|66:184,1,181.500005538941,2|0,3:2|0:0,0:0:0:0:
12,264,32636,1,8,0:0:0:0:
163,341,32909,2,0,L|239:326,1,60.5000018463135,2|0,0:2|0:0,0:0:0:0:
300,271,33182,6,0,P|357:300|418:253,1,121.000003692627,2|0,3:2|0:0,0:0:0:0:
445,188,33591,2,0,B|460:150|460:150|434:66,1,121.000003692627,2|0,0:2|0:0,0:0:0:0:
349,28,34000,1,2,0:2:0:0:
210,126,34273,6,0,L|18:108,1,181.500005538941,2|0,3:2|0:0,0:0:0:0:
42,204,34818,1,8,0:0:0:0:
130,351,35091,2,0,L|189:343,1,60.5000018463135,2|0,0:2|0:0,0:0:0:0:
288,344,35363,6,0,P|301:317|303:287,1,60.5000018463135,2|0,3:2|0:0,0:0:0:0:
353,203,35636,2,0,P|335:177|311:159,1,60.5000018463135,2|0,0:2|0:0,0:0:0:0:
265,76,35909,2,0,P|233:78|206:90,1,60.5000018463135,10|0,0:2|0:0,0:0:0:0:
110,91,36181,2,0,P|96:117|93:147,1,60.5000018463135,2|0,0:2|0:0,0:0:0:0:
24,203,36454,6,0,B|56:243|56:243|172:247,1,165,2|0,3:2|0:0,0:0:0:0:
255,267,37000,1,8,0:0:0:0:
240,112,37273,2,0,P|263:99|290:96,1,55,2|0,0:2|0:0,0:0:0:0:
366,49,37546,6,0,P|388:63|405:85,1,55,2|0,3:2|0:0,0:0:0:0:
483,127,37818,2,0,P|481:153|471:178,1,55,2|0,0:2|0:0,0:0:0:0:
467,268,38091,2,0,P|442:280|415:283,1,55,10|0,0:2|0:0,0:0:0:0:
353,221,38363,2,0,P|328:208|300:205,1,55,2|0,0:2|0:0,0:0:0:0:
224,285,38636,5,6,0:2:0:0:
224,285,38773,1,2,0:2:0:0:
41,222,39045,2,0,L|60:92,1,121.000003692627,6|2,0:2|0:2,0:0:0:0:
127,32,39454,2,0,L|191:22,1,60.5000018463135,2|2,3:2|0:2,0:0:0:0:
256,92,39727,5,6,0:2:0:0:
267,81,40273,1,6,0:2:0:0:
223,245,40545,1,0,3:0:0:0:
109,87,40818,5,6,3:2:0:0:
256,192,40954,12,0,45182,0:0:0:0:
