osu file format v14

[General]
AudioFilename: 104 - Battle! (Zinnia).mp3
AudioLeadIn: 0
PreviewTime: 56615
Countdown: 0
SampleSet: Normal
StackLeniency: 0.7
Mode: 1
LetterboxInBreaks: 0
WidescreenStoryboard: 0

[Editor]
DistanceSpacing: 1.1
BeatDivisor: 4
GridSize: 32
TimelineZoom: 1.8

[Metadata]
Title:Sentou! Denshousha Higana
TitleUnicode:戦闘! 伝承者ヒガナ
Artist:Kageyama Shota
ArtistUnicode:景山将太
Creator:Stefan
Version:Muzukashii
Source:ポケットモンスター オメガルビー・アルファサファイア
Tags:game freak nintendo pokémon pokemon omega ruby alpha sapphire oras remake lorekeeper zinnia battle folklorist video game instrumental thenutritiousguy tng
BeatmapID:2114848
BeatmapSetID:1010280

[Difficulty]
HPDrainRate:6
CircleSize:5
OverallDifficulty:4
ApproachRate:5
SliderMultiplier:1.4
SliderTickRate:1

[Events]
//Background and Video events
0,0,"559250.png",0,96
//Break Periods
//Storyboard Layer 0 (Background)
//Storyboard Layer 1 (Fail)
//Storyboard Layer 2 (Pass)
//Storyboard Layer 3 (Foreground)
//Storyboard Layer 4 (Overlay)
//Storyboard Sound Samples

[TimingPoints]
303,335.195530726257,4,1,0,70,1,0
303,-111.111111111111,4,1,0,70,0,0
3235,-111.111111111111,4,1,0,35,0,0
8347,-100,4,1,0,70,0,0
57621,-111.111111111111,4,1,0,70,0,0
64660,-109.89010989011,4,1,0,70,0,0
65330,-108.695652173913,4,1,0,70,0,0
66001,-107.52688172043,4,1,0,70,0,0
66336,-106.382978723404,4,1,0,70,0,0
66671,-105.263157894737,4,1,0,70,0,0
66839,-104.166666666667,4,1,0,70,0,0
67006,-103.092783505155,4,1,0,70,0,0
67090,-102.040816326531,4,1,0,70,0,0
67174,-101.010101010101,4,1,0,70,0,0
67342,-100,4,1,0,70,0,1
83431,-100,4,1,0,70,0,0

[HitObjects]
256,192,303,12,0,1643,0:0:0:0:
256,192,2314,5,0,0:0:0:0:
256,192,2984,1,0,0:0:0:0:
256,192,3319,1,8,0:0:0:0:
256,192,3487,1,8,0:0:0:0:
256,192,3654,1,8,0:0:0:0:
256,192,3990,1,0,0:0:0:0:
256,192,4325,1,0,0:0:0:0:
256,192,4660,1,0,0:0:0:0:
256,192,4828,1,8,0:0:0:0:
256,192,4995,1,8,0:0:0:0:
256,192,5330,1,0,0:0:0:0:
256,192,5666,1,8,0:0:0:0:
256,192,6001,1,8,0:0:0:0:
256,192,6168,1,8,0:0:0:0:
256,192,6336,1,8,0:0:0:0:
256,192,6671,1,0,0:0:0:0:
256,192,7006,1,0,0:0:0:0:
256,192,7342,1,0,0:0:0:0:
256,192,7509,1,8,0:0:0:0:
256,192,7677,1,8,0:0:0:0:
256,192,8012,1,0,0:0:0:0:
256,192,8347,1,4,0:0:0:0:
256,192,8850,1,0,0:0:0:0:
256,192,9353,1,8,0:0:0:0:
256,192,9688,1,0,0:0:0:0:
256,192,9856,1,8,0:0:0:0:
256,192,10191,1,0,0:0:0:0:
256,192,10358,1,8,0:0:0:0:
256,192,10694,1,8,0:0:0:0:
256,192,10861,1,0,0:0:0:0:
256,192,11029,1,0,0:0:0:0:
256,192,11364,1,8,0:0:0:0:
256,192,11532,1,0,0:0:0:0:
256,192,11867,1,0,0:0:0:0:
256,192,12034,1,8,0:0:0:0:
256,192,12370,1,0,0:0:0:0:
256,192,12705,1,0,0:0:0:0:
256,192,12872,1,0,0:0:0:0:
256,192,13040,1,0,0:0:0:0:
256,192,13124,1,0,0:0:0:0:
256,192,13208,1,0,0:0:0:0:
256,192,13375,1,8,0:0:0:0:
256,192,13710,1,4,0:0:0:0:
256,192,14213,1,0,0:0:0:0:
256,192,14716,1,0,0:0:0:0:
256,192,15219,1,0,0:0:0:0:
256,192,15721,1,0,0:0:0:0:
256,192,16057,1,8,0:0:0:0:
256,192,16392,1,8,0:0:0:0:
256,192,16895,1,8,0:0:0:0:
256,192,17397,1,8,0:0:0:0:
256,192,17900,1,8,0:0:0:0:
256,192,18068,1,8,0:0:0:0:
256,192,18235,1,0,0:0:0:0:
256,192,18403,1,8,0:0:0:0:
256,192,18738,1,8,0:0:0:0:
256,192,18906,1,8,0:0:0:0:
256,192,19073,1,0,0:0:0:0:
256,192,19576,1,0,0:0:0:0:
256,192,20079,1,0,0:0:0:0:
256,192,20582,1,0,0:0:0:0:
256,192,21085,1,0,0:0:0:0:
256,192,21420,1,8,0:0:0:0:
256,192,21755,1,8,0:0:0:0:
256,192,22258,1,8,0:0:0:0:
256,192,22761,1,8,0:0:0:0:
256,192,23263,1,8,0:0:0:0:
256,192,23599,1,0,0:0:0:0:
256,192,23766,1,8,0:0:0:0:
256,192,23850,1,8,0:0:0:0:
256,192,23934,1,8,0:0:0:0:
256,192,24101,1,0,0:0:0:0:
256,192,24437,1,4,0:0:0:0:
256,192,24772,1,0,0:0:0:0:
256,192,24939,1,8,0:0:0:0:
256,192,25275,1,0,0:0:0:0:
256,192,25442,1,8,0:0:0:0:
256,192,25777,1,0,0:0:0:0:
256,192,25945,1,8,0:0:0:0:
256,192,26448,1,8,0:0:0:0:
256,192,26783,1,8,0:0:0:0:
256,192,27118,1,8,0:0:0:0:
256,192,27453,1,0,0:0:0:0:
256,192,27621,1,8,0:0:0:0:
256,192,27956,1,0,0:0:0:0:
256,192,28124,1,8,0:0:0:0:
256,192,28459,1,0,0:0:0:0:
256,192,28627,1,8,0:0:0:0:
256,192,28794,1,0,0:0:0:0:
256,192,29129,1,8,0:0:0:0:
256,192,29297,1,0,0:0:0:0:
256,192,29465,1,8,0:0:0:0:
256,192,29800,1,0,0:0:0:0:
256,192,30135,1,8,0:0:0:0:
256,192,30303,1,0,0:0:0:0:
256,192,30638,1,8,0:0:0:0:
256,192,30805,1,0,0:0:0:0:
256,192,31140,1,8,0:0:0:0:
256,192,31308,1,0,0:0:0:0:
256,192,31811,1,0,0:0:0:0:
256,192,32146,1,8,0:0:0:0:
256,192,32481,1,0,0:0:0:0:
256,192,32816,1,8,0:0:0:0:
256,192,32984,1,0,0:0:0:0:
256,192,33319,1,8,0:0:0:0:
256,192,33487,1,0,0:0:0:0:
256,192,33822,1,8,0:0:0:0:
256,192,33990,1,0,0:0:0:0:
256,192,34492,1,0,0:0:0:0:
256,192,34828,1,0,0:0:0:0:
256,192,35163,1,12,0:0:0:0:
256,192,35498,1,0,0:0:0:0:
256,192,35666,1,8,0:0:0:0:
256,192,35833,1,0,0:0:0:0:
256,192,36001,1,0,0:0:0:0:
256,192,36168,1,8,0:0:0:0:
256,192,36504,1,0,0:0:0:0:
256,192,36671,1,8,0:0:0:0:
256,192,36839,1,0,0:0:0:0:
256,192,37174,1,8,0:0:0:0:
256,192,37509,1,8,0:0:0:0:
256,192,37677,1,0,0:0:0:0:
256,192,37844,1,8,0:0:0:0:
256,192,38180,1,0,0:0:0:0:
256,192,38347,1,8,0:0:0:0:
256,192,38682,1,0,0:0:0:0:
256,192,38850,1,8,0:0:0:0:
256,192,39018,1,0,0:0:0:0:
256,192,39185,1,0,0:0:0:0:
256,192,39353,1,8,0:0:0:0:
256,192,39688,1,0,0:0:0:0:
256,192,39856,1,8,0:0:0:0:
256,192,40191,1,8,0:0:0:0:
256,192,40358,1,0,0:0:0:0:
256,192,40526,1,8,0:0:0:0:
256,192,41029,1,8,0:0:0:0:
256,192,41364,1,0,0:0:0:0:
256,192,41532,1,8,0:0:0:0:
256,192,41699,1,0,0:0:0:0:
256,192,41783,1,0,0:0:0:0:
256,192,41867,1,0,0:0:0:0:
256,192,42034,1,8,0:0:0:0:
256,192,42370,1,0,0:0:0:0:
256,192,42537,1,8,0:0:0:0:
256,192,42872,1,8,0:0:0:0:
256,192,43040,1,0,0:0:0:0:
256,192,43208,1,8,0:0:0:0:
256,192,43543,1,0,0:0:0:0:
256,192,43710,1,8,0:0:0:0:
256,192,44213,1,8,0:0:0:0:
256,192,44548,1,0,0:0:0:0:
256,192,44716,1,8,0:0:0:0:
256,192,45219,1,8,0:0:0:0:
256,192,45554,1,8,0:0:0:0:
256,192,45889,1,12,0:0:0:0:
256,192,46224,1,0,0:0:0:0:
256,192,46392,1,8,0:0:0:0:
256,192,46559,1,0,0:0:0:0:
256,192,46727,1,0,0:0:0:0:
256,192,46895,1,8,0:0:0:0:
256,192,47230,1,0,0:0:0:0:
256,192,47397,1,8,0:0:0:0:
256,192,47565,1,0,0:0:0:0:
256,192,47900,1,8,0:0:0:0:
256,192,48235,1,8,0:0:0:0:
256,192,48403,1,0,0:0:0:0:
256,192,48571,1,8,0:0:0:0:
256,192,48906,1,0,0:0:0:0:
256,192,49073,1,8,0:0:0:0:
256,192,49409,1,0,0:0:0:0:
256,192,49576,1,8,0:0:0:0:
256,192,49744,1,0,0:0:0:0:
256,192,49828,1,0,0:0:0:0:
256,192,49911,1,0,0:0:0:0:
256,192,50079,1,8,0:0:0:0:
256,192,50582,1,8,0:0:0:0:
256,192,50917,1,8,0:0:0:0:
256,192,51085,1,0,0:0:0:0:
256,192,51252,1,8,0:0:0:0:
256,192,51587,1,0,0:0:0:0:
256,192,51755,1,8,0:0:0:0:
256,192,52090,1,0,0:0:0:0:
256,192,52258,1,8,0:0:0:0:
256,192,52425,1,0,0:0:0:0:
256,192,52593,1,0,0:0:0:0:
256,192,52677,1,0,0:0:0:0:
256,192,52761,1,0,0:0:0:0:
256,192,52928,1,0,0:0:0:0:
256,192,53012,1,0,0:0:0:0:
256,192,53096,1,0,0:0:0:0:
256,192,53263,1,8,0:0:0:0:
256,192,53431,1,0,0:0:0:0:
256,192,53599,1,8,0:0:0:0:
256,192,53766,1,0,0:0:0:0:
256,192,53934,1,8,0:0:0:0:
256,192,54269,1,0,0:0:0:0:
256,192,54437,1,8,0:0:0:0:
256,192,54939,1,8,0:0:0:0:
188,100,55275,2,4,L|162:74,14,35
253,196,56615,1,4,0:0:0:0:
256,192,57621,5,0,0:0:0:0:
256,192,57844,1,0,0:0:0:0:
256,192,57956,5,8,0:0:0:0:
256,192,58291,5,0,0:0:0:0:
256,192,58627,1,8,0:0:0:0:
256,192,58850,5,0,0:0:0:0:
256,192,58962,1,8,0:0:0:0:
256,192,59185,5,8,0:0:0:0:
256,192,59297,1,0,0:0:0:0:
256,192,60638,1,8,0:0:0:0:
256,192,61643,1,0,0:0:0:0:
256,192,61978,1,0,0:0:0:0:
256,192,62314,1,8,0:0:0:0:
256,192,62649,1,0,0:0:0:0:
256,192,62816,1,0,0:0:0:0:
256,192,62984,1,8,0:0:0:0:
256,192,63319,1,0,0:0:0:0:
256,192,63654,1,8,0:0:0:0:
256,192,63990,1,0,0:0:0:0:
256,192,64157,1,0,0:0:0:0:
256,192,64325,1,8,0:0:0:0:
256,192,64660,1,0,0:0:0:0:
256,192,65330,1,0,0:0:0:0:
256,192,66001,1,0,0:0:0:0:
256,192,66336,1,0,0:0:0:0:
256,192,66671,1,0,0:0:0:0:
256,192,66839,1,0,0:0:0:0:
256,192,67006,1,0,0:0:0:0:
256,192,67090,1,0,0:0:0:0:
256,192,67174,1,0,0:0:0:0:
256,192,67342,1,8,0:0:0:0:
256,192,67844,1,8,0:0:0:0:
256,192,68347,1,8,0:0:0:0:
256,192,68682,1,8,0:0:0:0:
256,192,68766,1,8,0:0:0:0:
256,192,68850,1,8,0:0:0:0:
256,192,69018,1,0,0:0:0:0:
256,192,69185,1,0,0:0:0:0:
256,192,69353,1,8,0:0:0:0:
256,192,69688,1,8,0:0:0:0:
256,192,70023,1,0,0:0:0:0:
256,192,70526,1,8,0:0:0:0:
256,192,71029,1,8,0:0:0:0:
256,192,71364,1,8,0:0:0:0:
256,192,71532,1,0,0:0:0:0:
256,192,71867,1,0,0:0:0:0:
256,192,72034,1,8,0:0:0:0:
256,192,72118,1,8,0:0:0:0:
256,192,72202,1,8,0:0:0:0:
256,192,72370,1,0,0:0:0:0:
256,192,72705,1,0,0:0:0:0:
256,192,73040,1,0,0:0:0:0:
256,192,73208,1,8,0:0:0:0:
256,192,73543,1,0,0:0:0:0:
256,192,73710,1,8,0:0:0:0:
256,192,74046,1,8,0:0:0:0:
256,192,74548,1,8,0:0:0:0:
256,192,75051,1,0,0:0:0:0:
256,192,75386,1,12,0:0:0:0:
256,192,75721,1,0,0:0:0:0:
256,192,75889,1,8,0:0:0:0:
256,192,76224,1,0,0:0:0:0:
256,192,76392,1,8,0:0:0:0:
256,192,76727,1,0,0:0:0:0:
256,192,77062,1,0,0:0:0:0:
256,192,77397,1,8,0:0:0:0:
256,192,77733,1,8,0:0:0:0:
256,192,78068,1,8,0:0:0:0:
256,192,78571,1,8,0:0:0:0:
256,192,79073,1,8,0:0:0:0:
256,192,79409,1,8,0:0:0:0:
256,192,79492,1,8,0:0:0:0:
256,192,79576,1,8,0:0:0:0:
256,192,79744,1,0,0:0:0:0:
256,192,80079,1,0,0:0:0:0:
256,192,80163,1,0,0:0:0:0:
256,192,80247,1,0,0:0:0:0:
256,192,80414,1,12,0:0:0:0:
256,192,80749,1,8,0:0:0:0:
256,192,80917,1,0,0:0:0:0:
256,192,81085,1,0,0:0:0:0:
256,192,81252,1,8,0:0:0:0:
256,192,81587,1,0,0:0:0:0:
256,192,81755,1,8,0:0:0:0:
256,192,82258,1,8,0:0:0:0:
256,192,82593,1,0,0:0:0:0:
256,192,82761,1,8,0:0:0:0:
256,192,82928,1,0,0:0:0:0:
256,192,83096,1,8,0:0:0:0:
256,192,83431,1,0,0:0:0:0:
256,192,83599,1,8,0:0:0:0:
256,192,83766,1,0,0:0:0:0:
256,192,83934,1,0,0:0:0:0:
256,192,84101,1,8,0:0:0:0:
256,192,84437,1,8,0:0:0:0:
256,192,84604,1,0,0:0:0:0:
256,192,84772,1,0,0:0:0:0:
256,192,85107,1,0,0:0:0:0:
256,192,85442,1,8,0:0:0:0:
256,192,85610,1,0,0:0:0:0:
256,192,85777,1,8,0:0:0:0:
256,192,86113,1,0,0:0:0:0:
256,192,86448,1,0,0:0:0:0:
256,192,86615,1,0,0:0:0:0:
256,192,86783,1,8,0:0:0:0:
256,192,87286,1,8,0:0:0:0:
256,192,87453,1,0,0:0:0:0:
256,192,87621,1,0,0:0:0:0:
256,192,87789,1,8,0:0:0:0:
256,192,88124,1,0,0:0:0:0:
256,192,88291,1,0,0:0:0:0:
256,192,88459,1,8,0:0:0:0:
256,192,88794,1,0,0:0:0:0:
256,192,89129,1,0,0:0:0:0:
256,192,89297,1,8,0:0:0:0:
256,192,89465,1,0,0:0:0:0:
256,192,89800,1,8,0:0:0:0:
256,192,90135,1,0,0:0:0:0:
256,192,90470,1,8,0:0:0:0:
256,192,90805,1,8,0:0:0:0:
256,192,90973,1,0,0:0:0:0:
256,192,91140,1,8,0:0:0:0:
256,192,91476,1,8,0:0:0:0:
256,192,91811,1,8,0:0:0:0:
256,192,91978,1,8,0:0:0:0:
256,192,92146,1,0,0:0:0:0:
256,192,92649,1,8,0:0:0:0:
256,192,92816,1,0,0:0:0:0:
256,192,92984,1,0,0:0:0:0:
256,192,93151,1,8,0:0:0:0:
256,192,93318,1,0,0:0:0:0:
256,192,93486,1,0,0:0:0:0:
256,192,93570,1,0,0:0:0:0:
256,192,93654,1,0,0:0:0:0:
256,192,93821,1,8,0:0:0:0:
256,192,94156,1,4,0:0:0:0:
