osu file format v14

[General]
AudioFilename: audio.mp3
AudioLeadIn: 0
PreviewTime: 20010
Countdown: 0
SampleSet: Normal
StackLeniency: 0.7
Mode: 1
LetterboxInBreaks: 0
WidescreenStoryboard: 0

[Editor]
DistanceSpacing: 1
BeatDivisor: 6
GridSize: 32
TimelineZoom: 3.599999

[Metadata]
Title:Champion Adeku
TitleUnicode:チャンピオン アデク
Artist:Kageyama Shota
ArtistUnicode:景山将太
Creator:Zedther
Version:Oni
Source:ポケットモンスター ブラック・ホワイト
Tags:Alder Pokemon Pokémon Black White nds Game Freak Video Instrumental nintendo ost original soundtrack pocket monster super music collection bw
BeatmapID:2325363
BeatmapSetID:1113104

[Difficulty]
HPDrainRate:5
CircleSize:5
OverallDifficulty:6
ApproachRate:5
SliderMultiplier:1.4
SliderTickRate:1

[Events]
//Background and Video events
0,0,"volcarona.png",0,-70
//Break Periods
//Storyboard Layer 0 (Background)
//Storyboard Layer 1 (Fail)
//Storyboard Layer 2 (Pass)
//Storyboard Layer 3 (Foreground)
//Storyboard Layer 4 (Overlay)
//Storyboard Sound Samples

[TimingPoints]
692,303.030303030303,4,1,0,50,1,0
10351,-100,4,1,0,60,0,0
20085,-100,4,1,0,65,0,1
29782,-100,4,1,0,50,0,0
39441,-100,4,1,0,60,0,0
49176,-100,4,1,0,65,0,1
58873,-100,4,1,0,50,0,0

[HitObjects]
64,160,692,5,0,0:0:0:0:
128,128,995,1,0,0:0:0:0:
128,128,1298,1,8,0:0:0:0:
128,128,1449,1,0,0:0:0:0:
128,128,1601,1,0,0:0:0:0:
128,128,1752,1,8,0:0:0:0:
128,128,1904,1,0,0:0:0:0:
128,128,1979,1,8,0:0:0:0:
128,128,2055,1,8,0:0:0:0:
128,128,2207,1,0,0:0:0:0:
128,128,2510,1,8,0:0:0:0:
128,128,2585,1,0,0:0:0:0:
128,128,2661,1,8,0:0:0:0:
128,128,2813,1,0,0:0:0:0:
128,128,2964,1,8,0:0:0:0:
128,128,3116,1,0,0:0:0:0:
128,128,3419,1,0,0:0:0:0:
128,128,3570,1,0,0:0:0:0:
128,128,3722,1,8,0:0:0:0:
128,128,3873,1,0,0:0:0:0:
128,128,4025,1,0,0:0:0:0:
128,128,4101,1,0,0:0:0:0:
128,128,4176,1,8,0:0:0:0:
128,128,4328,1,0,0:0:0:0:
128,128,4631,1,0,0:0:0:0:
128,128,4782,1,0,0:0:0:0:
128,128,4934,1,0,0:0:0:0:
128,128,5010,1,8,0:0:0:0:
128,128,5085,1,0,0:0:0:0:
128,128,5237,1,8,0:0:0:0:
128,128,5388,1,8,0:0:0:0:
128,128,5540,1,0,0:0:0:0:
128,128,5843,1,0,0:0:0:0:
128,128,6146,1,8,0:0:0:0:
128,128,6298,1,0,0:0:0:0:
128,128,6449,1,0,0:0:0:0:
128,128,6601,1,8,0:0:0:0:
128,128,6752,1,0,0:0:0:0:
128,128,6828,1,8,0:0:0:0:
128,128,6904,1,8,0:0:0:0:
128,128,7055,1,0,0:0:0:0:
128,128,7358,1,8,0:0:0:0:
128,128,7434,1,8,0:0:0:0:
128,128,7510,1,0,0:0:0:0:
128,128,7661,1,0,0:0:0:0:
128,128,7813,1,8,0:0:0:0:
128,128,7964,1,0,0:0:0:0:
128,128,8267,1,0,0:0:0:0:
128,128,8419,1,0,0:0:0:0:
128,128,8570,1,8,0:0:0:0:
128,128,8722,1,0,0:0:0:0:
128,128,8873,1,0,0:0:0:0:
128,128,8949,1,0,0:0:0:0:
128,128,9025,1,8,0:0:0:0:
128,128,9176,1,4,0:0:0:0:
128,128,9479,1,4,0:0:0:0:
128,128,9782,1,12,0:0:0:0:
192,160,10085,1,8,0:0:0:0:
192,160,10237,1,8,0:0:0:0:
32,128,10388,5,4,0:0:0:0:
192,160,10692,1,0,0:0:0:0:
192,160,10843,1,0,0:0:0:0:
192,160,10919,1,0,0:0:0:0:
192,160,10995,1,8,0:0:0:0:
192,160,11146,1,0,0:0:0:0:
192,160,11298,1,0,0:0:0:0:
192,160,11449,1,8,0:0:0:0:
192,160,11601,1,0,0:0:0:0:
192,160,11676,1,8,0:0:0:0:
192,160,11752,1,8,0:0:0:0:
192,160,11904,1,8,0:0:0:0:
192,160,12055,1,0,0:0:0:0:
192,160,12207,1,8,0:0:0:0:
192,160,12282,1,0,0:0:0:0:
192,160,12358,1,8,0:0:0:0:
192,160,12510,1,0,0:0:0:0:
192,160,12661,1,8,0:0:0:0:
192,160,12813,1,0,0:0:0:0:
192,160,13116,1,8,0:0:0:0:
192,160,13267,1,0,0:0:0:0:
192,160,13343,1,0,0:0:0:0:
192,160,13419,1,8,0:0:0:0:
192,160,13570,1,0,0:0:0:0:
192,160,13722,1,8,0:0:0:0:
192,160,13798,1,8,0:0:0:0:
192,160,13873,1,0,0:0:0:0:
192,160,14025,1,0,0:0:0:0:
192,160,14328,1,0,0:0:0:0:
192,160,14479,1,8,0:0:0:0:
192,160,14631,1,0,0:0:0:0:
192,160,14707,1,8,0:0:0:0:
192,160,14782,1,0,0:0:0:0:
192,160,14934,1,0,0:0:0:0:
192,160,15085,1,8,0:0:0:0:
192,160,15237,1,4,0:0:0:0:
192,160,15540,1,0,0:0:0:0:
192,160,15691,1,0,0:0:0:0:
192,160,15843,1,8,0:0:0:0:
192,160,15919,1,8,0:0:0:0:
192,160,15995,1,0,0:0:0:0:
192,160,16146,1,8,0:0:0:0:
192,160,16298,1,0,0:0:0:0:
192,160,16449,1,0,0:0:0:0:
192,160,16525,1,8,0:0:0:0:
192,160,16601,1,8,0:0:0:0:
192,160,16752,1,8,0:0:0:0:
192,160,16904,1,0,0:0:0:0:
192,160,17055,1,8,0:0:0:0:
192,160,17131,1,0,0:0:0:0:
192,160,17207,1,8,0:0:0:0:
192,160,17358,1,0,0:0:0:0:
192,160,17510,1,8,0:0:0:0:
192,160,17661,1,0,0:0:0:0:
192,160,17964,1,8,0:0:0:0:
192,160,18116,1,0,0:0:0:0:
192,160,18192,1,0,0:0:0:0:
192,160,18267,1,8,0:0:0:0:
192,160,18419,1,8,0:0:0:0:
192,160,18495,1,8,0:0:0:0:
192,160,18570,1,0,0:0:0:0:
192,160,18722,1,8,0:0:0:0:
192,160,18873,1,4,0:0:0:0:
192,160,19176,1,4,0:0:0:0:
192,160,19479,1,12,0:0:0:0:
32,192,20085,5,12,0:0:0:0:
32,192,20388,1,0,0:0:0:0:
32,192,20540,1,0,0:0:0:0:
32,192,20692,1,8,0:0:0:0:
32,192,20793,1,8,0:0:0:0:
32,192,20894,1,8,0:0:0:0:
32,192,20995,1,0,0:0:0:0:
32,192,21146,1,8,0:0:0:0:
32,192,21298,1,0,0:0:0:0:
192,160,21449,1,0,0:0:0:0:
192,160,21525,1,0,0:0:0:0:
32,192,21601,1,8,0:0:0:0:
32,192,21752,1,8,0:0:0:0:
32,192,21904,1,0,0:0:0:0:
32,192,22207,1,0,0:0:0:0:
32,192,22358,1,8,0:0:0:0:
32,192,22510,1,8,0:0:0:0:
32,192,22813,1,0,0:0:0:0:
32,192,22964,1,0,0:0:0:0:
32,192,23116,1,8,0:0:0:0:
32,192,23217,1,8,0:0:0:0:
32,192,23318,1,0,0:0:0:0:
32,192,23419,1,8,0:0:0:0:
32,192,23570,1,8,0:0:0:0:
32,192,23722,1,0,0:0:0:0:
192,160,23873,1,0,0:0:0:0:
192,160,23949,1,0,0:0:0:0:
32,192,24025,1,0,0:0:0:0:
32,192,24176,1,8,0:0:0:0:
32,192,24328,1,0,0:0:0:0:
32,192,24631,1,0,0:0:0:0:
32,192,24782,1,0,0:0:0:0:
32,192,24934,1,12,0:0:0:0:
32,192,25237,1,0,0:0:0:0:
32,192,25388,1,8,0:0:0:0:
32,192,25540,1,0,0:0:0:0:
32,192,25641,1,8,0:0:0:0:
32,192,25742,1,0,0:0:0:0:
32,192,25843,1,0,0:0:0:0:
32,192,25995,1,8,0:0:0:0:
32,192,26146,1,0,0:0:0:0:
192,160,26298,1,0,0:0:0:0:
192,160,26373,1,0,0:0:0:0:
32,192,26449,1,0,0:0:0:0:
32,192,26601,1,0,0:0:0:0:
32,192,26752,1,8,0:0:0:0:
32,192,27055,1,8,0:0:0:0:
32,192,27358,1,0,0:0:0:0:
32,192,27434,1,8,0:0:0:0:
32,192,27510,1,0,0:0:0:0:
64,128,27661,1,0,0:0:0:0:
64,128,27813,1,0,0:0:0:0:
64,128,27964,1,8,0:0:0:0:
64,128,28040,1,8,0:0:0:0:
64,128,28116,1,0,0:0:0:0:
64,128,28267,1,0,0:0:0:0:
64,128,28419,1,8,0:0:0:0:
64,128,28570,1,0,0:0:0:0:
64,128,28646,1,8,0:0:0:0:
64,128,28722,1,8,0:0:0:0:
64,128,28873,1,0,0:0:0:0:
64,128,29025,1,0,0:0:0:0:
64,128,29176,1,8,0:0:0:0:
192,160,29252,1,8,0:0:0:0:
192,160,29328,1,0,0:0:0:0:
64,128,29479,1,8,0:0:0:0:
64,128,29782,1,4,0:0:0:0:
128,128,30085,1,0,0:0:0:0:
128,128,30237,1,0,0:0:0:0:
128,128,30388,1,8,0:0:0:0:
128,128,30540,1,0,0:0:0:0:
128,128,30616,1,0,0:0:0:0:
128,128,30691,1,0,0:0:0:0:
128,128,30843,1,8,0:0:0:0:
128,128,30995,1,0,0:0:0:0:
128,128,31070,1,8,0:0:0:0:
128,128,31146,1,8,0:0:0:0:
128,128,31298,1,0,0:0:0:0:
128,128,31449,1,0,0:0:0:0:
128,128,31601,1,8,0:0:0:0:
128,128,31676,1,0,0:0:0:0:
128,128,31752,1,8,0:0:0:0:
128,128,31904,1,0,0:0:0:0:
128,128,32055,1,8,0:0:0:0:
128,128,32207,1,0,0:0:0:0:
128,128,32510,1,0,0:0:0:0:
128,128,32661,1,0,0:0:0:0:
192,160,32737,1,0,0:0:0:0:
128,128,32813,1,8,0:0:0:0:
128,128,32964,1,0,0:0:0:0:
128,128,33116,1,8,0:0:0:0:
128,128,33192,1,8,0:0:0:0:
128,128,33267,1,0,0:0:0:0:
128,128,33419,1,0,0:0:0:0:
128,128,33722,1,0,0:0:0:0:
128,128,33873,1,0,0:0:0:0:
128,128,34025,1,0,0:0:0:0:
128,128,34101,1,8,0:0:0:0:
128,128,34176,1,0,0:0:0:0:
128,128,34328,1,0,0:0:0:0:
128,128,34479,1,8,0:0:0:0:
128,128,34631,1,0,0:0:0:0:
128,128,34934,1,0,0:0:0:0:
128,128,35085,1,0,0:0:0:0:
128,128,35161,1,0,0:0:0:0:
128,128,35237,1,8,0:0:0:0:
128,128,35388,1,8,0:0:0:0:
128,128,35464,1,8,0:0:0:0:
192,160,35540,1,0,0:0:0:0:
128,128,35692,1,8,0:0:0:0:
128,128,35843,1,0,0:0:0:0:
128,128,35919,1,8,0:0:0:0:
128,128,35995,1,8,0:0:0:0:
128,128,36146,1,0,0:0:0:0:
128,128,36298,1,0,0:0:0:0:
128,128,36449,1,8,0:0:0:0:
128,128,36525,1,8,0:0:0:0:
128,128,36601,1,0,0:0:0:0:
128,128,36752,1,0,0:0:0:0:
128,128,36904,1,8,0:0:0:0:
128,128,37055,1,0,0:0:0:0:
128,128,37358,1,0,0:0:0:0:
128,128,37510,1,0,0:0:0:0:
128,128,37585,1,0,0:0:0:0:
128,128,37661,1,8,0:0:0:0:
128,128,37813,1,8,0:0:0:0:
128,128,37888,1,8,0:0:0:0:
128,128,37964,1,0,0:0:0:0:
128,128,38116,1,8,0:0:0:0:
128,128,38267,1,4,0:0:0:0:
128,128,38570,1,4,0:0:0:0:
128,128,38873,1,12,0:0:0:0:
192,160,39176,1,8,0:0:0:0:
192,160,39328,1,8,0:0:0:0:
192,160,39404,1,8,0:0:0:0:
32,128,39479,5,4,0:0:0:0:
192,160,39782,1,0,0:0:0:0:
192,160,39934,1,0,0:0:0:0:
192,160,40010,1,0,0:0:0:0:
192,160,40085,1,8,0:0:0:0:
192,160,40237,1,8,0:0:0:0:
192,160,40388,1,0,0:0:0:0:
192,160,40540,1,8,0:0:0:0:
192,160,40692,1,0,0:0:0:0:
192,160,40767,1,8,0:0:0:0:
192,160,40843,1,8,0:0:0:0:
192,160,40919,1,0,0:0:0:0:
192,160,40995,1,8,0:0:0:0:
192,160,41146,1,0,0:0:0:0:
192,160,41298,1,8,0:0:0:0:
192,160,41373,1,0,0:0:0:0:
192,160,41449,1,8,0:0:0:0:
192,160,41601,1,0,0:0:0:0:
192,160,41752,1,8,0:0:0:0:
192,160,41828,1,8,0:0:0:0:
192,160,41904,1,0,0:0:0:0:
192,160,42207,1,8,0:0:0:0:
192,160,42358,1,0,0:0:0:0:
192,160,42434,1,0,0:0:0:0:
192,160,42510,1,8,0:0:0:0:
192,160,42661,1,0,0:0:0:0:
192,160,42813,1,8,0:0:0:0:
192,160,42888,1,8,0:0:0:0:
192,160,42964,1,0,0:0:0:0:
192,160,43116,1,0,0:0:0:0:
192,160,43191,1,8,0:0:0:0:
192,160,43267,1,0,0:0:0:0:
192,160,43343,1,0,0:0:0:0:
192,160,43419,1,8,0:0:0:0:
192,160,43570,1,0,0:0:0:0:
192,160,43722,1,8,0:0:0:0:
192,160,43798,1,8,0:0:0:0:
192,160,43873,1,0,0:0:0:0:
192,160,43949,1,0,0:0:0:0:
192,160,44025,1,8,0:0:0:0:
192,160,44176,1,8,0:0:0:0:
192,160,44328,1,4,0:0:0:0:
192,160,44631,1,0,0:0:0:0:
192,160,44782,1,0,0:0:0:0:
192,160,44858,1,0,0:0:0:0:
192,160,44934,1,8,0:0:0:0:
192,160,45085,1,8,0:0:0:0:
192,160,45161,1,8,0:0:0:0:
192,160,45237,1,0,0:0:0:0:
192,160,45388,1,8,0:0:0:0:
192,160,45540,1,0,0:0:0:0:
192,160,45616,1,8,0:0:0:0:
192,160,45691,1,8,0:0:0:0:
192,160,45843,1,8,0:0:0:0:
192,160,45995,1,0,0:0:0:0:
192,160,46146,1,8,0:0:0:0:
192,160,46222,1,0,0:0:0:0:
192,160,46298,1,8,0:0:0:0:
192,160,46373,1,8,0:0:0:0:
192,160,46449,1,0,0:0:0:0:
192,160,46601,1,8,0:0:0:0:
192,160,46752,1,0,0:0:0:0:
192,160,47055,1,8,0:0:0:0:
192,160,47207,1,0,0:0:0:0:
192,160,47358,1,0,0:0:0:0:
192,160,47434,1,8,0:0:0:0:
192,160,47510,1,0,0:0:0:0:
192,160,47585,1,0,0:0:0:0:
192,160,47661,1,8,0:0:0:0:
192,160,47813,1,8,0:0:0:0:
192,160,47964,1,4,0:0:0:0:
192,160,48267,1,4,0:0:0:0:
192,160,48570,1,12,0:0:0:0:
32,192,49176,5,12,0:0:0:0:
32,192,49479,1,0,0:0:0:0:
32,192,49631,1,0,0:0:0:0:
32,192,49782,1,8,0:0:0:0:
32,192,49883,1,0,0:0:0:0:
32,192,49984,1,8,0:0:0:0:
32,192,50085,1,0,0:0:0:0:
32,192,50237,1,8,0:0:0:0:
192,160,50313,1,0,0:0:0:0:
192,160,50388,1,0,0:0:0:0:
192,160,50540,1,0,0:0:0:0:
192,160,50616,1,0,0:0:0:0:
32,192,50691,1,8,0:0:0:0:
32,192,50843,1,8,0:0:0:0:
32,192,50995,1,0,0:0:0:0:
32,192,51298,1,0,0:0:0:0:
32,192,51449,1,8,0:0:0:0:
192,160,51525,1,0,0:0:0:0:
32,192,51601,1,8,0:0:0:0:
32,192,51904,1,0,0:0:0:0:
32,192,52055,1,0,0:0:0:0:
32,192,52207,1,0,0:0:0:0:
32,192,52308,1,8,0:0:0:0:
32,192,52409,1,0,0:0:0:0:
32,192,52510,1,8,0:0:0:0:
32,192,52661,1,8,0:0:0:0:
32,192,52737,1,0,0:0:0:0:
192,160,52813,1,0,0:0:0:0:
192,160,52964,1,8,0:0:0:0:
192,160,53040,1,8,0:0:0:0:
32,192,53116,1,0,0:0:0:0:
32,192,53267,1,8,0:0:0:0:
32,192,53419,1,0,0:0:0:0:
32,192,53722,1,0,0:0:0:0:
32,192,53873,1,0,0:0:0:0:
32,192,53949,1,0,0:0:0:0:
32,192,54025,1,12,0:0:0:0:
32,192,54328,1,0,0:0:0:0:
32,192,54479,1,8,0:0:0:0:
32,192,54631,1,0,0:0:0:0:
32,192,54732,1,8,0:0:0:0:
32,192,54833,1,0,0:0:0:0:
32,192,54934,1,0,0:0:0:0:
32,192,55085,1,8,0:0:0:0:
32,192,55237,1,0,0:0:0:0:
32,192,55313,1,0,0:0:0:0:
32,192,55388,1,0,0:0:0:0:
32,192,55540,1,0,0:0:0:0:
32,192,55691,1,0,0:0:0:0:
32,192,55843,1,8,0:0:0:0:
32,192,56146,1,8,0:0:0:0:
32,192,56449,1,0,0:0:0:0:
32,192,56525,1,8,0:0:0:0:
32,192,56601,1,0,0:0:0:0:
64,128,56752,1,0,0:0:0:0:
64,128,56904,1,0,0:0:0:0:
64,128,57055,1,8,0:0:0:0:
64,128,57131,1,8,0:0:0:0:
64,128,57207,1,0,0:0:0:0:
64,128,57358,1,0,0:0:0:0:
64,128,57510,1,8,0:0:0:0:
64,128,57661,1,0,0:0:0:0:
32,192,57737,1,8,0:0:0:0:
32,192,57813,1,0,0:0:0:0:
64,128,57964,1,0,0:0:0:0:
64,128,58116,1,0,0:0:0:0:
64,128,58267,1,8,0:0:0:0:
32,192,58343,1,8,0:0:0:0:
32,192,58419,1,0,0:0:0:0:
32,192,58495,1,0,0:0:0:0:
64,128,58570,1,8,0:0:0:0:
64,128,58873,1,4,0:0:0:0:
