osu file format v14

[General]
AudioFilename: audio.mp3
AudioLeadIn: 0
PreviewTime: 20010
Countdown: 0
SampleSet: Normal
StackLeniency: 0.7
Mode: 1
LetterboxInBreaks: 0
WidescreenStoryboard: 1

[Editor]
Bookmarks: 39479
DistanceSpacing: 1
BeatDivisor: 4
GridSize: 32
TimelineZoom: 2.9

[Metadata]
Title:Champion Adeku
TitleUnicode:チャンピオン アデク
Artist:Kageyama Shota
ArtistUnicode:景山将太
Creator:Zedther
Version:Muzukashii
Source:ポケットモンスター ブラック・ホワイト
Tags:Alder Pokemon Pokémon Black White nds Game Freak Video Instrumental nintendo ost original soundtrack pocket monster super music collection bw
BeatmapID:2325460
BeatmapSetID:1113104

[Difficulty]
HPDrainRate:6
CircleSize:5
OverallDifficulty:5
ApproachRate:5
SliderMultiplier:1.4
SliderTickRate:1

[Events]
//Background and Video events
0,0,"volcarona.png",0,-70
//Break Periods
//Storyboard Layer 0 (Background)
//Storyboard Layer 1 (Fail)
//Storyboard Layer 2 (Pass)
//Storyboard Layer 3 (Foreground)
//Storyboard Layer 4 (Overlay)
//Storyboard Sound Samples

[TimingPoints]
692,303.030303030303,4,1,0,50,1,0
10351,-100,4,1,0,60,0,0
20085,-100,4,1,0,65,0,1
29782,-100,4,1,0,50,0,0
39441,-100,4,1,0,60,0,0
49176,-100,4,1,0,65,0,1
58873,-100,4,1,0,50,0,0

[HitObjects]
96,160,692,5,0,0:0:0:0:
96,160,1298,1,8,0:0:0:0:
96,160,1601,1,0,0:0:0:0:
96,160,1752,1,8,0:0:0:0:
96,160,1904,1,8,0:0:0:0:
96,160,1979,1,8,0:0:0:0:
96,160,2055,1,8,0:0:0:0:
96,160,2207,1,0,0:0:0:0:
96,160,2510,1,8,0:0:0:0:
96,160,2585,1,8,0:0:0:0:
96,160,2661,1,8,0:0:0:0:
96,160,2813,1,0,0:0:0:0:
96,160,2964,1,8,0:0:0:0:
96,160,3116,1,0,0:0:0:0:
96,160,3419,1,8,0:0:0:0:
96,160,3570,1,8,0:0:0:0:
96,160,3722,1,0,0:0:0:0:
96,160,4025,1,8,0:0:0:0:
96,160,4328,1,0,0:0:0:0:
96,160,4934,1,0,0:0:0:0:
96,160,5010,1,0,0:0:0:0:
96,160,5085,1,0,0:0:0:0:
96,160,5237,1,8,0:0:0:0:
96,160,5388,1,8,0:0:0:0:
96,160,5540,1,0,0:0:0:0:
96,160,6146,1,8,0:0:0:0:
96,160,6449,1,0,0:0:0:0:
96,160,6601,1,8,0:0:0:0:
96,160,6752,1,8,0:0:0:0:
96,160,6828,1,8,0:0:0:0:
96,160,6904,1,8,0:0:0:0:
96,160,7055,1,0,0:0:0:0:
96,160,7358,1,8,0:0:0:0:
96,160,7434,1,8,0:0:0:0:
96,160,7510,1,8,0:0:0:0:
96,160,7661,1,0,0:0:0:0:
96,160,7813,1,8,0:0:0:0:
96,160,7964,1,0,0:0:0:0:
96,160,8267,1,0,0:0:0:0:
96,160,8419,1,0,0:0:0:0:
96,160,8570,1,8,0:0:0:0:
96,160,8873,1,0,0:0:0:0:
96,160,9025,1,8,0:0:0:0:
96,160,9176,1,4,0:0:0:0:
96,160,9479,1,4,0:0:0:0:
96,160,9782,1,12,0:0:0:0:
96,160,10388,5,4,0:0:0:0:
96,160,10995,1,8,0:0:0:0:
96,160,11298,1,8,0:0:0:0:
96,160,11449,1,0,0:0:0:0:
96,160,11601,1,8,0:0:0:0:
96,160,11676,1,8,0:0:0:0:
96,160,11752,1,8,0:0:0:0:
96,160,11904,1,0,0:0:0:0:
96,160,12207,1,0,0:0:0:0:
96,160,12282,1,0,0:0:0:0:
96,160,12358,1,0,0:0:0:0:
96,160,12510,1,0,0:0:0:0:
96,160,12661,1,8,0:0:0:0:
96,160,12813,1,0,0:0:0:0:
96,160,13116,1,0,0:0:0:0:
96,160,13419,1,8,0:0:0:0:
96,160,13570,1,0,0:0:0:0:
96,160,13722,1,8,0:0:0:0:
96,160,13798,1,8,0:0:0:0:
96,160,13873,1,8,0:0:0:0:
96,160,14025,1,0,0:0:0:0:
96,160,14631,1,0,0:0:0:0:
96,160,14707,1,0,0:0:0:0:
96,160,14782,1,0,0:0:0:0:
96,160,14934,1,8,0:0:0:0:
96,160,15085,1,8,0:0:0:0:
96,160,15237,1,4,0:0:0:0:
96,160,15540,1,0,0:0:0:0:
96,160,15843,1,8,0:0:0:0:
96,160,15995,1,0,0:0:0:0:
96,160,16070,1,0,0:0:0:0:
96,160,16146,1,0,0:0:0:0:
96,160,16298,1,8,0:0:0:0:
96,160,16449,1,8,0:0:0:0:
96,160,16525,1,8,0:0:0:0:
96,160,16601,1,8,0:0:0:0:
96,160,16752,1,0,0:0:0:0:
96,160,17055,1,0,0:0:0:0:
96,160,17131,1,0,0:0:0:0:
96,160,17207,1,0,0:0:0:0:
96,160,17358,1,0,0:0:0:0:
96,160,17510,1,8,0:0:0:0:
96,160,17661,1,0,0:0:0:0:
96,160,18116,1,0,0:0:0:0:
96,160,18267,1,8,0:0:0:0:
96,160,18419,1,0,0:0:0:0:
96,160,18495,1,0,0:0:0:0:
96,160,18570,1,0,0:0:0:0:
96,160,18722,1,8,0:0:0:0:
96,160,18873,1,4,0:0:0:0:
96,160,19176,1,4,0:0:0:0:
96,160,19479,1,12,0:0:0:0:
96,160,20085,1,12,0:0:0:0:
96,160,20692,1,0,0:0:0:0:
96,160,20793,1,8,0:0:0:0:
96,160,20894,1,8,0:0:0:0:
96,160,20995,1,0,0:0:0:0:
96,160,21146,1,0,0:0:0:0:
96,160,21298,1,8,0:0:0:0:
96,160,21601,1,8,0:0:0:0:
96,160,21904,1,0,0:0:0:0:
96,160,22207,1,0,0:0:0:0:
96,160,22358,1,8,0:0:0:0:
96,160,22510,1,8,0:0:0:0:
96,160,23116,1,8,0:0:0:0:
96,160,23217,1,0,0:0:0:0:
96,160,23318,1,0,0:0:0:0:
96,160,23419,1,8,0:0:0:0:
96,160,23570,1,8,0:0:0:0:
96,160,23722,1,0,0:0:0:0:
96,160,24025,1,0,0:0:0:0:
96,160,24328,1,0,0:0:0:0:
96,160,24631,1,0,0:0:0:0:
96,160,24782,1,0,0:0:0:0:
96,160,24934,1,12,0:0:0:0:
96,160,25540,1,8,0:0:0:0:
96,160,25641,1,0,0:0:0:0:
96,160,25742,1,0,0:0:0:0:
96,160,25843,1,0,0:0:0:0:
96,160,25995,1,8,0:0:0:0:
96,160,26146,1,0,0:0:0:0:
96,160,26449,1,0,0:0:0:0:
96,160,26752,1,8,0:0:0:0:
96,160,27055,1,8,0:0:0:0:
96,160,27358,1,0,0:0:0:0:
96,160,27964,1,0,0:0:0:0:
96,160,28040,1,0,0:0:0:0:
96,160,28116,1,0,0:0:0:0:
96,160,28267,1,0,0:0:0:0:
96,160,28419,1,8,0:0:0:0:
96,160,28570,1,0,0:0:0:0:
96,160,28873,1,0,0:0:0:0:
96,160,29025,1,0,0:0:0:0:
96,160,29176,1,8,0:0:0:0:
96,160,29479,1,8,0:0:0:0:
96,160,29782,5,4,0:0:0:0:
96,160,30388,1,8,0:0:0:0:
96,160,30540,1,8,0:0:0:0:
96,160,30691,1,0,0:0:0:0:
96,160,30843,1,8,0:0:0:0:
96,160,30995,1,8,0:0:0:0:
96,160,31070,1,8,0:0:0:0:
96,160,31146,1,8,0:0:0:0:
96,160,31298,1,0,0:0:0:0:
96,160,31601,1,8,0:0:0:0:
96,160,31676,1,8,0:0:0:0:
96,160,31752,1,8,0:0:0:0:
96,160,31904,1,0,0:0:0:0:
96,160,32055,1,8,0:0:0:0:
96,160,32207,1,0,0:0:0:0:
96,160,32510,1,0,0:0:0:0:
96,160,32813,1,8,0:0:0:0:
96,160,32964,1,0,0:0:0:0:
96,160,33040,1,0,0:0:0:0:
96,160,33116,1,0,0:0:0:0:
96,160,33267,1,8,0:0:0:0:
96,160,33419,1,0,0:0:0:0:
96,160,33722,1,0,0:0:0:0:
96,160,33873,1,0,0:0:0:0:
96,160,34025,1,8,0:0:0:0:
96,160,34101,1,8,0:0:0:0:
96,160,34176,1,8,0:0:0:0:
96,160,34328,1,0,0:0:0:0:
96,160,34479,1,8,0:0:0:0:
96,160,34631,1,0,0:0:0:0:
96,160,35085,1,0,0:0:0:0:
96,160,35237,1,8,0:0:0:0:
96,160,35388,1,8,0:0:0:0:
96,160,35540,1,0,0:0:0:0:
96,160,35692,1,8,0:0:0:0:
96,160,35843,1,8,0:0:0:0:
96,160,35919,1,8,0:0:0:0:
96,160,35995,1,8,0:0:0:0:
96,160,36146,1,0,0:0:0:0:
96,160,36449,1,8,0:0:0:0:
96,160,36525,1,8,0:0:0:0:
96,160,36601,1,8,0:0:0:0:
96,160,36752,1,8,0:0:0:0:
96,160,36904,1,8,0:0:0:0:
96,160,37055,1,0,0:0:0:0:
96,160,37358,1,0,0:0:0:0:
96,160,37510,1,0,0:0:0:0:
96,160,37661,1,8,0:0:0:0:
96,160,37813,1,0,0:0:0:0:
96,160,37888,1,0,0:0:0:0:
96,160,37964,1,0,0:0:0:0:
96,160,38116,1,8,0:0:0:0:
96,160,38267,1,4,0:0:0:0:
96,160,38570,1,4,0:0:0:0:
96,160,38873,1,12,0:0:0:0:
96,160,39479,5,4,0:0:0:0:
96,160,39934,1,0,0:0:0:0:
96,160,40085,1,8,0:0:0:0:
96,160,40237,1,8,0:0:0:0:
96,160,40388,1,0,0:0:0:0:
96,160,40464,1,0,0:0:0:0:
96,160,40540,1,0,0:0:0:0:
96,160,40692,1,8,0:0:0:0:
96,160,40767,1,8,0:0:0:0:
96,160,40843,1,8,0:0:0:0:
96,160,40995,1,0,0:0:0:0:
96,160,41298,1,0,0:0:0:0:
96,160,41373,1,0,0:0:0:0:
96,160,41449,1,0,0:0:0:0:
96,160,41601,1,0,0:0:0:0:
96,160,41752,1,8,0:0:0:0:
96,160,41904,1,0,0:0:0:0:
96,160,42207,1,8,0:0:0:0:
96,160,42358,1,0,0:0:0:0:
96,160,42434,1,0,0:0:0:0:
96,160,42510,1,0,0:0:0:0:
96,160,42661,1,0,0:0:0:0:
96,160,42813,1,8,0:0:0:0:
96,160,42888,1,8,0:0:0:0:
96,160,42964,1,8,0:0:0:0:
96,160,43116,1,0,0:0:0:0:
96,160,43570,1,0,0:0:0:0:
96,160,43722,1,8,0:0:0:0:
96,160,43798,1,8,0:0:0:0:
96,160,43873,1,8,0:0:0:0:
96,160,44025,1,0,0:0:0:0:
96,160,44176,1,8,0:0:0:0:
96,160,44328,1,4,0:0:0:0:
96,160,44631,1,0,0:0:0:0:
96,160,44782,1,0,0:0:0:0:
96,160,44934,1,8,0:0:0:0:
96,160,45085,1,0,0:0:0:0:
96,160,45161,1,0,0:0:0:0:
96,160,45237,1,0,0:0:0:0:
96,160,45388,1,8,0:0:0:0:
96,160,45540,1,8,0:0:0:0:
96,160,45616,1,8,0:0:0:0:
96,160,45691,1,8,0:0:0:0:
96,160,45843,1,0,0:0:0:0:
96,160,46146,1,8,0:0:0:0:
96,160,46222,1,8,0:0:0:0:
96,160,46298,1,8,0:0:0:0:
96,160,46449,1,0,0:0:0:0:
96,160,46601,1,8,0:0:0:0:
96,160,46752,1,0,0:0:0:0:
96,160,47055,1,0,0:0:0:0:
96,160,47207,1,0,0:0:0:0:
96,160,47358,1,8,0:0:0:0:
96,160,47510,1,0,0:0:0:0:
96,160,47585,1,0,0:0:0:0:
96,160,47661,1,0,0:0:0:0:
96,160,47813,1,8,0:0:0:0:
96,160,47964,1,4,0:0:0:0:
96,160,48267,1,4,0:0:0:0:
96,160,48570,1,12,0:0:0:0:
96,160,49176,5,12,0:0:0:0:
96,160,49782,1,0,0:0:0:0:
96,160,49883,1,8,0:0:0:0:
96,160,49984,1,8,0:0:0:0:
96,160,50085,1,0,0:0:0:0:
96,160,50237,1,0,0:0:0:0:
96,160,50388,1,8,0:0:0:0:
96,160,50540,1,8,0:0:0:0:
96,160,50691,1,0,0:0:0:0:
96,160,50995,1,0,0:0:0:0:
96,160,51298,1,0,0:0:0:0:
96,160,51449,1,8,0:0:0:0:
96,160,51601,1,8,0:0:0:0:
96,160,52207,1,8,0:0:0:0:
96,160,52308,1,0,0:0:0:0:
96,160,52409,1,0,0:0:0:0:
96,160,52510,1,8,0:0:0:0:
96,160,52661,1,8,0:0:0:0:
96,160,52813,1,0,0:0:0:0:
96,160,53116,1,0,0:0:0:0:
96,160,53267,1,8,0:0:0:0:
96,160,53419,1,0,0:0:0:0:
96,160,53722,1,0,0:0:0:0:
96,160,53873,1,0,0:0:0:0:
96,160,54025,1,12,0:0:0:0:
96,160,54631,1,8,0:0:0:0:
96,160,54732,1,0,0:0:0:0:
96,160,54833,1,0,0:0:0:0:
96,160,54934,1,0,0:0:0:0:
96,160,55085,1,8,0:0:0:0:
96,160,55237,1,0,0:0:0:0:
96,160,55540,1,0,0:0:0:0:
96,160,55691,1,0,0:0:0:0:
96,160,55843,1,8,0:0:0:0:
96,160,56146,1,8,0:0:0:0:
96,160,56298,1,8,0:0:0:0:
96,160,56449,1,0,0:0:0:0:
96,160,56752,1,0,0:0:0:0:
96,160,57055,1,8,0:0:0:0:
96,160,57131,1,8,0:0:0:0:
96,160,57207,1,8,0:0:0:0:
96,160,57358,1,0,0:0:0:0:
96,160,57510,1,8,0:0:0:0:
96,160,57661,1,0,0:0:0:0:
96,160,57964,1,0,0:0:0:0:
96,160,58116,1,0,0:0:0:0:
96,160,58267,1,8,0:0:0:0:
96,160,58343,1,8,0:0:0:0:
96,160,58419,1,8,0:0:0:0:
96,160,58570,1,8,0:0:0:0:
96,160,58873,1,4,0:0:0:0:
