osu file format v14

[General]
AudioFilename: audio.mp3
AudioLeadIn: 0
PreviewTime: 20010
Countdown: 0
SampleSet: Normal
StackLeniency: 0.7
Mode: 1
LetterboxInBreaks: 0
WidescreenStoryboard: 1

[Editor]
Bookmarks: 39479
DistanceSpacing: 1
BeatDivisor: 4
GridSize: 32
TimelineZoom: 2.9

[Metadata]
Title:Champion Adeku
TitleUnicode:チャンピオン アデク
Artist:Kageyama Shota
ArtistUnicode:景山将太
Creator:Zedther
Version:Futsuu
Source:ポケットモンスター ブラック・ホワイト
Tags:Alder Pokemon Pokémon Black White nds Game Freak Video Instrumental nintendo ost original soundtrack pocket monster super music collection bw
BeatmapID:2325459
BeatmapSetID:1113104

[Difficulty]
HPDrainRate:7
CircleSize:5
OverallDifficulty:4
ApproachRate:5
SliderMultiplier:1.4
SliderTickRate:1

[Events]
//Background and Video events
0,0,"volcarona.png",0,-70
//Break Periods
//Storyboard Layer 0 (Background)
//Storyboard Layer 1 (Fail)
//Storyboard Layer 2 (Pass)
//Storyboard Layer 3 (Foreground)
//Storyboard Layer 4 (Overlay)
//Storyboard Sound Samples

[TimingPoints]
692,303.030303030303,4,1,0,50,1,0
10351,-100,4,1,0,60,0,0
20085,-100,4,1,0,65,0,1
29782,-100,4,1,0,50,0,0
39441,-100,4,1,0,60,0,0
49176,-100,4,1,0,65,0,1
58873,-100,4,1,0,50,0,0

[HitObjects]
96,128,692,5,0,0:0:0:0:
96,128,1298,1,8,0:0:0:0:
96,128,1601,1,0,0:0:0:0:
96,128,1752,1,0,0:0:0:0:
96,128,1904,1,8,0:0:0:0:
96,128,2510,1,8,0:0:0:0:
96,128,2813,1,8,0:0:0:0:
96,128,2964,1,8,0:0:0:0:
96,128,3116,1,0,0:0:0:0:
96,128,3722,1,0,0:0:0:0:
96,128,4025,1,8,0:0:0:0:
96,128,4328,1,0,0:0:0:0:
96,128,4934,1,8,0:0:0:0:
96,128,5237,1,8,0:0:0:0:
96,128,5388,1,0,0:0:0:0:
96,128,5540,1,0,0:0:0:0:
96,128,6146,1,8,0:0:0:0:
96,128,6449,1,0,0:0:0:0:
96,128,6601,1,0,0:0:0:0:
96,128,6752,1,8,0:0:0:0:
96,128,7358,1,8,0:0:0:0:
96,128,7661,1,0,0:0:0:0:
96,128,7813,1,8,0:0:0:0:
96,128,7964,1,0,0:0:0:0:
96,128,8570,1,8,0:0:0:0:
96,128,8873,1,8,0:0:0:0:
96,128,9025,1,8,0:0:0:0:
96,128,9176,5,4,0:0:0:0:
96,128,9479,1,4,0:0:0:0:
96,128,9782,1,12,0:0:0:0:
96,128,10388,5,4,0:0:0:0:
96,128,10995,1,8,0:0:0:0:
96,128,11146,1,0,0:0:0:0:
96,128,11298,1,8,0:0:0:0:
96,128,11449,1,8,0:0:0:0:
96,128,11601,1,0,0:0:0:0:
96,64,11904,1,0,0:0:0:0:
96,128,12207,1,8,0:0:0:0:
96,128,12358,1,8,0:0:0:0:
96,128,12510,1,0,0:0:0:0:
96,128,12661,1,8,0:0:0:0:
96,128,12813,1,0,0:0:0:0:
96,128,13419,1,0,0:0:0:0:
96,128,13722,1,8,0:0:0:0:
96,128,14025,1,0,0:0:0:0:
96,128,14631,1,8,0:0:0:0:
96,128,14782,1,0,0:0:0:0:
96,128,14934,1,0,0:0:0:0:
96,128,15085,1,8,0:0:0:0:
96,128,15237,1,4,0:0:0:0:
96,64,15540,1,0,0:0:0:0:
96,128,15843,1,8,0:0:0:0:
96,128,15995,1,8,0:0:0:0:
96,128,16146,1,0,0:0:0:0:
96,128,16298,1,0,0:0:0:0:
96,128,16449,1,8,0:0:0:0:
96,128,16752,1,0,0:0:0:0:
96,128,17055,1,0,0:0:0:0:
96,128,17207,1,8,0:0:0:0:
96,128,17358,1,8,0:0:0:0:
96,128,17510,1,0,0:0:0:0:
96,128,17661,1,8,0:0:0:0:
96,128,18267,1,8,0:0:0:0:
96,128,18419,1,8,0:0:0:0:
96,128,18570,1,0,0:0:0:0:
96,128,18722,1,8,0:0:0:0:
96,128,18873,5,4,0:0:0:0:
96,128,19176,1,4,0:0:0:0:
96,128,19479,1,12,0:0:0:0:
128,96,20085,5,12,0:0:0:0:
96,128,20692,1,0,0:0:0:0:
96,128,20995,1,0,0:0:0:0:
96,128,21146,1,8,0:0:0:0:
96,128,21298,1,0,0:0:0:0:
96,128,21601,1,8,0:0:0:0:
96,128,21904,1,0,0:0:0:0:
96,128,22207,1,0,0:0:0:0:
96,128,22358,1,8,0:0:0:0:
96,128,22510,1,8,0:0:0:0:
96,128,23116,1,8,0:0:0:0:
96,128,23419,1,8,0:0:0:0:
96,128,23570,1,0,0:0:0:0:
96,128,23722,1,8,0:0:0:0:
96,128,24025,1,8,0:0:0:0:
96,128,24328,1,0,0:0:0:0:
96,128,24631,1,0,0:0:0:0:
96,128,24782,1,0,0:0:0:0:
96,128,24934,1,12,0:0:0:0:
96,128,25540,1,0,0:0:0:0:
96,128,25843,1,8,0:0:0:0:
96,128,25995,1,0,0:0:0:0:
96,128,26146,1,0,0:0:0:0:
96,128,26449,1,0,0:0:0:0:
96,128,26752,1,8,0:0:0:0:
96,128,27055,1,8,0:0:0:0:
96,128,27358,1,0,0:0:0:0:
96,128,27964,1,8,0:0:0:0:
96,128,28116,1,8,0:0:0:0:
96,128,28267,1,0,0:0:0:0:
96,128,28419,1,8,0:0:0:0:
96,128,28570,1,0,0:0:0:0:
96,128,29176,1,8,0:0:0:0:
96,128,29479,1,8,0:0:0:0:
96,128,29782,5,4,0:0:0:0:
96,128,30388,1,8,0:0:0:0:
96,128,30691,1,0,0:0:0:0:
96,128,30843,1,0,0:0:0:0:
96,128,30995,1,8,0:0:0:0:
96,128,31298,1,0,0:0:0:0:
96,128,31601,1,8,0:0:0:0:
96,128,31904,1,8,0:0:0:0:
96,128,32055,1,8,0:0:0:0:
96,128,32207,1,0,0:0:0:0:
96,128,32510,1,8,0:0:0:0:
96,128,32813,1,0,0:0:0:0:
96,128,33116,1,8,0:0:0:0:
96,128,33267,1,8,0:0:0:0:
96,128,33419,1,0,0:0:0:0:
96,128,34025,1,8,0:0:0:0:
96,128,34328,1,8,0:0:0:0:
96,128,34479,1,0,0:0:0:0:
96,128,34631,1,0,0:0:0:0:
96,128,34934,1,0,0:0:0:0:
96,128,35237,1,8,0:0:0:0:
96,128,35540,1,8,0:0:0:0:
96,128,35692,1,0,0:0:0:0:
96,128,35843,1,8,0:0:0:0:
96,128,36449,1,8,0:0:0:0:
96,128,36752,1,0,0:0:0:0:
96,128,36904,1,8,0:0:0:0:
96,128,37055,1,0,0:0:0:0:
96,128,37358,1,0,0:0:0:0:
96,128,37661,1,8,0:0:0:0:
96,128,37964,1,8,0:0:0:0:
96,128,38116,1,8,0:0:0:0:
96,128,38267,5,4,0:0:0:0:
96,128,38570,1,4,0:0:0:0:
96,128,38873,1,12,0:0:0:0:
96,128,39479,5,4,0:0:0:0:
96,128,40085,1,0,0:0:0:0:
96,128,40237,1,8,0:0:0:0:
96,128,40388,1,0,0:0:0:0:
96,128,40540,1,0,0:0:0:0:
96,128,40692,1,8,0:0:0:0:
96,128,40995,1,0,0:0:0:0:
96,128,41298,1,8,0:0:0:0:
96,128,41449,1,0,0:0:0:0:
96,128,41601,1,0,0:0:0:0:
96,128,41752,1,8,0:0:0:0:
96,128,41904,1,0,0:0:0:0:
96,128,42207,1,0,0:0:0:0:
96,128,42358,1,0,0:0:0:0:
96,128,42510,1,8,0:0:0:0:
96,128,42813,1,8,0:0:0:0:
96,128,43116,1,0,0:0:0:0:
96,128,43419,1,0,0:0:0:0:
96,128,43722,1,8,0:0:0:0:
96,128,43873,1,8,0:0:0:0:
96,128,44025,1,0,0:0:0:0:
96,128,44176,1,8,0:0:0:0:
96,128,44328,1,4,0:0:0:0:
96,128,44934,1,8,0:0:0:0:
96,128,45085,1,0,0:0:0:0:
96,128,45237,1,0,0:0:0:0:
96,128,45388,1,8,0:0:0:0:
96,128,45540,1,8,0:0:0:0:
96,128,45843,1,0,0:0:0:0:
96,128,46146,1,0,0:0:0:0:
96,128,46298,1,8,0:0:0:0:
96,128,46449,1,8,0:0:0:0:
96,128,46601,1,0,0:0:0:0:
96,128,46752,1,8,0:0:0:0:
96,128,47055,1,0,0:0:0:0:
96,128,47358,1,8,0:0:0:0:
96,128,47510,1,0,0:0:0:0:
96,128,47661,1,8,0:0:0:0:
96,128,47813,1,8,0:0:0:0:
96,128,47964,1,4,0:0:0:0:
96,128,48267,1,4,0:0:0:0:
96,128,48570,1,12,0:0:0:0:
128,96,49176,5,12,0:0:0:0:
96,128,49782,1,0,0:0:0:0:
96,128,50085,1,0,0:0:0:0:
96,128,50237,1,8,0:0:0:0:
96,128,50388,1,0,0:0:0:0:
96,128,50691,1,8,0:0:0:0:
96,128,50843,1,8,0:0:0:0:
96,128,50995,1,0,0:0:0:0:
96,128,51298,1,0,0:0:0:0:
96,128,51449,1,8,0:0:0:0:
96,128,51601,1,8,0:0:0:0:
96,128,52207,1,8,0:0:0:0:
96,128,52510,1,8,0:0:0:0:
96,128,52661,1,8,0:0:0:0:
96,128,52813,1,0,0:0:0:0:
96,128,53116,1,0,0:0:0:0:
96,128,53267,1,8,0:0:0:0:
96,128,53419,1,0,0:0:0:0:
96,128,53722,1,0,0:0:0:0:
96,128,53873,1,0,0:0:0:0:
96,128,54025,1,12,0:0:0:0:
96,128,54631,1,0,0:0:0:0:
96,128,54934,1,8,0:0:0:0:
96,128,55085,1,0,0:0:0:0:
96,128,55237,1,0,0:0:0:0:
96,128,55540,1,0,0:0:0:0:
96,128,55691,1,0,0:0:0:0:
96,128,55843,1,8,0:0:0:0:
96,128,56146,1,8,0:0:0:0:
96,128,56298,1,8,0:0:0:0:
96,128,56449,1,0,0:0:0:0:
96,128,56752,1,0,0:0:0:0:
96,128,57055,1,8,0:0:0:0:
96,128,57207,1,8,0:0:0:0:
96,128,57358,1,0,0:0:0:0:
96,128,57510,1,8,0:0:0:0:
96,128,57661,1,0,0:0:0:0:
96,128,58267,1,8,0:0:0:0:
96,128,58570,1,8,0:0:0:0:
96,128,58873,1,4,0:0:0:0:
