osu file format v14

[General]
AudioFilename: audio.mp3
AudioLeadIn: 0
PreviewTime: 386
Countdown: 0
SampleSet: Soft
StackLeniency: 0.4
Mode: 0
LetterboxInBreaks: 0
WidescreenStoryboard: 1

[Editor]
Bookmarks: 782,17926,35067,35201,35335,35469,35603
DistanceSpacing: 1
BeatDivisor: 8
GridSize: 32
TimelineZoom: 1.9

[Metadata]
Title:Accumula Town
TitleUnicode:カラクサタウン
Artist:Kageyama Shota
ArtistUnicode:景山将太
Creator:Ermi
Version:Insane
Source:ポケットモンスターブラック・ホワイト
Tags:video game freak instrumental nintendo shouta pokémon pokemon pocket monsters black and white unova furret walking karakusa shizuku- kazato asa shikibe mayu ayesha altugle modding queue
BeatmapID:3568231
BeatmapSetID:1743949

[Difficulty]
HPDrainRate:5
CircleSize:4
OverallDifficulty:8
ApproachRate:9
SliderMultiplier:2.8
SliderTickRate:1

[Events]
//Background and Video events
0,0,"nicequalitylol.jpg",0,0
//Break Periods
//Storyboard Layer 0 (Background)
//Storyboard Layer 1 (Fail)
//Storyboard Layer 2 (Pass)
//Storyboard Layer 3 (Foreground)
//Storyboard Layer 4 (Overlay)
//Storyboard Sound Samples

[TimingPoints]
253,535.714285714286,4,2,1,60,1,0
520,-142.857142857143,4,2,1,35,0,0
788,535.714285714286,4,2,1,50,1,0
788,-90.9090909090909,4,2,1,50,0,0
6413,-181.818181818182,4,2,1,50,0,0
6948,-125,4,2,1,50,0,0
7216,-90.9090909090909,4,2,1,50,0,0
9091,-142.857142857143,4,2,1,35,0,0
9359,-90.9090909090909,4,2,1,50,0,0
14984,-181.818181818182,4,2,1,50,0,0
15788,-90.9090909090909,4,2,1,50,0,0
17930,-80,4,2,1,70,0,1
34805,-142.857142857143,4,2,1,70,0,1
35073,-100,4,2,1,70,0,0

[Colours]
Combo1 : 177,219,100
Combo2 : 198,138,94
Combo3 : 219,202,149

[HitObjects]
366,194,520,6,0,P|369:169|377:146,1,48.9999985046387,2|2,0:0|0:0,0:0:0:0:
285,189,788,5,4,1:2:0:0:
285,189,921,2,0,P|289:150|303:114,1,77.0000023498536,2|0,3:2|0:0,0:0:0:0:
191,216,1189,2,0,P|264:215|299:279,1,154.000004699707,2|0,1:2|3:0,0:0:0:0:
238,367,1591,2,0,P|199:370|163:384,1,77.0000023498536,2|0,1:2|0:0,0:0:0:0:
42,286,1859,5,2,1:2:0:0:
42,286,1993,1,0,3:0:0:0:
133,292,2127,5,2,1:2:0:0:
2,205,2395,5,2,1:2:0:0:
1,191,2663,5,2,3:2:0:0:
0,176,2930,6,0,P|62:136|132:160,1,154.000004699707,2|0,1:2|3:0,0:0:0:0:
80,32,3332,1,2,1:2:0:0:
80,32,3466,2,0,P|68:68|64:106,1,77.0000023498536,0|0,1:2|3:0,0:0:0:0:
213,129,3734,2,0,P|224:92|228:54,1,77.0000023498536,2|0,1:2|3:0,0:0:0:0:
234,46,3935,1,2,3:2:0:0:
243,42,4002,2,0,P|281:37|317:26,1,77.0000023498536,2|0,1:2|1:0,0:0:0:0:
347,166,4270,2,0,P|370:135|388:102,1,77.0000023498536,2|0,1:2|3:0,0:0:0:0:
508,180,4538,2,0,P|502:142|491:106,1,77.0000023498536,2|0,1:2|3:0,0:0:0:0:
428,11,4805,5,2,3:2:0:0:
398,259,5073,6,0,P|350:202|276:209,1,154.000004699707,2|0,1:2|3:0,0:0:0:0:
242,357,5475,5,2,1:2:0:0:
242,357,5609,2,0,P|237:319|228:282,1,77.0000023498536,0|0,1:2|0:0,0:0:0:0:
63,319,5877,6,0,P|88:249|159:230,1,154.000004699707,2|0,1:2|1:0,0:0:0:0:
159,230,6279,1,0,3:0:0:0:
253,355,6413,6,0,P|248:317|239:280,1,77.0000023498536,2|0,3:0|1:0,0:0:0:0:
231,293,6948,2,0,P|237:320|241:347,1,56,0|0,3:2|1:0,0:0:0:0:
479,384,7216,6,0,P|489:307|507:232,1,154.000004699707,2|0,1:2|3:0,0:0:0:0:
325,88,7618,5,2,1:2:0:0:
325,88,7752,2,0,P|363:93|400:102,1,77.0000023498536,0|0,3:2|0:0,0:0:0:0:
448,168,8020,6,0,P|437:91|419:16,1,154.000004699707,2|0,1:2|1:0,0:0:0:0:
512,224,8555,5,4,0:3:0:0:
317,95,8823,5,8,0:3:0:0:
406,379,9091,6,0,P|382:376|359:368,1,48.9999985046387,2|2,1:2|0:0,0:0:0:0:
441,303,9359,5,4,1:2:0:0:
441,303,9493,2,0,P|405:289|366:285,1,77.0000023498536,2|0,3:2|0:0,0:0:0:0:
273,297,9761,2,0,P|339:265|342:192,1,154.000004699707,2|0,1:2|3:0,0:0:0:0:
220,135,10163,2,0,P|187:153|173:188,1,77.0000023498536,2|0,1:2|0:0,0:0:0:0:
96,315,10430,5,2,1:2:0:0:
96,315,10564,1,0,3:2:0:0:
185,280,10698,5,2,1:2:0:0:
22,256,10966,5,2,1:2:0:0:
15,247,11234,6,0,P|9:208|0:171,1,77.0000023498536,2|0,1:2|3:2,0:0:0:0:
121,13,11502,6,0,P|100:87|89:163,1,154.000004699707,2|0,1:2|3:2,0:0:0:0:
199,69,11904,1,2,1:2:0:0:
199,69,12038,2,0,P|188:106|183:144,1,77.0000023498536,0|0,1:2|3:0,0:0:0:0:
101,251,12305,2,0,P|112:288|117:326,1,77.0000023498536,2|0,1:2|3:2,0:0:0:0:
124,332,12506,1,2,3:2:0:0:
132,337,12573,2,0,P|170:342|206:352,1,77.0000023498536,2|0,1:2|1:0,0:0:0:0:
254,258,12841,2,0,P|284:281|310:307,1,77.0000023498536,2|0,1:2|3:0,0:0:0:0:
399,250,13109,2,0,P|413:285|423:321,1,77.0000023498536,2|0,1:2|3:0,0:0:0:0:
512,384,13377,5,2,1:3:0:0:
348,144,13645,6,0,P|388:204|459:192,1,154.000004699707,2|0,1:2|3:2,0:0:0:0:
359,12,14046,5,2,1:2:0:0:
359,12,14180,2,0,P|322:22|284:28,1,77.0000023498536,0|0,1:2|0:0,0:0:0:0:
416,85,14448,6,0,P|342:106|266:118,1,154.000004699707,2|0,1:2|1:0,0:0:0:0:
265,118,14850,1,0,3:2:0:0:
358,0,14984,6,0,P|321:10|283:16,1,77.0000023498536,2|0,3:0|1:2,0:0:0:0:
199,60,15520,5,0,3:2:0:0:
134,0,15654,1,2,3:2:0:0:
134,0,15721,1,2,3:2:0:0:
134,0,15788,2,0,P|151:74|161:151,1,154.000004699707,2|0,1:2|3:2,0:0:0:0:
77,340,16189,5,2,1:2:0:0:
77,340,16323,2,0,P|82:301|90:264,1,77.0000023498536,0|0,1:2|0:0,0:0:0:0:
68,182,16591,6,0,P|140:177|175:242,1,154.000004699707,2|0,1:2|1:0,0:0:0:0:
277,332,16993,5,2,3:2:0:0:
277,332,17060,1,2,3:2:0:0:
277,332,17127,2,0,P|272:350|270:369,2,38.5000011749268,2|0|0,1:2|1:2|1:2,0:0:0:0:
349,279,17395,5,8,0:0:0:0:
182,327,17529,1,0,1:2:0:0:
182,327,17663,2,0,P|177:288|169:251,1,77.0000023498536,2|4,1:2|0:3,0:0:0:0:
416,183,17930,6,0,P|398:269|387:356,1,175,4|2,1:2|3:2,0:0:0:0:
511,241,18332,1,0,1:2:0:0:
485,333,18466,2,0,P|490:289|499:246,1,87.5,10|0,0:0|3:0,0:0:0:0:
264,84,18734,5,2,1:2:0:0:
453,85,18868,2,0,P|406:154|322:149,1,175,2|0,1:2|3:0,0:0:0:0:
184,151,19270,6,0,P|177:108|162:68,1,87.5,2|0,1:2|3:0,0:0:0:0:
84,191,19538,2,0,P|118:218|146:252,1,87.5,10|0,0:0|3:0,0:0:0:0:
163,358,19805,2,0,P|122:343|79:336,1,87.5,2|0,1:2|3:0,0:0:0:0:
15,263,20073,6,0,P|45:181|59:94,1,175,2|2,1:2|1:2,0:0:0:0:
241,0,20609,5,10,0:0:0:0:
241,0,20743,2,0,P|248:43|263:84,1,87.5,2|0,1:2|3:2,0:0:0:0:
425,127,21011,2,0,P|383:130|350:104,1,87.5,2|0,1:2|3:2,0:0:0:0:
143,201,21279,2,0,P|181:182|196:142,1,87.5,2|0,3:2|0:0,0:0:0:0:
312,268,21546,5,2,1:2:0:0:
312,268,21680,2,0,P|305:225|290:184,1,87.5,10|0,0:0|3:0,0:0:0:0:
392,336,21948,2,0,P|399:293|414:252,1,87.5,2|0,1:2|3:2,0:0:0:0:
512,384,22216,5,2,1:2:0:0:
512,384,22484,2,0,P|505:341|490:300,1,87.5,2|2,1:2|3:2,0:0:0:0:
298,188,22752,1,10,0:2:0:0:
414,252,22886,1,2,3:2:0:0:
301,319,23020,5,2,1:2:0:0:
301,319,23154,2,0,P|217:313|174:240,1,175,2|2,1:2|3:2,0:0:0:0:
120,383,23555,2,0,P|159:366|175:327,1,87.5,2|2,1:2|3:2,0:0:0:0:
41,191,23823,5,10,0:0:0:0:
90,300,23957,1,2,3:2:0:0:
155,154,24091,1,2,1:2:0:0:
0,275,24225,1,2,1:2:0:0:
169,159,24359,6,0,P|183:78|108:47,1,175,4|2,1:2|1:2,0:0:0:0:
109,47,24895,5,10,0:0:0:0:
262,171,25029,2,0,P|303:156|346:152,1,87.5,2|0,1:2|3:0,0:0:0:0:
502,4,25296,6,0,P|487:45|483:88,1,87.5,2|0,1:2|3:0,0:0:0:0:
442,178,25564,2,0,P|456:219|460:262,1,87.5,2|0,1:2|0:0,0:0:0:0:
451,168,25832,1,2,1:2:0:0:
422,341,25966,6,0,P|388:366|345:361,1,87.5,10|0,0:0|3:0,0:0:0:0:
269,362,26234,2,0,P|302:335|308:293,1,87.5,2|0,3:2|3:2,0:0:0:0:
171,348,26502,6,0,P|176:263|248:219,1,175,4|2,1:2|3:2,0:0:0:0:
49,235,26904,1,2,1:2:0:0:
133,268,27038,2,0,P|104:235|62:229,1,87.5,10|0,0:0|3:2,0:0:0:0:
41,93,27305,5,2,1:2:0:0:
45,340,27439,2,0,P|31:253|0:172,1,175,2|2,1:2|3:2,0:0:0:0:
132,103,27841,2,0,P|138:59|154:19,1,87.5,2|2,1:2|3:2,0:0:0:0:
315,85,28109,5,10,0:0:0:0:
214,144,28243,1,2,3:2:0:0:
264,1,28377,1,2,1:2:0:0:
377,187,28511,1,2,1:2:0:0:
451,14,28645,6,0,P|409:1|365:0,1,87.5,4|0,1:2|3:0,0:0:0:0:
385,180,28913,2,0,P|426:167|470:165,1,87.5,2|0,1:2|3:0,0:0:0:0:
489,320,29180,5,10,0:0:0:0:
328,356,29314,2,0,P|308:317|322:277,1,87.5,2|0,1:2|3:0,0:0:0:0:
332,271,29515,1,2,3:2:0:0:
345,270,29582,2,0,P|301:267|259:255,1,87.5,2|0,1:2|3:2,0:0:0:0:
215,369,29850,2,0,P|178:344|148:313,1,87.5,2|0,1:2|3:0,0:0:0:0:
90,225,30118,5,2,1:2:0:0:
49,384,30252,2,0,P|29:344|18:302,1,87.5,10|0,0:2|3:0,0:0:0:0:
99,218,30520,5,2,1:2:0:0:
328,356,30788,6,0,P|411:329|498:323,1,175,2|2,1:2|1:2,0:0:0:0:
343,260,31323,5,10,0:0:0:0:
437,236,31457,2,0,P|393:238|351:252,1,87.5,2|0,1:2|0:0,0:0:0:0:
234,193,31725,2,0,P|207:159|209:116,1,87.5,2|0,1:2|3:2,0:0:0:0:
291,86,31993,5,2,3:2:0:0:
354,23,32127,1,2,1:2:0:0:
268,0,32261,1,2,1:2:0:0:
377,109,32395,6,0,P|421:111|463:125,1,87.5,10|0,0:0|3:0,0:0:0:0:
435,225,32663,2,0,P|391:227|350:241,1,87.5,2|0,3:2|3:0,0:0:0:0:
244,272,32930,6,0,P|326:273|357:350,1,175,2|2,1:2|3:2,0:0:0:0:
263,367,33332,2,0,P|219:369|178:383,1,87.5,2|8,1:2|0:0,0:0:0:0:
61,331,33600,2,0,P|43:291|60:252,1,87.5,2|0,3:2|3:0,0:0:0:0:
169,227,33868,6,0,P|81:223|-1:195,1,175,2|2,1:2|3:2,0:0:0:0:
62,126,34270,2,0,P|103:140|146:141,1,87.5,2|2,1:2|3:2,0:0:0:0:
145,58,34538,5,10,0:2:0:0:
145,58,34805,2,0,P|119:57|96:49,1,48.9999985046387,2|2,1:2|1:2,0:0:0:0:
256,192,35073,5,4,1:2:0:0:
