osu file format v14

[General]
AudioFilename: audio.mp3
AudioLeadIn: 0
PreviewTime: 386
Countdown: 0
SampleSet: Soft
StackLeniency: 0.4
Mode: 0
LetterboxInBreaks: 0
WidescreenStoryboard: 1

[Editor]
Bookmarks: 782,17926,35067,35201,35335,35469,35603
DistanceSpacing: 0.8
BeatDivisor: 8
GridSize: 32
TimelineZoom: 1.9

[Metadata]
Title:Accumula Town
TitleUnicode:カラクサタウン
Artist:Kageyama Shota
ArtistUnicode:景山将太
Creator:Ermi
Version:Hard
Source:ポケットモンスターブラック・ホワイト
Tags:video game freak instrumental nintendo shouta pokémon pokemon pocket monsters black and white unova furret walking karakusa shizuku- kazato asa shikibe mayu ayesha altugle modding queue
BeatmapID:3566261
BeatmapSetID:1743949

[Difficulty]
HPDrainRate:4
CircleSize:3.6
OverallDifficulty:7
ApproachRate:8
SliderMultiplier:2.4
SliderTickRate:1

[Events]
//Background and Video events
0,0,"nicequalitylol.jpg",0,0
//Break Periods
//Storyboard Layer 0 (Background)
//Storyboard Layer 1 (Fail)
//Storyboard Layer 2 (Pass)
//Storyboard Layer 3 (Foreground)
//Storyboard Layer 4 (Overlay)
//Storyboard Sound Samples

[TimingPoints]
253,535.714285714286,4,2,1,60,1,0
520,-100,4,2,1,35,0,0
788,535.714285714286,4,2,1,50,1,0
788,-90.9090909090909,4,2,1,50,0,0
6413,-181.818181818182,4,2,1,50,0,0
6948,-90.9090909090909,4,2,1,50,0,0
9091,-90.9090909090909,4,2,1,35,0,0
9359,-90.9090909090909,4,2,1,50,0,0
14984,-181.818181818182,4,2,1,50,0,0
15520,-90.9090909090909,4,2,1,50,0,0
17930,-80,4,2,1,70,0,1
35073,-80,4,2,1,70,0,0

[Colours]
Combo1 : 177,219,100
Combo2 : 198,138,94
Combo3 : 219,202,149

[HitObjects]
333,264,520,6,0,P|337:234|347:206,1,60,2|2,0:0|0:0,0:0:0:0:
250,248,788,5,4,1:2:0:0:
250,248,921,2,0,P|255:215|265:184,1,66.0000020141602,2|0,3:2|0:0,0:0:0:0:
158,263,1189,2,0,P|219:279|246:337,1,132.00000402832,2|0,1:2|3:0,0:0:0:0:
166,384,1591,2,0,P|136:370|117:343,1,66.0000020141602,2|0,1:2|0:0,0:0:0:0:
29,362,1859,2,0,P|25:329|39:299,1,66.0000020141602,2|0,1:2|3:0,0:0:0:0:
150,257,2127,5,2,1:2:0:0:
0,220,2395,2,0,P|45:175|109:180,1,132.00000402832,2|2,1:2|3:2,0:0:0:0:
247,193,2930,6,0,P|199:151|209:88,1,132.00000402832,2|0,1:2|3:0,0:0:0:0:
181,7,3332,2,0,P|222:54|285:44,1,132.00000402832,2|0,1:2|3:0,0:0:0:0:
370,68,3734,2,0,P|390:42|392:9,1,66.0000020141602,2|0,1:2|3:0,0:0:0:0:
451,104,4002,6,0,P|386:118|325:142,2,132.00000402832,2|2|2,1:2|1:2|1:2,0:0:0:0:
358,240,4805,1,2,3:2:0:0:
483,192,5073,6,0,P|418:205|357:229,1,132.00000402832,2|0,1:2|3:0,0:0:0:0:
299,301,5475,2,0,P|311:331|317:363,2,66.0000020141602,2|0|0,1:2|1:2|0:0,0:0:0:0:
218,260,5877,2,0,P|153:246|92:222,1,132.00000402832,2|0,1:2|1:0,0:0:0:0:
306,300,6413,6,0,P|319:331|324:363,1,66.0000020141602,2|0,3:0|1:0,0:0:0:0:
218,260,6948,1,0,3:2:0:0:
433,360,7216,6,0,P|486:326|483:263,1,132.00000402832,2|0,1:2|3:0,0:0:0:0:
412,202,7618,2,0,P|379:199|346:192,2,66.0000020141602,2|0|0,1:2|3:2|0:0,0:0:0:0:
500,167,8020,2,0,P|522:108|482:60,1,132.00000402832,2|0,1:2|1:0,0:0:0:0:
346,192,8555,5,4,0:3:0:0:
373,61,8823,1,8,0:3:0:0:
243,105,9091,2,0,P|210:102|178:95,1,66.0000020141602,2|2,1:2|0:0,0:0:0:0:
139,178,9359,5,4,1:2:0:0:
139,178,9493,2,0,P|111:159|87:137,1,66.0000020141602,2|0,3:2|0:0,0:0:0:0:
7,181,9761,2,0,P|37:122|52:58,1,132.00000402832,2|0,1:2|3:0,0:0:0:0:
134,24,10163,2,0,P|165:13|195:0,1,66.0000020141602,2|0,1:2|0:0,0:0:0:0:
277,27,10430,2,0,P|308:37|338:51,1,66.0000020141602,2|0,1:2|3:2,0:0:0:0:
369,134,10698,5,2,1:2:0:0:
423,303,10966,2,0,P|432:237|449:173,1,132.00000402832,2|2,1:2|1:2,0:0:0:0:
268,114,11502,6,0,P|284:177|293:243,1,132.00000402832,2|0,1:2|3:2,0:0:0:0:
313,333,11904,2,0,P|277:280|214:284,1,132.00000402832,2|0,1:2|3:0,0:0:0:0:
126,266,12305,2,0,P|103:289|95:321,1,66.0000020141602,2|0,1:2|3:2,0:0:0:0:
38,384,12573,6,0,P|102:368|167:364,2,132.00000402832,2|2|2,1:2|1:2|1:2,0:0:0:0:
21,172,13377,1,2,1:3:0:0:
0,307,13645,6,0,P|20:244|30:179,1,132.00000402832,2|0,1:2|3:2,0:0:0:0:
99,123,14046,2,0,P|130:112|162:107,2,66.0000020141602,2|0|0,1:2|1:2|0:0,0:0:0:0:
47,51,14448,2,0,P|109:30|174:20,1,132.00000402832,2|0,1:2|1:0,0:0:0:0:
101,132,14984,6,0,P|132:121|164:116,1,66.0000020141602,2|0,3:0|1:2,0:0:0:0:
276,190,15520,1,0,3:2:0:0:
338,136,15654,1,2,3:2:0:0:
338,136,15721,1,2,3:2:0:0:
338,136,15788,6,0,P|351:71|375:9,1,132.00000402832,2|0,1:2|3:2,0:0:0:0:
448,71,16189,2,0,P|436:101|429:134,2,66.0000020141602,2|0|0,1:2|1:2|0:0,0:0:0:0:
512,148,16591,6,0,P|453:177|399:216,1,132.00000402832,2|0,1:2|1:0,0:0:0:0:
371,304,16993,1,2,3:2:0:0:
371,304,17060,1,2,3:2:0:0:
371,304,17127,2,0,L|375:336,2,33.0000010070801,2|0|0,1:2|1:2|1:2,0:0:0:0:
291,253,17395,2,0,P|260:241|227:234,1,66.0000020141602,8|0,0:0|1:2,0:0:0:0:
156,282,17663,1,2,1:2:0:0:
0,145,17930,6,0,P|71:148|105:211,1,150,4|2,1:2|3:2,0:0:0:0:
0,308,18332,1,0,1:2:0:0:
0,308,18466,2,0,P|4:271|16:236,1,75,10|0,0:0|3:0,0:0:0:0:
93,117,18734,1,2,1:2:0:0:
93,117,18868,2,0,P|163:93|238:85,1,150,2|0,1:2|3:0,0:0:0:0:
291,9,19270,6,0,P|314:38|331:71,1,75,2|0,1:2|3:0,0:0:0:0:
484,62,19538,2,0,P|449:75|417:96,1,75,10|0,0:0|3:0,0:0:0:0:
354,154,19805,2,0,P|339:189|333:226,1,75,2|0,1:2|3:0,0:0:0:0:
427,259,20073,6,0,P|354:254|310:310,1,150,2|2,1:2|1:2,0:0:0:0:
489,384,20609,2,0,P|494:346|506:311,1,75,10|2,0:0|1:2,0:0:0:0:
434,256,20877,1,0,3:2:0:0:
512,207,21011,2,0,P|501:132|476:62,2,150,2|2|2,1:2|3:2|1:2,0:0:0:0:
415,169,21680,6,0,P|406:132|391:98,1,75,10|0,0:0|3:0,0:0:0:0:
303,93,21948,2,0,P|277:65|246:43,1,75,2|0,1:2|3:2,0:0:0:0:
170,0,22216,6,0,P|198:69|209:143,1,150,2|2,1:2|1:2,0:0:0:0:
150,228,22618,1,2,3:2:0:0:
150,228,22752,2,0,P|120:206|110:170,1,75,10|2,0:2|3:2,0:0:0:0:
75,77,23020,1,2,1:2:0:0:
75,77,23154,2,0,P|64:151|35:220,1,150,2|2,1:2|3:2,0:0:0:0:
0,321,23555,6,0,P|35:308|72:303,1,75,2|2,1:2|3:2,0:0:0:0:
112,379,23823,1,10,0:0:0:0:
205,384,23957,1,2,3:2:0:0:
273,317,24091,2,0,P|278:281|291:245,1,75,2|2,1:2|1:2,0:0:0:0:
308,152,24359,6,0,P|317:223|384:251,2,150,4|2|10,1:2|1:2|0:0,0:0:0:0:
246,87,25029,1,2,1:2:0:0:
322,42,25163,1,0,3:0:0:0:
322,42,25296,2,0,P|360:46|394:61,1,75,2|0,1:2|3:0,0:0:0:0:
475,15,25564,2,0,P|497:44|512:79,1,75,2|0,1:2|0:0,0:0:0:0:
441,140,25832,1,2,1:2:0:0:
441,140,25966,2,0,P|455:174|460:211,1,75,10|0,0:0|3:0,0:0:0:0:
512,288,26234,1,2,3:2:0:0:
338,384,26502,6,0,P|271:359|263:288,1,150,4|2,1:2|3:2,0:0:0:0:
192,237,26904,1,2,1:2:0:0:
192,237,27038,2,0,P|210:205|243:187,1,75,10|0,0:0|3:2,0:0:0:0:
328,142,27305,1,2,1:2:0:0:
328,142,27439,2,0,P|253:136|183:111,1,150,2|2,1:2|3:2,0:0:0:0:
108,199,27841,6,0,P|83:170|67:136,1,75,2|2,1:2|3:2,0:0:0:0:
63,44,28109,1,10,0:0:0:0:
144,0,28243,1,2,3:2:0:0:
233,28,28377,2,0,P|268:40|305:43,1,75,2|2,1:2|1:2,0:0:0:0:
403,86,28645,6,0,P|328:92|258:117,2,150,4|2|10,1:2|1:2|0:0,0:0:0:0:
471,22,29314,1,2,1:2:0:0:
506,112,29448,1,0,3:0:0:0:
506,112,29515,1,2,3:2:0:0:
506,112,29582,2,0,P|506:149|484:179,1,75,2|0,1:2|3:2,0:0:0:0:
477,266,29850,2,0,P|444:283|408:279,1,75,2|0,1:2|3:0,0:0:0:0:
354,203,30118,5,2,1:2:0:0:
281,260,30252,2,0,P|291:295|297:332,1,75,10|0,0:2|3:0,0:0:0:0:
373,384,30520,1,2,1:2:0:0:
196,384,30788,6,0,P|183:310|162:238,1,150,2|2,1:2|1:2,0:0:0:0:
10,135,31323,1,10,0:0:0:0:
10,135,31457,2,0,P|25:101|59:88,1,75,2|0,1:2|0:0,0:0:0:0:
86,176,31725,2,0,P|79:212|69:248,1,75,2|0,1:2|3:2,0:0:0:0:
0,307,31993,1,2,3:2:0:0:
0,307,32127,1,2,1:2:0:0:
65,368,32261,1,2,1:2:0:0:
65,368,32395,2,0,P|137:347|210:334,1,150,10|2,0:0|3:2,0:0:0:0:
321,207,32930,6,0,P|333:136|279:89,1,150,2|2,1:2|3:2,0:0:0:0:
193,55,33332,2,0,P|266:41|338:20,1,150,2|2,1:2|3:2,0:0:0:0:
413,83,33734,1,0,3:0:0:0:
413,83,33868,2,0,P|449:89|485:100,1,75,2|0,1:2|0:0,0:0:0:0:
467,187,34136,2,0,P|431:175|394:169,2,75,2|2|2,3:2|1:2|3:2,0:0:0:0:
484,284,34538,2,0,P|410:271|338:249,1,150,10|2,0:2|1:2,0:0:0:0:
271,193,34939,1,2,1:2:0:0:
289,321,35073,5,4,1:2:0:0:
