osu file format v14

[General]
AudioFilename: audio.mp3
AudioLeadIn: 0
PreviewTime: 386
Countdown: 0
SampleSet: Soft
StackLeniency: 0.4
Mode: 0
LetterboxInBreaks: 0
WidescreenStoryboard: 1

[Editor]
Bookmarks: 782,17926,35067,35201,35335,35469,35603
DistanceSpacing: 0.2
BeatDivisor: 8
GridSize: 32
TimelineZoom: 1.9

[Metadata]
Title:Accumula Town
TitleUnicode:カラクサタウン
Artist:Kageyama Shota
ArtistUnicode:景山将太
Creator:Ermi
Version:Expert
Source:ポケットモンスターブラック・ホワイト
Tags:video game freak instrumental nintendo shouta pokémon pokemon pocket monsters black and white unova furret walking karakusa shizuku- kazato asa shikibe mayu ayesha altugle modding queue
BeatmapID:3568230
BeatmapSetID:1743949

[Difficulty]
HPDrainRate:5.5
CircleSize:4
OverallDifficulty:8.5
ApproachRate:9.2
SliderMultiplier:2.8
SliderTickRate:1

[Events]
//Background and Video events
0,0,"nicequalitylol.jpg",0,0
//Break Periods
//Storyboard Layer 0 (Background)
//Storyboard Layer 1 (Fail)
//Storyboard Layer 2 (Pass)
//Storyboard Layer 3 (Foreground)
//Storyboard Layer 4 (Overlay)
//Storyboard Sound Samples

[TimingPoints]
253,535.714285714286,4,2,1,60,1,0
520,-166.666666666667,4,2,1,35,0,0
788,535.714285714286,4,2,1,50,1,0
788,-83.3333333333333,4,2,1,50,0,0
4805,-111.111111111111,4,2,1,50,0,0
5073,-83.3333333333333,4,2,1,50,0,0
6413,-222.222222222222,4,2,1,50,0,0
6948,-133.333333333333,4,2,1,50,0,0
7216,-100,4,2,1,50,0,0
9091,-166.666666666667,4,2,1,35,0,0
9359,-83.3333333333333,4,2,1,50,0,0
11234,-166.666666666667,4,2,1,50,0,0
11502,-83.3333333333333,4,2,1,50,0,0
13377,-71.4285714285714,4,2,1,50,0,0
13645,-83.3333333333333,4,2,1,50,0,0
14984,-222.222222222222,4,2,1,50,0,0
15788,-76.9230769230769,4,2,1,50,0,0
17127,-66.6666666666667,4,2,1,50,0,0
17663,-100,4,2,1,50,0,0
17930,-66.6666666666667,4,2,1,70,0,1
19538,-80,4,2,1,70,0,1
19805,-100,4,2,1,70,0,1
20073,-66.6666666666667,4,2,1,70,0,1
21011,-83.3333333333333,4,2,1,70,0,1
22484,-76.9230769230769,4,2,1,70,0,1
23555,-66.6666666666667,4,2,1,70,0,1
24359,-66.6666666666667,4,2,1,70,0,1
25296,-71.4285714285714,4,2,1,70,0,1
25966,-80,4,2,1,70,0,1
26234,-100,4,2,1,70,0,1
26502,-66.6666666666667,4,2,1,70,0,1
31323,-71.4285714285714,4,2,1,70,0,1
31725,-76.9230769230769,4,2,1,70,0,1
32930,-83.3333333333333,4,2,1,70,0,1
34538,-100,4,2,1,70,0,1
35073,-66.6666666666667,4,2,1,70,0,0

[Colours]
Combo1 : 177,219,100
Combo2 : 198,138,94
Combo3 : 219,202,149

[HitObjects]
178,384,520,6,0,P|171:364|160:346,1,41.9999987182618,2|2,0:0|0:0,0:0:0:0:
226,284,788,5,4,1:2:0:0:
255,368,921,2,0,P|241:328|219:292,1,83.9999974365235,2|0,3:2|0:0,0:0:0:0:
322,254,1189,2,0,P|242:257|201:189,1,167.999994873047,2|0,1:2|3:0,0:0:0:0:
330,86,1591,2,0,P|308:121|294:161,1,83.9999974365235,2|0,1:2|0:0,0:0:0:0:
451,279,1859,5,2,1:2:0:0:
441,241,1993,1,0,3:0:0:0:
512,333,2127,5,2,1:2:0:0:
380,187,2395,5,2,1:2:0:0:
383,175,2663,5,2,3:2:0:0:
508,344,2930,6,0,P|433:318|374:371,1,167.999994873047,2|0,1:2|3:0,0:0:0:0:
244,351,3332,1,2,1:2:0:0:
244,351,3466,2,0,P|208:330|196:291,1,83.9999974365235,0|0,1:2|3:0,0:0:0:0:
218,204,3734,5,2,1:2:0:0:
104,296,3868,1,0,3:0:0:0:
104,296,3935,1,2,3:2:0:0:
104,296,4002,2,0,P|104:254|131:224,1,83.9999974365235,2|0,1:2|1:0,0:0:0:0:
362,258,4270,2,0,P|325:278|286:269,1,83.9999974365235,2|0,1:2|3:0,0:0:0:0:
200,53,4538,2,0,P|236:73|247:112,1,83.9999974365235,2|0,1:2|3:0,0:0:0:0:
117,118,4805,6,0,P|86:109|55:106,1,62.9999980773926,2|0,3:2|0:0,0:0:0:0:
21,22,5073,6,0,P|104:30|184:53,1,167.999994873047,2|0,1:2|3:0,0:0:0:0:
343,33,5475,5,2,1:2:0:0:
430,8,5609,2,0,P|388:12|348:23,1,83.9999974365235,0|0,1:2|0:0,0:0:0:0:
257,0,5877,6,0,P|325:48|383:109,1,167.999994873047,2|0,1:2|1:0,0:0:0:0:
383,109,6279,1,0,3:0:0:0:
205,159,6413,6,0,P|223:133|246:111,1,62.9999980773926,2|0,3:0|1:0,0:0:0:0:
249,122,6948,2,0,P|230:139|215:160,1,52.5000020027161,0|0,3:2|1:0,0:0:0:0:
239,243,7216,6,0,P|196:190|128:191,1,140,2|0,1:2|3:0,0:0:0:0:
50,368,7618,5,2,1:2:0:0:
50,368,7752,2,0,P|83:358|118:355,1,70,0|0,3:2|0:0,0:0:0:0:
203,325,8020,6,0,P|135:325|92:273,1,140,2|0,1:2|1:0,0:0:0:0:
242,251,8555,5,4,0:3:0:0:
0,289,8823,5,8,0:3:0:0:
42,12,9091,6,0,P|61:18|82:22,1,41.9999987182618,2|2,1:2|0:0,0:0:0:0:
90,120,9359,5,4,1:2:0:0:
0,91,9493,2,0,P|41:97|81:111,1,83.9999974365235,2|0,3:2|0:0,0:0:0:0:
182,140,9761,2,0,P|100:152|20:180,1,167.999994873047,2|0,1:2|3:0,0:0:0:0:
169,46,10163,2,0,P|209:52|250:66,1,83.9999974365235,2|0,1:2|0:0,0:0:0:0:
390,224,10430,5,2,1:2:0:0:
353,237,10564,1,0,3:2:0:0:
464,268,10698,5,2,1:2:0:0:
279,193,10966,5,2,1:2:0:0:
271,187,11234,6,0,P|267:166|260:146,1,41.9999987182618,2|0,1:2|3:2,0:0:0:0:
441,53,11502,6,0,P|413:132|397:214,1,167.999994873047,2|0,1:2|3:2,0:0:0:0:
512,115,11904,1,2,1:2:0:0:
512,115,12038,2,0,P|498:154|490:195,1,83.9999974365235,0|0,1:2|3:0,0:0:0:0:
336,278,12305,5,2,1:2:0:0:
442,384,12439,1,0,3:2:0:0:
442,384,12506,1,2,3:2:0:0:
441,383,12573,2,0,P|434:342|419:303,1,83.9999974365235,2|0,1:2|1:0,0:0:0:0:
206,351,12841,2,0,P|224:314|248:280,1,83.9999974365235,2|0,1:2|3:0,0:0:0:0:
449,381,13109,2,0,P|441:339|426:300,1,83.9999974365235,2|0,1:2|3:0,0:0:0:0:
153,277,13377,6,0,P|182:316|202:360,1,97.9999970092774,2|0,1:3|3:0,0:0:0:0:
336,278,13645,6,0,P|260:255|252:176,1,167.999994873047,2|0,1:2|3:2,0:0:0:0:
174,64,14046,5,2,1:2:0:0:
132,0,14180,2,0,P|152:36|168:75,1,83.9999974365235,0|0,1:2|0:0,0:0:0:0:
156,154,14448,6,0,P|235:151|263:77,1,167.999994873047,2|0,1:2|1:0,0:0:0:0:
263,77,14850,1,0,3:2:0:0:
86,106,14984,6,0,P|74:76|58:49,1,62.9999980773926,2|0,3:0|1:2,0:0:0:0:
80,115,15520,5,0,3:2:0:0:
0,225,15654,1,2,3:2:0:0:
3,237,15721,1,2,3:2:0:0:
6,249,15788,2,0,P|95:263|181:294,1,181.999991668702,2|0,1:2|3:2,0:0:0:0:
392,376,16189,5,2,1:2:0:0:
245,343,16323,2,0,P|287:327|332:320,1,90.9999958343508,0|0,1:2|0:0,0:0:0:0:
175,384,16591,6,0,P|89:353|0:338,1,181.999991668702,2|0,1:2|1:0,0:0:0:0:
349,143,16993,5,2,3:2:0:0:
349,143,17060,1,2,3:2:0:0:
349,143,17127,2,0,P|372:152|388:173,1,52.5000020027161,2|0,1:2|1:2,0:0:0:0:
401,181,17261,2,0,P|404:206|394:230,1,52.5000020027161,0|0,1:2|3:0,0:0:0:0:
305,222,17395,5,8,0:0:0:0:
435,311,17529,1,0,1:2:0:0:
297,229,17663,2,0,P|262:220|228:216,1,70,2|4,1:2|0:3,0:0:0:0:
512,0,17930,6,0,P|410:26|306:38,1,210.000008010865,4|2,1:2|3:2,0:0:0:0:
178,25,18332,1,0,1:2:0:0:
381,114,18466,2,0,P|433:107|483:95,1,105.000004005432,10|0,0:0|3:0,0:0:0:0:
430,318,18734,5,2,1:2:0:0:
283,145,18868,2,0,P|382:144|419:236,1,210.000008010865,2|0,1:2|3:0,0:0:0:0:
263,384,19270,6,0,P|271:332|291:283,1,105.000004005432,2|0,1:2|3:0,0:0:0:0:
164,279,19538,6,0,P|156:235|140:195,1,87.5,10|0,0:0|3:0,0:0:0:0:
37,336,19805,6,0,P|42:301|55:269,1,70,2|0,1:2|3:0,0:0:0:0:
129,367,20073,5,2,1:2:0:0:
6,200,20207,1,0,3:2:0:0:
6,200,20274,1,2,3:2:0:0:
6,200,20341,2,0,P|30:154|79:138,1,105.000004005432,2|0,1:2|3:0,0:0:0:0:
211,117,20609,5,10,0:0:0:0:
40,29,20743,2,0,P|91:26|130:61,1,105.000004005432,2|0,1:2|3:2,0:0:0:0:
305,186,21011,6,0,P|312:144|330:106,1,83.9999974365235,2|0,1:2|3:2,0:0:0:0:
421,131,21279,2,0,P|403:169|395:210,1,83.9999974365235,2|0,3:2|0:0,0:0:0:0:
488,245,21546,5,2,1:2:0:0:
511,155,21680,2,0,P|493:193|485:234,1,83.9999974365235,10|0,0:0|3:0,0:0:0:0:
415,298,21948,5,2,1:2:0:0:
467,375,22082,1,0,3:2:0:0:
412,310,22216,1,2,1:2:0:0:
412,310,22484,5,2,1:2:0:0:
470,363,22618,1,2,3:2:0:0:
347,384,22752,1,10,0:2:0:0:
294,326,22886,1,2,3:2:0:0:
344,244,23020,5,2,1:2:0:0:
231,380,23154,2,0,P|253:291|262:201,1,181.999991668702,2|2,1:2|3:2,0:0:0:0:
174,55,23555,5,2,1:2:0:0:
195,141,23689,1,2,3:2:0:0:
260,33,23823,1,10,0:0:0:0:
109,162,23957,1,2,3:2:0:0:
313,134,24091,1,2,1:2:0:0:
74,1,24225,1,2,1:2:0:0:
170,226,24359,6,0,P|72:243|18:160,1,210.000008010865,4|2,1:2|1:2,0:0:0:0:
133,384,24895,5,10,0:0:0:0:
18,160,25029,2,0,P|34:209|46:260,1,105.000004005432,2|0,1:2|3:0,0:0:0:0:
288,360,25296,6,0,P|299:312|314:265,1,97.9999970092774,2|0,1:2|3:0,0:0:0:0:
451,290,25564,2,0,P|435:336|424:384,1,97.9999970092774,2|0,1:2|0:0,0:0:0:0:
278,357,25832,1,2,1:2:0:0:
400,185,25966,6,0,P|441:170|484:162,1,87.5,10|0,0:0|3:0,0:0:0:0:
452,86,26234,2,0,P|417:93|384:104,1,70,2|0,3:2|3:2,0:0:0:0:
303,73,26502,6,0,P|406:53|504:17,1,210.000008010865,4|2,1:2|3:2,0:0:0:0:
194,38,26904,1,2,1:2:0:0:
319,179,27038,2,0,P|269:160|218:150,1,105.000004005432,10|0,0:0|3:2,0:0:0:0:
101,125,27305,5,2,1:2:0:0:
342,279,27439,2,0,P|243:242|140:222,1,210.000008010865,2|2,1:2|3:2,0:0:0:0:
56,341,27841,5,2,1:2:0:0:
142,309,27975,1,2,3:2:0:0:
7,266,28109,1,10,0:0:0:0:
191,384,28243,1,2,3:2:0:0:
38,184,28377,1,2,1:2:0:0:
207,384,28511,1,2,1:2:0:0:
325,182,28645,6,0,P|336:130|357:83,1,105.000004005432,4|0,1:2|3:0,0:0:0:0:
512,285,28913,2,0,P|490:332|479:384,1,105.000004005432,2|0,1:2|3:0,0:0:0:0:
366,76,29180,5,10,0:0:0:0:
234,269,29314,2,0,P|223:217|201:169,1,105.000004005432,2|0,1:2|3:0,0:0:0:0:
114,173,29515,5,2,3:2:0:0:
114,173,29582,2,0,P|79:133|36:103,1,105.000004005432,2|0,1:2|3:2,0:0:0:0:
260,108,29850,6,0,P|276:58|281:6,1,105.000004005432,2|0,1:2|3:0,0:0:0:0:
445,25,30118,5,2,1:2:0:0:
389,201,30252,2,0,P|440:189|487:168,1,105.000004005432,10|0,0:2|3:0,0:0:0:0:
377,375,30520,2,0,P|329:353|278:341,1,105.000004005432,2|0,1:2|3:0,0:0:0:0:
48,279,30788,5,2,1:2:0:0:
133,369,30921,1,0,3:2:0:0:
133,369,30988,1,2,3:2:0:0:
133,369,31055,2,0,P|173:339|173:288,1,105.000004005432,2|0,1:2|3:2,0:0:0:0:
153,109,31323,5,10,0:0:0:0:
114,208,31457,2,0,P|123:159|141:114,1,97.9999970092774,2|0,1:2|0:0,0:0:0:0:
10,36,31725,6,0,P|27:78|36:122,1,90.9999958343508,2|0,1:2|3:2,0:0:0:0:
211,183,31993,5,2,3:2:0:0:
276,128,32127,1,2,1:2:0:0:
356,156,32261,1,2,1:2:0:0:
447,14,32395,6,0,P|429:56|420:100,1,90.9999958343508,10|0,0:0|3:0,0:0:0:0:
352,164,32663,2,0,P|369:206|378:250,1,90.9999958343508,2|0,3:2|3:0,0:0:0:0:
285,285,32930,6,0,P|365:280|412:346,1,167.999994873047,2|2,1:2|3:2,0:0:0:0:
329,358,33332,2,0,P|287:367|248:379,1,83.9999974365235,2|8,1:2|0:0,0:0:0:0:
183,328,33600,2,0,P|141:318|102:306,1,83.9999974365235,2|0,3:2|3:0,0:0:0:0:
7,290,33868,6,0,P|89:271|168:246,1,167.999994873047,2|2,1:2|3:2,0:0:0:0:
25,201,34270,2,0,P|66:191|105:179,1,83.9999974365235,2|2,1:2|3:2,0:0:0:0:
163,106,34538,6,0,P|129:95|95:87,1,70,10|0,0:2|3:2,0:0:0:0:
44,22,34805,5,2,1:2:0:0:
44,22,34939,1,2,1:2:0:0:
256,192,35073,5,4,1:2:0:0:
