osu file format v14

[General]
AudioFilename: ZENKI.mp3
AudioLeadIn: 1000
PreviewTime: 56539
Countdown: 0
SampleSet: Soft
StackLeniency: 0.7
Mode: 0
LetterboxInBreaks: 0
WidescreenStoryboard: 0

[Editor]
Bookmarks: 69854
DistanceSpacing: 1.2
BeatDivisor: 4
GridSize: 4
TimelineZoom: 1.4

[Metadata]
Title:Kishin Douji ZENKI (TV Size)
TitleUnicode:鬼神童子ZENKI (TV Size)
Artist:Kageyama Hironobu
ArtistUnicode:影山ヒロノブ
Creator:smallboat
Version:ZENKI
Source:鬼神童子ZENKI
Tags:opening Anime Japanese jump comic STUDIO DEEN Pony Canyon crazy super ghost god gold light king boss eye blood ova battle fantasy magic girl
BeatmapID:2235223
BeatmapSetID:1067620

[Difficulty]
HPDrainRate:7
CircleSize:4.2
OverallDifficulty:8
ApproachRate:9
SliderMultiplier:2
SliderTickRate:1

[Events]
//Background and Video events
0,0,"bg4.jpg",0,0
Video,350,"video.flv"
//Break Periods
//Storyboard Layer 0 (Background)
//Storyboard Layer 1 (Fail)
//Storyboard Layer 2 (Pass)
//Storyboard Layer 3 (Foreground)
//Storyboard Layer 4 (Overlay)
//Storyboard Sound Samples

[TimingPoints]
6730,394.529195160442,4,2,1,40,1,0
6730,-100,4,2,1,40,0,0
7124,-100,4,2,1,75,0,0
16987,-100,4,2,1,55,0,0
17382,-100,4,2,1,60,0,0
17776,-71.4285714285714,4,2,1,90,0,0
18565,-100,4,2,2,85,0,0
19749,-100,4,2,2,50,0,0
19946,-100,4,2,2,80,0,0
21327,-100,4,2,2,50,0,0
21524,-100,4,2,2,90,0,0
26061,-100,4,2,2,50,0,0
26259,-100,4,2,2,90,0,0
27640,-100,4,2,2,50,0,0
27837,-100,4,2,2,90,0,0
31190,-100,4,2,2,65,0,0
31782,-100,4,2,2,50,0,0
31979,-100,4,2,2,80,0,0
38095,-100,4,2,2,50,0,0
38292,-100,4,2,2,75,0,0
43815,-100,4,2,2,70,0,0
44407,-100,4,2,2,50,0,0
44604,-100,4,2,2,80,0,0
50720,-100,4,2,2,50,0,0
50917,-100,4,2,2,75,0,0
55454,-100,4,2,2,50,0,0
55848,-100,4,2,2,70,0,0
56637,-100,4,2,2,60,0,0
57229,-90.9090909090909,4,2,2,60,0,1
57427,-90.9090909090909,4,2,2,80,0,1
57624,-90.9090909090909,4,2,2,60,0,1
57821,-90.9090909090909,4,2,2,80,0,1
58610,-90.9090909090909,4,2,2,60,0,1
58807,-90.9090909090909,4,2,2,80,0,1
60385,-90.9090909090909,4,2,2,60,0,1
60583,-90.9090909090909,4,2,2,80,0,1
61372,-90.9090909090909,4,2,2,60,0,1
61569,-90.9090909090909,4,2,2,80,0,1
61766,-90.9090909090909,4,2,2,60,0,1
61964,-90.9090909090909,4,2,2,80,0,1
63542,-90.9090909090909,4,2,2,60,0,1
63739,-90.9090909090909,4,2,2,80,0,1
64528,-90.9090909090909,4,2,2,60,0,1
64725,-90.9090909090909,4,2,2,80,0,1
64923,-90.9090909090909,4,2,2,60,0,1
65120,-90.9090909090909,4,2,2,80,0,1
66698,-90.9090909090909,4,2,2,60,0,1
66895,-90.9090909090909,4,2,2,85,0,1
68079,-90.9090909090909,4,2,2,60,0,1
68276,-90.9090909090909,4,2,2,85,0,1
69854,-86.9565217391304,4,2,2,60,0,1
70051,-86.9565217391304,4,2,2,85,0,1
70249,-86.9565217391304,4,2,2,60,0,1
70446,-86.9565217391304,4,2,2,85,0,1
71235,-86.9565217391304,4,2,2,60,0,1
71432,-86.9565217391304,4,2,2,85,0,1
73997,-86.9565217391304,4,2,2,60,0,1
74194,-86.9565217391304,4,2,2,85,0,1
74391,-86.9565217391304,4,2,2,60,0,1
74589,-86.9565217391304,4,2,2,85,0,1
76167,-86.9565217391304,4,2,2,60,0,1
76364,-86.9565217391304,4,2,2,85,0,1
79126,-86.9565217391304,4,2,2,60,0,1
79323,-86.9565217391304,4,2,2,95,0,1
80704,-86.9565217391304,4,2,2,55,0,1
81098,-86.9565217391304,4,2,2,80,0,1
81690,-100,4,2,2,75,0,0
82874,-100,4,2,2,50,0,0
83071,-100,4,2,2,75,0,0
84452,-100,4,2,2,50,0,0
84649,-100,4,2,2,85,0,0
89186,-100,4,2,2,50,0,0
89383,-100,4,2,2,75,0,0
90764,-100,4,2,2,50,0,0
90961,-100,4,2,2,75,0,0
91159,-100,4,2,3,65,0,0
91948,-100,4,2,3,20,0,0
92145,-100,4,2,1,70,0,0
92342,-100,4,2,1,90,0,0
92737,-100,4,2,1,70,0,0
92934,-100,4,2,1,90,0,0
93329,-50,4,2,1,70,0,0
93920,-100,4,2,2,35,0,0

[Colours]
Combo1 : 225,225,0
Combo2 : 128,0,255
Combo3 : 179,179,255
Combo4 : 205,12,40

[HitObjects]
202,27,6729,5,4,0:0:0:0:
127,51,7124,1,2,0:0:0:0:
49,45,7519,1,8,0:0:0:0:
203,248,7913,6,0,L|178:132,1,100
182,151,8308,6,0,P|306:155|320:66,1,200,8|0,0:0|0:0,0:0:0:0:
245,89,8899,1,2,0:0:0:0:
166,73,9097,1,2,0:0:0:0:
374,195,9294,2,0,P|407:163|376:10,1,200,2|0,0:0|0:0,0:0:0:0:
306,231,9886,5,8,0:0:0:0:
318,248,10280,1,2,0:0:0:0:
329,264,10675,1,8,0:0:0:0:
340,277,11069,1,2,0:0:0:0:
353,293,11464,1,8,0:0:0:0:
353,293,11858,5,0,0:0:0:0:
256,255,12056,1,2,0:0:0:0:
425,343,12253,1,2,0:0:0:0:
256,369,12450,1,2,0:0:0:0:
87,343,12647,2,0,L|68:244,1,100
74,60,13042,5,8,0:0:0:0:
88,47,13436,1,2,0:0:0:0:
103,35,13831,1,8,0:0:0:0:
409,35,14226,5,0,0:0:0:0:
256,109,14423,1,0,0:0:0:0:
427,133,14620,2,0,L|408:34,1,100,8|0,0:0|0:0,0:0:0:0:
331,195,15015,1,0,0:0:0:0:
256,275,15212,1,0,0:0:0:0:
408,349,15409,2,0,L|427:251,1,100,2|2,0:0|0:0,0:0:0:0:
331,195,15804,1,2,0:0:0:0:
181,195,16001,1,0,0:0:0:0:
328,270,16198,6,0,L|426:250,1,100,8|0,0:0|0:0,0:0:0:0:
184,270,16593,2,0,L|85:250,1,100,2|0,0:0|0:0,0:0:0:0:
17,96,16987,1,8,0:0:0:0:
46,55,17086,1,8,0:0:0:0:
94,42,17185,1,8,0:0:0:0:
143,49,17283,1,8,0:0:0:0:
183,79,17382,1,8,0:0:0:0:
211,119,17480,1,8,0:0:0:0:
260,123,17579,1,8,0:0:0:0:
302,96,17678,1,8,0:0:0:0:
328,58,17776,6,0,P|136:57|201:230,1,419.999987182618,8|0,0:0|0:0,0:0:0:0:
331,162,18565,5,8,0:0:0:0:
181,222,18763,1,0,0:0:0:0:
176,372,18960,1,8,0:0:0:0:
325,262,19157,2,0,L|332:161,1,100,2|0,0:0|0:0,0:0:0:0:
415,89,19552,1,2,0:0:0:0:
187,122,19749,2,0,L|180:223,1,100,12|0,0:0|0:0,0:0:0:0:
319,373,20143,5,2,0:0:0:0:
420,211,20341,1,0,0:0:0:0:
281,242,20538,1,8,0:0:0:0:
509,251,20735,2,0,P|519:202|502:156,1,100,2|0,0:0|0:0,0:0:0:0:
438,74,21130,1,2,0:0:0:0:
274,147,21327,2,0,P|263:195|280:241,1,100,12|0,0:0|0:0,0:0:0:0:
427,354,21722,5,2,0:0:0:0:
351,161,21919,1,2,0:0:0:0:
503,288,22116,1,8,0:0:0:0:
267,324,22313,2,0,P|223:301|199:258,1,100,2|0,0:0|0:0,0:0:0:0:
355,270,22708,1,2,0:0:0:0:
142,203,22905,2,0,L|26:195,1,100,8|0,0:0|0:0,0:0:0:0:
370,203,23300,6,0,L|469:196,1,100,2|0,0:0|0:0,0:0:0:0:
469,196,23694,1,8,0:0:0:0:
261,157,23892,2,0,L|261:258,1,100,2|0,0:0|0:0,0:0:0:0:
142,203,24286,1,2,0:0:0:0:
370,303,24483,2,0,L|370:203,1,100,8|0,0:0|0:0,0:0:0:0:
256,45,24878,5,8,0:0:0:0:
256,45,25075,1,2,0:0:0:0:
146,136,25272,1,2,0:0:0:0:
366,135,25470,2,0,L|470:121,1,100,2|0,0:0|0:0,0:0:0:0:
370,303,25864,1,2,0:0:0:0:
145,248,26061,2,0,L|42:263,1,100,12|0,0:0|0:0,0:0:0:0:
125,360,26456,5,2,0:0:0:0:
211,193,26653,1,0,0:0:0:0:
46,262,26850,1,8,0:0:0:0:
264,254,27048,2,0,P|289:213|279:147,1,100,2|0,0:0|0:0,0:0:0:0:
124,188,27442,1,2,0:0:0:0:
379,225,27640,2,0,L|366:125,1,100,12|0,0:0|0:0,0:0:0:0:
458,272,28034,5,2,0:0:0:0:
286,162,28231,1,2,0:0:0:0:
346,353,28429,1,8,0:0:0:0:
133,225,28626,2,0,L|146:119,1,100,4|0,0:0|0:0,0:0:0:0:
256,64,29020,5,2,0:0:0:0:
256,320,29218,1,8,0:0:0:0:
145,125,29415,1,0,0:0:0:0:
367,125,29612,1,8,0:0:0:0:
126,224,29809,1,2,0:0:0:0:
386,224,30007,1,2,0:0:0:0:
99,320,30204,1,2,0:0:0:0:
413,320,30401,6,0,P|457:297|483:254,1,100,2|0,0:0|0:0,0:0:0:0:
358,123,30796,2,0,P|314:146|288:189,1,100,2|0,0:0|0:0,0:0:0:0:
256,365,31190,5,2,0:0:0:0:
199,188,31388,1,0,0:0:0:0:
386,224,31585,1,8,0:0:0:0:
73,260,31782,2,0,P|73:210|92:164,1,100,6|0,0:0|0:0,0:0:0:0:
261,69,32177,1,2,0:0:0:0:
419,164,32374,2,0,P|438:210|439:260,1,100,8|0,0:0|0:0,0:0:0:0:
348,369,32768,5,2,0:0:0:0:
330,170,32966,1,0,0:0:0:0:
506,314,33163,1,8,0:0:0:0:
278,331,33360,2,0,L|259:233,1,100,2|0,0:0|0:0,0:0:0:0:
419,164,33755,1,2,0:0:0:0:
278,53,33952,2,0,L|259:151,1,100,8|0,0:0|0:0,0:0:0:0:
87,289,34347,5,2,0:0:0:0:
212,357,34544,1,2,0:0:0:0:
410,239,34741,1,8,0:0:0:0:
191,192,34938,2,0,L|93:173,1,100,2|0,0:0|0:0,0:0:0:0:
21,25,35333,1,2,0:0:0:0:
92,172,35530,1,8,0:0:0:0:
46,13,35727,1,0,0:0:0:0:
118,152,35925,5,2,0:0:0:0:
262,51,36122,2,0,L|360:31,1,100,0|8,0:0|0:0,0:0:0:0:
285,207,36516,2,0,P|233:211|186:187,1,100,0|2,0:0|0:0,0:0:0:0:
262,51,36911,1,2,0:0:0:0:
414,96,37108,2,0,L|429:211,1,100,8|0,0:0|0:0,0:0:0:0:
490,368,37503,5,2,0:0:0:0:
426,195,37700,1,2,0:0:0:0:
256,310,37897,1,8,0:0:0:0:
414,96,38095,2,0,L|532:70,1,100,6|0,0:0|0:0,0:0:0:0:
256,74,38489,1,2,0:0:0:0:
98,96,38686,2,0,L|-20:70,1,100,8|0,0:0|0:0,0:0:0:0:
173,35,39081,5,2,0:0:0:0:
339,35,39278,1,0,0:0:0:0:
200,156,39475,1,8,0:0:0:0:
378,213,39673,2,0,P|428:214|494:180,1,100,2|0,0:0|0:0,0:0:0:0:
312,156,40067,1,2,0:0:0:0:
134,213,40264,2,0,P|84:214|18:180,1,100,8|0,0:0|0:0,0:0:0:0:
111,323,40659,5,2,0:0:0:0:
256,249,40856,1,0,0:0:0:0:
401,323,41054,1,8,0:0:0:0:
256,249,41251,2,0,L|256:137,1,100,2|0,0:0|0:0,0:0:0:0:
388,133,41645,1,2,0:0:0:0:
282,320,41843,1,8,0:0:0:0:
286,73,42040,1,0,0:0:0:0:
388,251,42237,5,2,0:0:0:0:
179,212,42434,2,0,P|165:164|172:115,1,100,0|8,0:0|0:0,0:0:0:0:
370,50,42829,1,2,0:0:0:0:
370,50,42928,1,2,0:0:0:0:
370,50,43026,5,2,0:0:0:0:
486,140,43223,1,8,0:0:0:0:
321,240,43421,2,0,L|315:128,1,100,8|2,0:0|0:0,0:0:0:0:
506,237,43815,5,8,0:0:0:0:
321,240,44013,1,2,0:0:0:0:
490,335,44210,1,8,0:0:0:0:
261,301,44407,2,0,P|239:256|250:199,1,100,6|0,0:0|0:0,0:0:0:0:
419,264,44802,1,2,0:0:0:0:
164,217,44999,6,0,P|177:168|224:133,1,100,8|0,0:0|0:0,0:0:0:0:
348,217,45393,5,2,0:0:0:0:
330,337,45591,1,0,0:0:0:0:
167,290,45788,1,8,0:0:0:0:
348,217,45985,6,0,L|442:184,1,100,2|0,0:0|0:0,0:0:0:0:
261,126,46380,1,2,0:0:0:0:
164,217,46577,2,0,L|69:184,1,100,8|0,0:0|0:0,0:0:0:0:
88,60,46971,5,2,0:0:0:0:
261,30,47169,1,2,0:0:0:0:
424,60,47366,1,8,0:0:0:0:
291,216,47563,2,0,P|263:172|268:104,1,100,2|0,0:0|0:0,0:0:0:0:
432,128,47958,1,2,0:0:0:0:
261,125,48155,1,8,0:0:0:0:
450,225,48352,1,0,0:0:0:0:
275,297,48550,5,2,0:0:0:0:
449,324,48747,2,0,B|441:316|455:268|448:204,1,100,0|8,0:0|0:0,0:0:0:0:
449,224,49141,2,0,P|430:177|433:128,1,100,0|2,0:0|0:0,0:0:0:0:
505,18,49536,1,2,0:0:0:0:
320,100,49733,2,0,L|338:198,1,100,8|0,0:0|0:0,0:0:0:0:
192,284,50128,6,0,L|173:185,1,100,2|2,0:0|0:0,0:0:0:0:
256,47,50522,1,8,0:0:0:0:
401,246,50720,2,0,L|419:344,1,100,6|0,0:0|0:0,0:0:0:0:
256,337,51114,1,2,0:0:0:0:
52,241,51311,6,0,L|70:143,1,100,8|0,0:0|0:0,0:0:0:0:
181,177,51706,2,0,L|199:79,1,100,2|0,0:0|0:0,0:0:0:0:
460,241,52100,6,0,L|442:143,1,100,8|0,0:0|0:0,0:0:0:0:
331,177,52495,2,0,L|313:79,1,100,2|0,0:0|0:0,0:0:0:0:
256,259,52889,2,0,L|256:359,1,100,8|0,0:0|0:0,0:0:0:0:
125,142,53284,5,2,0:0:0:0:
331,199,53481,1,2,0:0:0:0:
118,237,53678,2,0,P|109:188|126:138,1,100,8|0,0:0|0:0,0:0:0:0:
259,53,54073,1,0,0:0:0:0:
467,10,54270,1,0,0:0:0:0:
465,213,54468,1,8,0:0:0:0:
287,185,54665,1,0,0:0:0:0:
399,45,54862,5,8,0:0:0:0:
287,185,55059,2,0,P|236:195|187:172,1,100,2|8,0:0|0:0,0:0:0:0:
109,75,55454,1,6,0:0:0:0:
109,75,55848,5,8,0:0:0:0:
403,75,56046,1,8,0:0:0:0:
109,309,56243,1,8,0:0:0:0:
403,309,56440,1,8,0:0:0:0:
210,275,56637,5,0,0:0:0:0:
159,229,56835,1,0,0:0:0:0:
130,169,57032,1,0,0:0:0:0:
114,65,57229,6,0,P|107:119|130:169,1,110.000003356934,6|0,0:0|0:0,0:0:0:0:
382,168,57624,2,0,P|405:118|398:64,1,110.000003356934,14|0,0:0|0:0,0:0:0:0:
256,107,58018,1,2,0:0:0:0:
159,228,58216,6,0,P|146:281|162:333,1,110.000003356934,0|8,0:0|0:0,0:0:0:0:
349,333,58610,2,0,P|365:281|352:228,1,110.000003356934,4|0,0:0|0:0,0:0:0:0:
256,277,59005,1,2,0:0:0:0:
256,369,59202,1,8,0:0:0:0:
435,296,59399,6,0,P|457:251|452:193,1,110.000003356934
366,51,59794,1,2,0:0:0:0:
146,51,59991,1,8,0:0:0:0:
256,190,60188,1,0,0:0:0:0:
77,296,60385,6,0,P|53:247|57:192,1,110.000003356934,6|0,0:0|0:0,0:0:0:0:
454,192,60780,2,0,P|458:247|434:296,1,110.000003356934,8|0,0:0|0:0,0:0:0:0:
256,290,61175,1,2,0:0:0:0:
133,125,61372,2,0,B|79:113|79:113|30:138,1,110.000003356934,4|8,0:0|0:0,0:0:0:0:
379,125,61766,2,0,B|433:113|433:113|481:138,1,110.000003356934,6|0,0:0|0:0,0:0:0:0:
342,223,62161,1,2,0:0:0:0:
170,223,62358,1,8,0:0:0:0:
203,100,62555,6,0,P|206:47|173:5,1,110.000003356934,2|0,0:0|0:0,0:0:0:0:
103,196,62950,1,2,0:0:0:0:
256,149,63147,1,8,0:0:0:0:
409,196,63344,1,0,0:0:0:0:
324,376,63542,6,0,P|303:332|311:270,1,110.000003356934,6|0,0:0|0:0,0:0:0:0:
435,117,63936,2,0,P|457:67|447:14,1,110.000003356934,8|0,0:0|0:0,0:0:0:0:
256,50,64331,1,2,0:0:0:0:
76,117,64528,2,0,P|54:67|64:14,1,110.000003356934,6|8,0:0|0:0,0:0:0:0:
224,181,64923,2,0,P|277:186|325:160,1,110.000003356934,6|0,0:0|0:0,0:0:0:0:
451,23,65317,1,2,0:0:0:0:
383,251,65514,1,8,0:0:0:0:
266,105,65712,6,0,P|260:52|287:5,1,110.000003356934,2|0,0:0|0:0,0:0:0:0:
509,79,66106,1,2,0:0:0:0:
404,244,66303,1,8,0:0:0:0:
394,14,66501,1,0,0:0:0:0:
484,268,66698,5,6,0:0:0:0:
326,115,66895,1,0,0:0:0:0:
511,92,67092,1,8,0:0:0:0:
421,321,67290,1,0,0:0:0:0:
422,164,67487,1,2,0:0:0:0:
259,299,67684,2,0,P|208:319|155:308,1,110.000003356934,2|8,0:0|0:0,0:0:0:0:
155,75,68079,6,0,P|208:64|259:84,1,110.000003356934,4|0,0:0|0:0,0:0:0:0:
388,248,68473,1,8,0:0:0:0:
124,136,68671,1,0,0:0:0:0:
350,70,68868,1,8,0:0:0:0:
155,308,69065,1,0,0:0:0:0:
51,115,69262,5,8,0:0:0:0:
178,243,69460,1,8,0:0:0:0:
334,141,69657,1,8,0:0:0:0:
475,231,69854,6,0,B|469:285|469:285|425:327,1,115.000002193451,6|0,0:0|0:0,0:0:0:0:
86,327,70249,2,0,B|43:285|43:285|37:231,1,115.000002193451,14|0,0:0|0:0,0:0:0:0:
256,193,70643,1,2,0:0:0:0:
425,56,70840,6,0,B|469:99|469:99|475:153,1,115.000002193451,2|8,0:0|0:0,0:0:0:0:
37,153,71235,2,0,B|43:99|43:99|86:56,1,115.000002193451,4|0,0:0|0:0,0:0:0:0:
256,121,71630,1,2,0:0:0:0:
256,263,71827,1,8,0:0:0:0:
156,131,72024,6,0,B|162:77|162:77|205:34,1,115.000002193451,2|0,0:0|0:0,0:0:0:0:
399,186,72419,1,2,0:0:0:0:
256,335,72616,1,8,0:0:0:0:
114,185,72813,1,0,0:0:0:0:
293,23,73010,6,0,B|333:57|333:57|323:118,1,115.000002193451,2|0,0:0|0:0,0:0:0:0:
293,214,73405,2,0,B|333:180|333:180|323:118,1,115.000002193451,8|0,0:0|0:0,0:0:0:0:
256,303,73799,1,2,0:0:0:0:
425,245,73997,2,0,P|441:299|422:352,1,115.000002193451,4|8,0:0|0:0,0:0:0:0:
89,352,74391,2,0,P|70:299|86:245,1,115.000002193451,6|0,0:0|0:0,0:0:0:0:
190,134,74786,1,2,0:0:0:0:
146,295,74983,1,8,0:0:0:0:
39,183,75180,6,0,P|20:129|36:75,1,115.000002193451,2|0,0:0|0:0,0:0:0:0:
160,18,75575,1,2,0:0:0:0:
352,18,75772,1,8,0:0:0:0:
256,193,75969,1,0,0:0:0:0:
472,182,76167,2,0,P|490:129|475:75,1,115.000002193451,6|0,0:0|0:0,0:0:0:0:
255,265,76561,2,0,L|255:380,1,115.000002193451,8|0,0:0|0:0,0:0:0:0:
378,278,76956,1,2,0:0:0:0:
134,278,77153,1,2,0:0:0:0:
255,119,77350,2,0,L|255:4,1,115.000002193451,8|0,0:0|0:0,0:0:0:0:
466,285,77745,6,0,L|466:170,1,115.000002193451,2|0,0:0|0:0,0:0:0:0:
46,170,78139,2,0,L|46:285,1,115.000002193451,8|0,0:0|0:0,0:0:0:0:
255,234,78534,2,0,L|255:119,1,115.000002193451,2|2,0:0|0:0,0:0:0:0:
256,336,78928,1,8,0:0:0:0:
466,199,79126,6,0,L|466:84,1,115.000002193451,6|0,0:0|0:0,0:0:0:0:
256,48,79520,1,2,0:0:0:0:
46,84,79717,2,0,L|46:199,1,115.000002193451,8|0,0:0|0:0,0:0:0:0:
162,306,80112,5,8,0:0:0:0:
350,306,80309,1,2,0:0:0:0:
257,133,80506,2,0,L|278:186,1,57.5000010967255,2|0,0:0|0:0,0:0:0:0:
431,285,80704,6,0,P|427:341|390:383,1,115.000002193451,6|0,0:0|0:0,0:0:0:0:
94,277,81098,1,10,0:0:0:0:
418,107,81296,1,10,0:0:0:0:
418,107,81690,5,8,0:0:0:0:
256,79,81887,1,8,0:0:0:0:
94,107,82085,1,8,0:0:0:0:
387,199,82282,2,0,P|411:155|417:106,1,100,4|0,0:0|0:0,0:0:0:0:
256,305,82676,1,2,0:0:0:0:
125,199,82874,6,0,P|100:155|94:106,1,100,12|0,0:0|0:0,0:0:0:0:
256,68,83268,1,2,0:0:0:0:
478,239,83465,1,0,0:0:0:0:
257,46,83663,1,8,0:0:0:0:
125,199,83860,2,0,L|33:239,1,100,2|0,0:0|0:0,0:0:0:0:
257,338,84254,1,2,0:0:0:0:
478,239,84452,2,0,L|387:199,1,100,12|0,0:0|0:0,0:0:0:0:
34,145,84846,5,0,0:0:0:0:
132,305,85044,1,2,0:0:0:0:
380,305,85241,1,8,0:0:0:0:
188,164,85438,2,0,P|168:119|181:64,1,100,2|0,0:0|0:0,0:0:0:0:
380,79,85833,1,2,0:0:0:0:
188,164,86030,2,0,L|187:271,1,100,8|0,0:0|0:0,0:0:0:0:
190,263,86424,6,0,B|157:276|157:276|94:260,1,100,2|0,0:0|0:0,0:0:0:0:
256,99,86819,1,8,0:0:0:0:
322,263,87016,2,0,B|355:276|355:276|417:260,1,100,2|0,0:0|0:0,0:0:0:0:
449,63,87411,1,2,0:0:0:0:
256,99,87608,2,0,L|256:206,1,100,8|0,0:0|0:0,0:0:0:0:
489,248,88003,5,8,0:0:0:0:
325,66,88200,1,0,0:0:0:0:
179,296,88397,1,8,0:0:0:0:
404,355,88594,2,0,P|422:310|417:261,1,100,2|0,0:0|0:0,0:0:0:0:
256,199,88989,1,2,0:0:0:0:
96,259,89186,2,0,P|90:308|110:357,1,100,12|0,0:0|0:0,0:0:0:0:
333,296,89581,5,2,0:0:0:0:
357,65,89778,1,0,0:0:0:0:
174,178,89975,1,8,0:0:0:0:
419,242,90172,2,0,L|427:142,1,100,2|0,0:0|0:0,0:0:0:0:
256,19,90567,1,2,0:0:0:0:
84,142,90764,2,0,L|93:242,1,100,12|0,0:0|0:0,0:0:0:0:
155,65,91159,5,2,0:0:0:0:
333,314,91356,1,2,0:0:0:0:
426,142,91553,1,2,0:0:0:0:
179,314,91751,2,0,L|170:214,1,100,2|0,0:0|0:0,0:0:0:0:
82,62,92145,5,8,0:0:0:0:
430,62,92342,1,2,0:0:0:0:
430,62,92441,1,2,0:0:0:0:
430,62,92540,1,8,0:0:0:0:
82,322,92737,5,8,0:0:0:0:
430,322,92934,1,2,0:0:0:0:
430,322,93033,1,2,0:0:0:0:
430,322,93131,1,8,0:0:0:0:
256,101,93329,6,0,B|222:212|222:212|294:291|294:291|255:361,1,300,12|0,0:0|0:0,0:0:0:0:
256,358,93723,1,2,0:0:0:0:
256,26,93920,1,12,0:0:0:0:
