osu file format v14

[General]
AudioFilename: ZENKI.mp3
AudioLeadIn: 1000
PreviewTime: 56539
Countdown: 0
SampleSet: Soft
StackLeniency: 0.7
Mode: 0
LetterboxInBreaks: 0
WidescreenStoryboard: 0

[Editor]
Bookmarks: 69854
DistanceSpacing: 1.1
BeatDivisor: 4
GridSize: 4
TimelineZoom: 1

[Metadata]
Title:Kishin Douji ZENKI (TV Size)
TitleUnicode:鬼神童子ZENKI (TV Size)
Artist:Kageyama Hironobu
ArtistUnicode:影山ヒロノブ
Creator:smallboat
Version:Normal
Source:鬼神童子ZENKI
Tags:opening Anime Japanese jump comic STUDIO DEEN Pony Canyon crazy super ghost god gold light king boss eye blood ova battle fantasy magic girl
BeatmapID:2235222
BeatmapSetID:1067620

[Difficulty]
HPDrainRate:4
CircleSize:3.3
OverallDifficulty:4
ApproachRate:5
SliderMultiplier:1.1
SliderTickRate:1

[Events]
//Background and Video events
0,0,"bg2.jpg",0,0
Video,350,"video.flv"
//Break Periods
//Storyboard Layer 0 (Background)
//Storyboard Layer 1 (Fail)
//Storyboard Layer 2 (Pass)
//Storyboard Layer 3 (Foreground)
//Storyboard Layer 4 (Overlay)
//Storyboard Sound Samples

[TimingPoints]
6730,394.529195160442,4,2,1,40,1,0
6730,-100,4,2,1,40,0,0
7124,-100,4,2,1,75,0,0
16987,-100,4,2,1,55,0,0
17382,-100,4,2,1,60,0,0
17776,-100,4,2,1,90,0,0
18565,-100,4,2,2,85,0,0
19749,-100,4,2,2,50,0,0
19946,-100,4,2,2,80,0,0
21327,-100,4,2,2,50,0,0
21524,-100,4,2,2,90,0,0
26061,-100,4,2,2,50,0,0
26259,-100,4,2,2,90,0,0
27640,-100,4,2,2,50,0,0
27837,-100,4,2,2,90,0,0
31190,-100,4,2,2,65,0,0
31782,-100,4,2,2,50,0,0
31979,-100,4,2,2,80,0,0
38095,-100,4,2,2,50,0,0
38292,-100,4,2,2,75,0,0
43815,-100,4,2,2,70,0,0
44407,-100,4,2,2,50,0,0
44604,-100,4,2,2,80,0,0
50720,-100,4,2,2,50,0,0
50917,-100,4,2,2,75,0,0
55454,-100,4,2,2,50,0,0
55848,-100,4,2,2,70,0,0
56637,-100,4,2,2,60,0,0
57229,-100,4,2,2,60,0,1
57427,-100,4,2,2,80,0,1
57624,-100,4,2,2,60,0,1
57821,-100,4,2,2,80,0,1
58610,-100,4,2,2,60,0,1
58807,-100,4,2,2,80,0,1
60385,-100,4,2,2,60,0,1
60583,-100,4,2,2,80,0,1
61372,-100,4,2,2,60,0,1
61569,-100,4,2,2,80,0,1
61766,-100,4,2,2,60,0,1
61964,-100,4,2,2,80,0,1
63542,-100,4,2,2,60,0,1
63739,-100,4,2,2,80,0,1
64528,-100,4,2,2,60,0,1
64725,-100,4,2,2,80,0,1
64923,-100,4,2,2,60,0,1
65120,-100,4,2,2,80,0,1
66698,-100,4,2,2,60,0,1
66895,-100,4,2,2,85,0,1
68079,-100,4,2,2,60,0,1
68276,-100,4,2,2,85,0,1
69854,-100,4,2,2,60,0,1
70051,-100,4,2,2,85,0,1
70249,-100,4,2,2,60,0,1
70446,-100,4,2,2,85,0,1
71235,-100,4,2,2,60,0,1
71432,-100,4,2,2,85,0,1
73997,-100,4,2,2,60,0,1
74194,-100,4,2,2,85,0,1
74391,-100,4,2,2,60,0,1
74589,-100,4,2,2,85,0,1
76167,-100,4,2,2,60,0,1
76364,-100,4,2,2,85,0,1
79126,-100,4,2,2,60,0,1
79323,-100,4,2,2,95,0,1
80704,-100,4,2,2,55,0,1
81098,-100,4,2,2,80,0,1
81690,-100,4,2,2,75,0,0
82874,-100,4,2,2,50,0,0
83071,-100,4,2,2,75,0,0
84452,-100,4,2,2,50,0,0
84649,-100,4,2,2,85,0,0
89186,-100,4,2,2,50,0,0
89383,-100,4,2,2,75,0,0
90764,-100,4,2,2,50,0,0
90961,-100,4,2,2,75,0,0
91159,-100,4,2,3,65,0,0
91948,-100,4,2,3,20,0,0
92145,-100,4,2,1,70,0,0
92342,-100,4,2,1,90,0,0
92737,-100,4,2,1,70,0,0
92934,-100,4,2,1,90,0,0
93329,-100,4,2,1,70,0,0
93920,-100,4,2,2,35,0,0

[Colours]
Combo1 : 225,225,0
Combo2 : 128,0,255
Combo3 : 179,179,255
Combo4 : 205,12,40

[HitObjects]
55,144,6729,6,0,L|183:133,1,110,4|2,0:0|0:0,0:0:0:0:
259,58,7519,1,8,0:0:0:0:
379,60,7913,2,0,L|432:72,1,55
470,118,8308,6,0,P|404:204|299:226,1,220,8|2,0:0|0:0,0:0:0:0:
242,207,9294,1,2,0:0:0:0:
87,109,9886,2,0,P|68:161|66:216,1,110,8|2,0:0|0:0,0:0:0:0:
111,328,10675,1,8,0:0:0:0:
227,294,11069,1,2,0:0:0:0:
327,361,11464,6,0,L|443:355,1,110,8|0,0:0|0:0,0:0:0:0:
496,249,12253,1,2,0:0:0:0:
378,279,12647,1,0,0:0:0:0:
271,221,13042,2,0,P|270:167|297:103,1,110,8|2,0:0|0:0,0:0:0:0:
403,153,13831,1,8,0:0:0:0:
493,72,14226,1,0,0:0:0:0:
384,17,14620,6,0,L|267:-1,1,110,8|0,0:0|0:0,0:0:0:0:
172,64,15409,1,2,0:0:0:0:
62,11,15804,1,2,0:0:0:0:
23,125,16198,2,0,L|11:244,1,110,8|2,0:0|0:0,0:0:0:0:
41,351,16987,1,8,0:0:0:0:
127,266,17382,1,8,0:0:0:0:
228,333,17776,6,0,P|309:342|374:295,1,165,8|0,0:0|0:0,0:0:0:0:
388,236,18565,6,0,L|414:345,1,110,8|8,0:0|0:0,0:0:0:0:
467,369,19157,2,0,P|493:331|490:252,1,110,2|2,0:0|0:0,0:0:0:0:
471,213,19749,1,12,0:0:0:0:
361,155,20143,2,0,P|307:161|255:144,1,110,2|8,0:0|0:0,0:0:0:0:
204,112,20735,2,0,P|151:95|97:101,1,110,2|2,0:0|0:0,0:0:0:0:
43,128,21327,1,12,0:0:0:0:
6,242,21722,6,0,P|32:290|25:344,1,110,2|8,0:0|0:0,0:0:0:0:
79,372,22313,2,0,P|133:371|180:343,1,110,2|2,0:0|0:0,0:0:0:0:
200,286,22905,1,8,0:0:0:0:
314,325,23300,1,2,0:0:0:0:
395,235,23694,1,8,0:0:0:0:
450,258,23892,2,0,P|486:215|496:160,1,110,2|2,0:0|0:0,0:0:0:0:
481,104,24483,1,8,0:0:0:0:
369,53,24878,6,0,P|321:77|266:80,1,110,8|2,0:0|0:0,0:0:0:0:
213,48,25470,2,0,P|162:32|107:36,1,110,2|2,0:0|0:0,0:0:0:0:
59,74,26061,1,12,0:0:0:0:
13,185,26456,2,0,P|66:198|117:179,1,110,2|8,0:0|0:0,0:0:0:0:
170,152,27048,2,0,P|222:134|277:138,1,110,2|2,0:0|0:0,0:0:0:0:
318,182,27640,1,12,0:0:0:0:
383,283,28034,6,0,L|498:265,1,110,2|8,0:0|0:0,0:0:0:0:
497,205,28626,2,0,P|483:152|496:99,1,110,4|2,0:0|0:0,0:0:0:0:
502,39,29218,2,0,L|392:50,1,110,8|8,0:0|0:0,0:0:0:0:
358,100,29809,2,0,P|302:92|258:61,1,110,2|2,0:0|0:0,0:0:0:0:
216,18,30401,1,2,0:0:0:0:
98,46,30796,1,2,0:0:0:0:
41,152,31190,6,0,L|33:279,1,110,2|8,0:0|0:0,0:0:0:0:
49,320,31782,2,0,P|99:343|169:318,1,110,6|2,0:0|0:0,0:0:0:0:
198,293,32374,1,8,0:0:0:0:
298,360,32768,2,0,P|365:365|401:342,1,110,2|8,0:0|0:0,0:0:0:0:
436,296,33360,2,0,P|418:244|429:191,1,110,2|2,0:0|0:0,0:0:0:0:
475,152,33952,1,8,0:0:0:0:
501,33,34347,6,0,P|447:22|395:37,1,110,2|8,0:0|0:0,0:0:0:0:
352,80,34938,2,0,P|298:90|246:75,1,110,2|2,0:0|0:0,0:0:0:0:
218,128,35530,2,0,L|207:181,1,55,8|0,0:0|0:0,0:0:0:0:
235,235,35925,2,0,P|289:234|334:204,1,110,2|8,0:0|0:0,0:0:0:0:
389,179,36516,2,0,L|375:288,1,110,0|2,0:0|0:0,0:0:0:0:
329,327,37108,1,8,0:0:0:0:
213,362,37503,6,0,P|159:373|107:358,1,110,2|8,0:0|0:0,0:0:0:0:
56,325,38095,2,0,P|71:273|61:219,1,110,6|2,0:0|0:0,0:0:0:0:
24,171,38686,1,8,0:0:0:0:
32,50,39081,2,0,L|141:39,1,110,2|8,0:0|0:0,0:0:0:0:
187,79,39673,2,0,P|233:95|294:80,1,110,2|2,0:0|0:0,0:0:0:0:
338,43,40264,1,8,0:0:0:0:
456,67,40659,6,0,P|449:121|470:171,1,110,2|8,0:0|0:0,0:0:0:0:
503,222,41251,2,0,L|487:336,1,110,2|2,0:0|0:0,0:0:0:0:
440,368,41843,2,0,L|386:354,1,55,8|0,0:0|0:0,0:0:0:0:
327,340,42237,1,2,0:0:0:0:
269,321,42434,2,0,P|214:302|159:314,1,110,0|2,0:0|0:0,0:0:0:0:
118,350,43026,2,0,L|64:338,2,55,2|8|8,0:0|0:0|0:0,0:0:0:0:
143,231,43815,6,0,P|147:176|125:126,1,110,8|8,0:0|0:0,0:0:0:0:
86,79,44407,2,0,P|136:57|190:60,1,110,6|2,0:0|0:0,0:0:0:0:
239,94,44999,1,8,0:0:0:0:
262,211,45393,2,0,L|269:327,1,110,2|8,0:0|0:0,0:0:0:0:
319,351,45985,2,0,P|373:358|421:332,1,110,2|2,0:0|0:0,0:0:0:0:
457,283,46577,1,8,0:0:0:0:
500,169,46971,6,0,P|446:165|408:127,1,110,2|8,0:0|0:0,0:0:0:0:
382,72,47563,2,0,P|337:42|284:48,1,110,2|2,0:0|0:0,0:0:0:0:
253,101,48155,2,0,L|260:155,1,55,8|0,0:0|0:0,0:0:0:0:
295,205,48550,2,0,P|300:259|278:309,1,110,2|8,0:0|0:0,0:0:0:0:
233,350,49141,2,0,P|178:355|128:333,1,110,0|2,0:0|0:0,0:0:0:0:
74,306,49733,1,8,0:0:0:0:
22,196,50128,6,0,L|14:86,1,110,2|8,0:0|0:0,0:0:0:0:
46,34,50720,2,0,L|155:47,1,110,6|2,0:0|0:0,0:0:0:0:
203,83,51311,1,8,0:0:0:0:
147,190,51706,1,2,0:0:0:0:
258,237,52100,1,8,0:0:0:0:
235,356,52495,2,0,L|345:343,1,110,2|8,0:0|0:0,0:0:0:0:
462,368,53284,5,2,0:0:0:0:
504,254,53678,1,8,0:0:0:0:
417,169,54073,2,0,L|410:223,1,55
376,274,54468,2,0,L|321:267,1,55,8|0,0:0|0:0,0:0:0:0:
265,288,54862,2,0,P|210:296|158:281,1,110,8|8,0:0|0:0,0:0:0:0:
106,250,55454,1,6,0:0:0:0:
34,160,55848,2,0,L|88:154,2,55,8|8|8,0:0|0:0|0:0,0:0:0:0:
21,100,56440,1,8,0:0:0:0:
116,29,57229,5,6,0:0:0:0:
218,92,57624,2,0,P|270:104|319:81,1,110,14|2,0:0|0:0,0:0:0:0:
373,53,58216,2,0,P|425:40|474:63,1,110,0|4,0:0|0:0,0:0:0:0:
501,181,59005,2,0,L|497:251,1,55,2|8,0:0|0:0,0:0:0:0:
476,292,59399,2,0,P|422:304|370:289,1,110,0|2,0:0|0:0,0:0:0:0:
323,250,59991,2,0,L|327:182,1,55,8|0,0:0|0:0,0:0:0:0:
349,139,60385,5,6,0:0:0:0:
241,195,60780,2,0,P|181:199|132:174,1,110,8|2,0:0|0:0,0:0:0:0:
89,140,61372,2,0,L|78:18,1,110,4|6,0:0|0:0,0:0:0:0:
199,19,62161,2,0,L|204:73,1,55,2|8,0:0|0:0,0:0:0:0:
256,104,62555,2,0,P|301:75|356:68,1,110,2|2,0:0|0:0,0:0:0:0:
413,85,63147,2,0,L|466:71,1,55,8|0,0:0|0:0,0:0:0:0:
496,123,63542,5,6,0:0:0:0:
479,242,63936,2,0,L|363:227,1,110,8|2,0:0|0:0,0:0:0:0:
336,277,64528,2,0,P|294:312|240:312,1,110,6|6,0:0|0:0,0:0:0:0:
131,258,65317,2,0,L|119:311,1,55,2|8,0:0|0:0,0:0:0:0:
58,317,65712,2,0,P|31:269|33:215,1,110,2|2,0:0|0:0,0:0:0:0:
62,161,66303,1,8,0:0:0:0:
138,67,66698,6,0,L|192:61,1,55,6|0,0:0|0:0,0:0:0:0:
245,92,67092,2,0,L|299:86,1,55,8|0,0:0|0:0,0:0:0:0:
356,65,67487,1,2,0:0:0:0:
412,86,67684,2,0,P|441:131|447:186,1,110,2|4,0:0|0:0,0:0:0:0:
423,304,68473,2,0,L|478:297,2,55,8|0|8,0:0|0:0|0:0,0:0:0:0:
369,332,69065,1,0,0:0:0:0:
312,355,69262,2,0,L|181:342,1,110,8|8,0:0|0:0,0:0:0:0:
143,355,69854,5,6,0:0:0:0:
45,283,70249,2,0,L|38:173,1,110,14|2,0:0|0:0,0:0:0:0:
53,114,70840,2,0,P|72:63|111:25,1,110,2|4,0:0|0:0,0:0:0:0:
233,19,71630,2,0,L|246:91,1,55,2|8,0:0|0:0,0:0:0:0:
274,124,72024,2,0,P|328:132|380:114,1,110,2|2,0:0|0:0,0:0:0:0:
427,76,72616,2,0,L|448:131,1,55,8|0,0:0|0:0,0:0:0:0:
471,182,73010,5,2,0:0:0:0:
473,302,73405,2,0,B|451:318|451:318|368:308,1,110,8|2,0:0|0:0,0:0:0:0:
322,269,73997,2,0,B|300:253|300:253|217:262,1,110,4|6,0:0|0:0,0:0:0:0:
149,362,74786,2,0,L|82:350,1,55,2|8,0:0|0:0,0:0:0:0:
52,309,75180,2,0,P|37:256|45:202,1,110,2|2,0:0|0:0,0:0:0:0:
78,151,75772,2,0,L|131:138,1,55,8|0,0:0|0:0,0:0:0:0:
182,105,76167,5,6,0:0:0:0:
272,184,76561,2,0,L|282:312,1,110,8|2,0:0|0:0,0:0:0:0:
316,342,77153,1,2,0:0:0:0:
374,356,77350,1,8,0:0:0:0:
494,343,77745,5,2,0:0:0:0:
398,268,78139,1,8,0:0:0:0:
494,196,78534,2,0,P|502:141|488:88,1,110,2|8,0:0|0:0,0:0:0:0:
450,41,79126,2,0,P|395:48|342:34,1,110,6|2,0:0|0:0,0:0:0:0:
284,16,79717,1,8,0:0:0:0:
167,47,80112,6,0,L|173:166,1,110,8|2,0:0|0:0,0:0:0:0:
206,207,80704,2,0,B|234:214|234:214|326:187,1,110,6|10,0:0|0:0,0:0:0:0:
357,151,81296,1,10,0:0:0:0:
465,203,81690,6,0,L|478:312,1,110,8|8,0:0|0:0,0:0:0:0:
437,357,82282,2,0,P|382:359|331:341,1,110,4|2,0:0|0:0,0:0:0:0:
280,307,82874,5,12,0:0:0:0:
206,207,83268,2,0,P|151:208|103:234,1,110,2|8,0:0|0:0,0:0:0:0:
58,275,83860,2,0,P|38:223|41:169,1,110,2|2,0:0|0:0,0:0:0:0:
63,112,84452,1,12,0:0:0:0:
169,55,84846,6,0,P|221:72|274:61,1,110,0|8,0:0|0:0,0:0:0:0:
324,26,85438,2,0,P|377:14|428:31,1,110,2|2,0:0|0:0,0:0:0:0:
460,83,86030,1,8,0:0:0:0:
488,200,86424,1,2,0:0:0:0:
445,313,86819,1,8,0:0:0:0:
396,349,87016,2,0,P|342:360|291:343,1,110,2|2,0:0|0:0,0:0:0:0:
237,315,87608,1,8,0:0:0:0:
306,215,88003,6,0,P|322:163|311:110,1,110,8|8,0:0|0:0,0:0:0:0:
267,69,88594,2,0,P|213:80|162:63,1,110,2|2,0:0|0:0,0:0:0:0:
109,33,89186,1,12,0:0:0:0:
36,130,89581,2,0,P|19:181|30:234,1,110,2|8,0:0|0:0,0:0:0:0:
71,279,90172,2,0,P|122:262|175:273,1,110,2|2,0:0|0:0,0:0:0:0:
206,325,90764,1,12,0:0:0:0:
315,377,91159,2,0,P|369:377|420:356,1,110,2|2,0:0|0:0,0:0:0:0:
468,319,91751,2,0,L|473:241,1,55,2|0,0:0|0:0,0:0:0:0:
439,212,92145,6,0,L|444:134,1,55,8|2,0:0|0:0,0:0:0:0:
336,99,92737,2,0,L|339:153,1,55,8|2,0:0|0:0,0:0:0:0:
256,241,93329,1,12,0:0:0:0:
172,153,93723,2,0,L|176:99,1,55,2|12,0:0|0:0,0:0:0:0:
