osu file format v14

[General]
AudioFilename: ZENKI.mp3
AudioLeadIn: 1000
PreviewTime: 56539
Countdown: 0
SampleSet: Soft
StackLeniency: 0.7
Mode: 0
LetterboxInBreaks: 0
WidescreenStoryboard: 0

[Editor]
Bookmarks: 69854
DistanceSpacing: 1.4
BeatDivisor: 4
GridSize: 8
TimelineZoom: 1.8

[Metadata]
Title:Kishin Douji ZENKI (TV Size)
TitleUnicode:鬼神童子ZENKI (TV Size)
Artist:Kageyama Hironobu
ArtistUnicode:影山ヒロノブ
Creator:smallboat
Version:Insane
Source:鬼神童子ZENKI
Tags:opening Anime Japanese jump comic STUDIO DEEN Pony Canyon crazy super ghost god gold light king boss eye blood ova battle fantasy magic girl
BeatmapID:2235221
BeatmapSetID:1067620

[Difficulty]
HPDrainRate:7
CircleSize:4
OverallDifficulty:7.5
ApproachRate:8.5
SliderMultiplier:1.7
SliderTickRate:1

[Events]
//Background and Video events
Video,350,"video.flv"
0,0,"bg1.jpg",0,0
//Break Periods
//Storyboard Layer 0 (Background)
//Storyboard Layer 1 (Fail)
//Storyboard Layer 2 (Pass)
//Storyboard Layer 3 (Foreground)
//Storyboard Layer 4 (Overlay)
//Storyboard Sound Samples

[TimingPoints]
6730,394.529195160442,4,2,1,40,1,0
6730,-100,4,2,1,40,0,0
7124,-100,4,2,1,75,0,0
16987,-100,4,2,1,55,0,0
17382,-100,4,2,1,60,0,0
17776,-100,4,2,1,90,0,0
18565,-100,4,2,2,85,0,0
19749,-100,4,2,2,50,0,0
19946,-100,4,2,2,80,0,0
21327,-100,4,2,2,50,0,0
21524,-100,4,2,2,90,0,0
26061,-100,4,2,2,50,0,0
26259,-100,4,2,2,90,0,0
27640,-100,4,2,2,50,0,0
27837,-100,4,2,2,90,0,0
31190,-100,4,2,2,65,0,0
31782,-100,4,2,2,50,0,0
31979,-100,4,2,2,80,0,0
38095,-100,4,2,2,50,0,0
38292,-100,4,2,2,75,0,0
43815,-100,4,2,2,70,0,0
44407,-100,4,2,2,50,0,0
44604,-100,4,2,2,80,0,0
50720,-100,4,2,2,50,0,0
50917,-100,4,2,2,75,0,0
55454,-100,4,2,2,50,0,0
55848,-100,4,2,2,70,0,0
56637,-100,4,2,2,60,0,0
57229,-90.9090909090909,4,2,2,60,0,1
57427,-90.9090909090909,4,2,2,80,0,1
57624,-90.9090909090909,4,2,2,60,0,1
57821,-90.9090909090909,4,2,2,80,0,1
58610,-90.9090909090909,4,2,2,60,0,1
58807,-90.9090909090909,4,2,2,80,0,1
60385,-90.9090909090909,4,2,2,60,0,1
60583,-90.9090909090909,4,2,2,80,0,1
61372,-90.9090909090909,4,2,2,60,0,1
61569,-90.9090909090909,4,2,2,80,0,1
61766,-90.9090909090909,4,2,2,60,0,1
61964,-90.9090909090909,4,2,2,80,0,1
63542,-90.9090909090909,4,2,2,60,0,1
63739,-90.9090909090909,4,2,2,80,0,1
64528,-90.9090909090909,4,2,2,60,0,1
64725,-90.9090909090909,4,2,2,80,0,1
64923,-90.9090909090909,4,2,2,60,0,1
65120,-90.9090909090909,4,2,2,80,0,1
66698,-90.9090909090909,4,2,2,60,0,1
66895,-90.9090909090909,4,2,2,85,0,1
68079,-90.9090909090909,4,2,2,60,0,1
68276,-90.9090909090909,4,2,2,85,0,1
69854,-86.9565217391304,4,2,2,60,0,1
70051,-86.9565217391304,4,2,2,85,0,1
70249,-86.9565217391304,4,2,2,60,0,1
70446,-86.9565217391304,4,2,2,85,0,1
71235,-86.9565217391304,4,2,2,60,0,1
71432,-86.9565217391304,4,2,2,85,0,1
73997,-86.9565217391304,4,2,2,60,0,1
74194,-86.9565217391304,4,2,2,85,0,1
74391,-86.9565217391304,4,2,2,60,0,1
74589,-86.9565217391304,4,2,2,85,0,1
76167,-86.9565217391304,4,2,2,60,0,1
76364,-86.9565217391304,4,2,2,85,0,1
79126,-86.9565217391304,4,2,2,60,0,1
79323,-86.9565217391304,4,2,2,95,0,1
80704,-86.9565217391304,4,2,2,55,0,1
81098,-86.9565217391304,4,2,2,80,0,1
81690,-100,4,2,2,75,0,0
82874,-100,4,2,2,50,0,0
83071,-100,4,2,2,75,0,0
84452,-100,4,2,2,50,0,0
84649,-100,4,2,2,85,0,0
89186,-100,4,2,2,50,0,0
89383,-100,4,2,2,75,0,0
90764,-100,4,2,2,50,0,0
90961,-100,4,2,2,75,0,0
91159,-100,4,2,3,65,0,0
91948,-100,4,2,3,20,0,0
92145,-100,4,2,1,70,0,0
92342,-100,4,2,1,90,0,0
92737,-100,4,2,1,70,0,0
92934,-100,4,2,1,90,0,0
93329,-100,4,2,1,70,0,0
93920,-100,4,2,2,35,0,0

[Colours]
Combo1 : 225,225,0
Combo2 : 128,0,255
Combo3 : 179,179,255
Combo4 : 205,12,40

[HitObjects]
95,119,6729,5,4,0:0:0:0:
256,48,7124,1,2,0:0:0:0:
417,119,7519,1,8,0:0:0:0:
417,119,7913,2,0,L|426:34,1,85
501,146,8308,6,0,P|403:211|326:124,1,255,8|0,0:0|0:0,0:0:0:0:
417,119,9097,1,2,0:0:0:0:
325,261,9294,2,0,P|247:289|167:263,1,170,2|0,0:0|0:0,0:0:0:0:
167,120,9886,2,0,P|246:94|325:123,1,170,8|2,0:0|0:0,0:0:0:0:
422,307,10675,1,8,0:0:0:0:
422,77,11069,1,2,0:0:0:0:
247,199,11464,6,0,P|164:210|87:177,1,170,8|0,0:0|0:0,0:0:0:0:
21,26,12056,1,2,0:0:0:0:
183,52,12253,1,2,0:0:0:0:
21,26,12450,1,2,0:0:0:0:
180,129,12647,2,0,P|221:122|249:91,1,85
101,49,13042,6,0,L|82:220,1,170,8|2,0:0|0:0,0:0:0:0:
82,217,13831,1,8,0:0:0:0:
121,352,14226,1,0,0:0:0:0:
256,298,14423,1,0,0:0:0:0:
172,110,14620,6,0,L|163:194,1,85,8|0,0:0|0:0,0:0:0:0:
348,194,15015,2,0,L|340:110,1,85
256,10,15409,1,2,0:0:0:0:
256,26,15606,1,2,0:0:0:0:
256,43,15804,1,2,0:0:0:0:
256,59,16001,1,0,0:0:0:0:
163,195,16198,6,0,L|79:177,1,85,8|0,0:0|0:0,0:0:0:0:
349,195,16593,2,0,L|432:177,1,85,2|0,0:0|0:0,0:0:0:0:
357,79,16987,5,8,0:0:0:0:
357,79,17086,1,8,0:0:0:0:
357,79,17185,2,8,L|348:37,1,42.5
163,38,17382,5,8,0:0:0:0:
163,38,17480,1,8,0:0:0:0:
163,38,17579,2,8,L|155:80,1,42.5
163,195,17776,6,0,P|209:291|347:270,1,255,8|0,0:0|0:0,0:0:0:0:
485,125,18565,5,8,0:0:0:0:
321,29,18763,1,0,0:0:0:0:
315,203,18960,1,8,0:0:0:0:
168,121,19157,2,0,L|153:37,1,85,2|0,0:0|0:0,0:0:0:0:
309,186,19552,1,2,0:0:0:0:
168,263,19749,2,0,L|153:346,1,85,12|0,0:0|0:0,0:0:0:0:
299,165,20143,5,2,0:0:0:0:
124,196,20341,1,0,0:0:0:0:
242,320,20538,1,8,0:0:0:0:
376,236,20735,2,0,P|399:200|402:158,1,85,2|0,0:0|0:0,0:0:0:0:
317,34,21130,1,2,0:0:0:0:
127,111,21327,2,0,L|123:195,1,85,12|0,0:0|0:0,0:0:0:0:
36,343,21722,5,2,0:0:0:0:
54,112,21919,1,2,0:0:0:0:
251,231,22116,1,8,0:0:0:0:
119,279,22313,2,0,L|123:195,1,85,2|0,0:0|0:0,0:0:0:0:
192,47,22708,1,2,0:0:0:0:
340,114,22905,2,0,L|424:110,1,85,8|0,0:0|0:0,0:0:0:0:
422,194,23300,6,0,L|425:101,1,85,2|0,0:0|0:0,0:0:0:0:
494,279,23694,1,8,0:0:0:0:
322,252,23892,2,0,L|319:345,1,85,2|0,0:0|0:0,0:0:0:0:
261,187,24286,1,2,0:0:0:0:
190,132,24483,2,0,L|192:47,1,85,8|0,0:0|0:0,0:0:0:0:
51,15,24878,5,8,0:0:0:0:
268,50,25075,1,2,0:0:0:0:
49,134,25272,1,2,0:0:0:0:
188,221,25470,2,0,P|230:214|267:172,1,85,2|0,0:0|0:0,0:0:0:0:
119,179,25864,1,2,0:0:0:0:
329,226,26061,2,0,P|342:186|332:145,1,85,12|0,0:0|0:0,0:0:0:0:
256,36,26456,5,2,0:0:0:0:
180,145,26653,1,0,0:0:0:0:
332,145,26850,1,8,0:0:0:0:
256,271,27048,2,0,L|256:170,1,85,2|0,0:0|0:0,0:0:0:0:
256,65,27442,1,2,0:0:0:0:
256,271,27640,2,0,L|256:373,1,85,12|0,0:0|0:0,0:0:0:0:
146,303,28034,5,2,0:0:0:0:
366,303,28231,1,2,0:0:0:0:
256,186,28429,1,8,0:0:0:0:
109,236,28626,2,0,L|25:219,1,85,4|0,0:0|0:0,0:0:0:0:
256,176,29020,1,2,0:0:0:0:
403,236,29218,2,0,L|486:219,1,85,8|0,0:0|0:0,0:0:0:0:
256,166,29612,1,8,0:0:0:0:
119,146,29809,2,0,L|98:63,1,85,2|2,0:0|0:0,0:0:0:0:
256,156,30204,1,2,0:0:0:0:
393,146,30401,6,0,L|413:63,1,85,2|0,0:0|0:0,0:0:0:0:
393,238,30796,2,0,L|413:320,1,85,2|0,0:0|0:0,0:0:0:0:
309,374,31190,5,2,0:0:0:0:
135,262,31388,1,0,0:0:0:0:
203,374,31585,1,8,0:0:0:0:
191,211,31782,2,0,P|158:186|116:185,1,85,6|0,0:0|0:0,0:0:0:0:
256,276,32177,1,2,0:0:0:0:
320,211,32374,2,0,P|353:186|395:185,1,85,8|0,0:0|0:0,0:0:0:0:
499,283,32768,5,2,0:0:0:0:
395,185,32966,2,0,L|408:101,1,85,0|8,0:0|0:0,0:0:0:0:
321,15,33360,2,0,L|307:98,1,85,2|0,0:0|0:0,0:0:0:0:
256,206,33755,1,2,0:0:0:0:
204,98,33952,2,0,L|191:15,1,85,8|0,0:0|0:0,0:0:0:0:
104,101,34347,5,2,0:0:0:0:
175,221,34544,2,0,P|213:205|255:205,1,85,2|8,0:0|0:0,0:0:0:0:
319,335,34938,2,0,P|280:351|238:351,1,85,2|0,0:0|0:0,0:0:0:0:
108,340,35333,1,2,0:0:0:0:
175,221,35530,1,8,0:0:0:0:
238,351,35727,1,0,0:0:0:0:
36,336,35925,5,2,0:0:0:0:
70,167,36122,2,0,L|78:79,1,85,0|8,0:0|0:0,0:0:0:0:
81,81,36516,2,0,P|117:104|158:100,1,85,0|2,0:0|0:0,0:0:0:0:
256,38,36911,1,2,0:0:0:0:
353,100,37108,2,0,P|394:104|430:81,1,85,8|0,0:0|0:0,0:0:0:0:
331,25,37503,5,2,0:0:0:0:
405,179,37700,1,2,0:0:0:0:
487,35,37897,1,8,0:0:0:0:
296,145,38095,2,0,P|254:151|216:133,1,85,6|0,0:0|0:0,0:0:0:0:
322,14,38489,1,2,0:0:0:0:
154,84,38686,2,0,P|128:114|133:155,1,85,8|0,0:0|0:0,0:0:0:0:
296,145,39081,1,2,0:0:0:0:
154,84,39278,5,0,0:0:0:0:
81,231,39475,1,8,0:0:0:0:
283,229,39673,2,0,L|296:142,1,85,2|0,0:0|0:0,0:0:0:0:
154,84,40067,1,2,0:0:0:0:
283,229,40264,2,0,L|296:316,1,85,8|0,0:0|0:0,0:0:0:0:
147,360,40659,1,2,0:0:0:0:
216,192,40856,6,0,P|174:169|132:174,1,85,0|8,0:0|0:0,0:0:0:0:
139,172,41251,2,0,P|98:161|70:130,1,85,2|0,0:0|0:0,0:0:0:0:
154,84,41645,1,2,0:0:0:0:
256,257,41843,1,8,0:0:0:0:
62,228,42040,1,0,0:0:0:0:
256,53,42237,5,2,0:0:0:0:
373,172,42434,2,0,P|414:161|442:130,1,85,0|8,0:0|0:0,0:0:0:0:
418,14,42829,1,2,0:0:0:0:
418,14,42928,1,2,0:0:0:0:
418,14,43026,2,0,P|377:24|349:55,1,85,2|8,0:0|0:0,0:0:0:0:
489,216,43421,1,8,0:0:0:0:
489,216,43618,1,2,0:0:0:0:
256,309,43815,5,8,0:0:0:0:
256,309,44013,1,2,0:0:0:0:
23,216,44210,1,8,0:0:0:0:
256,235,44407,2,0,L|256:138,1,85,6|0,0:0|0:0,0:0:0:0:
349,56,44802,1,2,0:0:0:0:
408,235,44999,2,0,P|366:242|328:225,1,85,8|0,0:0|0:0,0:0:0:0:
256,77,45393,5,2,0:0:0:0:
104,235,45591,2,0,P|145:242|183:225,1,85,0|8,0:0|0:0,0:0:0:0:
412,113,45985,2,0,B|374:94|374:94|331:96,1,85,2|0,0:0|0:0,0:0:0:0:
256,155,46380,1,2,0:0:0:0:
100,113,46577,2,0,B|138:94|138:94|180:96,1,85,8|0,0:0|0:0,0:0:0:0:
256,176,46971,5,2,0:0:0:0:
256,297,47169,2,0,L|256:382,1,85,2|8,0:0|0:0,0:0:0:0:
476,351,47563,2,0,L|476:266,1,85,2|0,0:0|0:0,0:0:0:0:
327,122,47958,1,2,0:0:0:0:
357,237,48155,1,8,0:0:0:0:
452,151,48352,1,0,0:0:0:0:
426,35,48550,5,2,0:0:0:0:
255,57,48747,2,0,L|162:39,1,85,0|8,0:0|0:0,0:0:0:0:
171,40,49141,2,0,L|78:22,1,85,0|2,0:0|0:0,0:0:0:0:
109,184,49536,1,2,0:0:0:0:
314,116,49733,2,0,L|399:106,1,85,8|0,0:0|0:0,0:0:0:0:
113,278,50128,6,0,L|198:268,1,85,2|2,0:0|0:0,0:0:0:0:
383,183,50522,1,8,0:0:0:0:
196,352,50720,2,0,L|197:268,1,85,6|0,0:0|0:0,0:0:0:0:
403,282,51114,1,2,0:0:0:0:
256,193,51311,5,8,0:0:0:0:
290,373,51509,1,0,0:0:0:0:
146,211,51706,2,0,L|159:127,1,85,2|0,0:0|0:0,0:0:0:0:
352,127,52100,2,0,L|366:211,1,85,8|0,0:0|0:0,0:0:0:0:
126,211,52495,6,0,L|139:127,1,85,2|0,0:0|0:0,0:0:0:0:
372,127,52889,2,0,L|386:211,1,85,8|0,0:0|0:0,0:0:0:0:
197,268,53284,5,2,0:0:0:0:
256,51,53481,1,2,0:0:0:0:
392,127,53678,2,0,L|406:211,1,85,8|0,0:0|0:0,0:0:0:0:
256,333,54073,5,0,0:0:0:0:
332,80,54270,1,0,0:0:0:0:
315,268,54468,1,8,0:0:0:0:
258,137,54665,1,0,0:0:0:0:
197,268,54862,1,8,0:0:0:0:
180,80,55059,2,0,L|166:164,1,85,2|8,0:0|0:0,0:0:0:0:
364,306,55454,1,6,0:0:0:0:
364,306,55848,5,8,0:0:0:0:
256,193,56046,1,8,0:0:0:0:
148,306,56243,1,8,0:0:0:0:
159,147,56440,1,8,0:0:0:0:
354,139,56637,6,0,L|367:55,2,85
159,147,57229,6,0,L|143:54,1,93.5000028533936,6|0,0:0|0:0,0:0:0:0:
326,237,57624,2,0,P|406:221|446:114,1,187.000005706787,14|2,0:0|0:0,0:0:0:0:
255,46,58216,6,0,L|255:166,1,93.5000028533936,0|8,0:0|0:0,0:0:0:0:
255,338,58610,2,0,L|255:240,1,93.5000028533936,4|0,0:0|0:0,0:0:0:0:
360,103,59005,1,2,0:0:0:0:
152,103,59202,1,8,0:0:0:0:
104,274,59399,6,0,P|63:267|24:224,1,93.5000028533936
50,54,59794,1,2,0:0:0:0:
170,205,59991,1,8,0:0:0:0:
18,145,60188,1,0,0:0:0:0:
151,13,60385,6,0,P|192:20|231:63,1,93.5000028533936,6|0,0:0|0:0,0:0:0:0:
180,283,60780,2,0,L|156:95,1,187.000005706787,8|2,0:0|0:0,0:0:0:0:
278,187,61372,2,0,P|312:211|365:214,1,93.5000028533936,4|8,0:0|0:0,0:0:0:0:
473,46,61766,2,0,P|439:22|386:19,1,93.5000028533936,6|0,0:0|0:0,0:0:0:0:
266,116,62161,1,2,0:0:0:0:
288,287,62358,1,8,0:0:0:0:
459,226,62555,6,0,P|483:192|486:139,1,93.5000028533936,2|0,0:0|0:0,0:0:0:0:
424,28,62950,1,2,0:0:0:0:
317,193,63147,1,8,0:0:0:0:
486,141,63344,1,0,0:0:0:0:
338,7,63542,1,6,0:0:0:0:
338,7,63936,2,0,L|151:29,1,187.000005706787,8|2,0:0|0:0,0:0:0:0:
93,133,64528,6,0,L|185:143,1,93.5000028533936,6|8,0:0|0:0,0:0:0:0:
419,251,64923,2,0,L|327:241,1,93.5000028533936,6|0,0:0|0:0,0:0:0:0:
293,110,65317,1,2,0:0:0:0:
457,181,65514,1,8,0:0:0:0:
315,333,65712,2,0,L|325:241,1,93.5000028533936,2|0,0:0|0:0,0:0:0:0:
425,108,66106,1,2,0:0:0:0:
419,251,66303,1,8,0:0:0:0:
419,251,66501,1,0,0:0:0:0:
293,110,66698,6,0,L|278:16,1,93.5000028533936,6|0,0:0|0:0,0:0:0:0:
218,284,67092,2,0,L|233:378,1,93.5000028533936,8|0,0:0|0:0,0:0:0:0:
164,154,67487,1,2,0:0:0:0:
348,230,67684,2,0,L|442:215,1,93.5000028533936,2|8,0:0|0:0,0:0:0:0:
164,230,68079,6,0,L|70:215,1,93.5000028533936,4|0,0:0|0:0,0:0:0:0:
35,354,68473,1,8,0:0:0:0:
214,284,68671,1,0,0:0:0:0:
71,214,68868,1,8,0:0:0:0:
146,363,69065,1,0,0:0:0:0:
164,200,69262,2,0,L|70:215,1,93.5000028533936,8|8,0:0|0:0,0:0:0:0:
25,97,69657,1,8,0:0:0:0:
198,126,69854,6,0,L|297:108,1,97.7500018644333,6|0,0:0|0:0,0:0:0:0:
424,206,70249,2,0,P|344:230|241:191,1,195.500003728867,14|2,0:0|0:0,0:0:0:0:
460,14,70840,2,0,L|468:111,1,97.7500018644333,2|8,0:0|0:0,0:0:0:0:
460,370,71235,2,0,L|468:272,1,97.7500018644333,4|0,0:0|0:0,0:0:0:0:
379,134,71630,1,2,0:0:0:0:
393,283,71827,1,8,0:0:0:0:
249,316,72024,6,0,L|243:216,1,97.7500018644333,2|0,0:0|0:0,0:0:0:0:
133,134,72419,1,2,0:0:0:0:
42,225,72616,1,8,0:0:0:0:
71,48,72813,1,0,0:0:0:0:
262,56,73010,6,0,L|251:162,1,97.7500018644333,2|0,0:0|0:0,0:0:0:0:
441,48,73405,2,0,P|362:18|260:59,1,195.500003728867,8|2,0:0|0:0,0:0:0:0:
193,237,73997,2,0,P|146:230|107:201,1,97.7500018644333,4|8,0:0|0:0,0:0:0:0:
318,237,74391,2,0,P|365:230|404:201,1,97.7500018644333,6|0,0:0|0:0,0:0:0:0:
334,154,74786,1,2,0:0:0:0:
342,320,74983,1,8,0:0:0:0:
170,320,75180,6,0,P|122:313|83:284,1,97.7500018644333,2|0,0:0|0:0,0:0:0:0:
178,155,75575,1,2,0:0:0:0:
256,50,75772,1,8,0:0:0:0:
334,154,75969,1,0,0:0:0:0:
256,334,76167,6,0,L|256:234,1,97.7500018644333,6|0,0:0|0:0,0:0:0:0:
185,79,76561,2,0,L|89:55,1,97.7500018644333,8|0,0:0|0:0,0:0:0:0:
256,161,76956,1,2,0:0:0:0:
256,161,77153,1,2,0:0:0:0:
327,79,77350,2,0,L|423:55,1,97.7500018644333,8|0,0:0|0:0,0:0:0:0:
350,173,77745,5,2,0:0:0:0:
350,173,78139,2,0,L|326:77,1,97.7500018644333,8|0,0:0|0:0,0:0:0:0:
185,305,78534,2,0,L|162:211,1,97.7500018644333,2|2,0:0|0:0,0:0:0:0:
226,105,78928,1,8,0:0:0:0:
286,279,79126,6,0,L|382:255,1,97.7500018644333,6|0,0:0|0:0,0:0:0:0:
436,189,79520,1,2,0:0:0:0:
286,279,79717,2,0,L|310:375,1,97.7500018644333,8|0,0:0|0:0,0:0:0:0:
381,255,80112,1,8,0:0:0:0:
479,368,80309,2,0,L|486:316,1,48.8750009322167,2|0,0:0|0:0,0:0:0:0:
493,284,80506,1,2,0:0:0:0:
470,109,80704,6,0,P|438:73|394:54,1,97.7500018644333,6|0,0:0|0:0,0:0:0:0:
175,102,81098,1,10,0:0:0:0:
337,282,81296,1,10,0:0:0:0:
337,282,81690,5,8,0:0:0:0:
337,102,81887,1,8,0:0:0:0:
175,282,82085,1,8,0:0:0:0:
384,221,82282,2,0,P|406:184|408:142,1,85,4|0,0:0|0:0,0:0:0:0:
256,70,82676,1,2,0:0:0:0:
103,142,82874,6,0,P|105:184|127:221,1,85,12|0,0:0|0:0,0:0:0:0:
256,314,83268,1,2,0:0:0:0:
407,369,83465,1,0,0:0:0:0:
512,273,83663,1,8,0:0:0:0:
384,221,83860,2,0,L|300:236,1,85,2|0,0:0|0:0,0:0:0:0:
256,115,84254,1,2,0:0:0:0:
128,221,84452,2,0,L|211:236,1,85,12|0,0:0|0:0,0:0:0:0:
476,205,84846,5,0,0:0:0:0:
335,146,85044,1,2,0:0:0:0:
316,317,85241,1,8,0:0:0:0:
177,146,85438,2,0,L|165:55,1,85,2|0,0:0|0:0,0:0:0:0:
256,185,85833,1,2,0:0:0:0:
335,146,86030,2,0,L|347:55,1,85,8|0,0:0|0:0,0:0:0:0:
428,311,86424,5,2,0:0:0:0:
428,311,86819,1,8,0:0:0:0:
296,347,87016,2,0,P|255:358|214:348,1,85,2|0,0:0|0:0,0:0:0:0:
84,311,87411,1,2,0:0:0:0:
215,273,87608,2,0,P|256:283|297:272,1,85,8|0,0:0|0:0,0:0:0:0:
489,218,88003,5,8,0:0:0:0:
498,51,88200,1,0,0:0:0:0:
411,183,88397,1,8,0:0:0:0:
296,37,88594,2,0,P|255:26|214:36,1,85,2|0,0:0|0:0,0:0:0:0:
101,183,88989,1,2,0:0:0:0:
215,111,89186,2,0,P|256:101|297:112,1,85,12|0,0:0|0:0,0:0:0:0:
422,266,89581,5,2,0:0:0:0:
256,219,89778,1,0,0:0:0:0:
205,358,89975,1,8,0:0:0:0:
337,276,90172,2,0,L|421:265,1,85,2|0,0:0|0:0,0:0:0:0:
307,358,90567,1,2,0:0:0:0:
175,276,90764,2,0,L|90:265,1,85,12|0,0:0|0:0,0:0:0:0:
422,194,91159,5,2,0:0:0:0:
256,281,91356,1,2,0:0:0:0:
90,194,91553,1,2,0:0:0:0:
234,45,91751,2,0,P|264:19|289:48,1,85,2|0,0:0|0:0,0:0:0:0:
144,140,92145,5,8,0:0:0:0:
159,65,92342,2,0,L|151:24,2,42.5,2|2|8,0:0|0:0|0:0,0:0:0:0:
368,244,92737,5,8,0:0:0:0:
353,319,92934,2,0,L|361:360,2,42.5,2|2|8,0:0|0:0|0:0,0:0:0:0:
144,244,93329,5,12,0:0:0:0:
368,140,93723,1,2,0:0:0:0:
144,244,93920,1,12,0:0:0:0:
