osu file format v14

[General]
AudioFilename: ZENKI.mp3
AudioLeadIn: 1000
PreviewTime: 56539
Countdown: 0
SampleSet: Soft
StackLeniency: 0.7
Mode: 0
LetterboxInBreaks: 0
WidescreenStoryboard: 0

[Editor]
Bookmarks: 69854
DistanceSpacing: 1.2
BeatDivisor: 4
GridSize: 4
TimelineZoom: 1.7

[Metadata]
Title:Kishin Douji ZENKI (TV Size)
TitleUnicode:鬼神童子ZENKI (TV Size)
Artist:Kageyama Hironobu
ArtistUnicode:影山ヒロノブ
Creator:smallboat
Version:Easy
Source:鬼神童子ZENKI
Tags:opening Anime Japanese jump comic STUDIO DEEN Pony Canyon crazy super ghost god gold light king boss eye blood ova battle fantasy magic girl
BeatmapID:2250267
BeatmapSetID:1067620

[Difficulty]
HPDrainRate:2
CircleSize:2
OverallDifficulty:2
ApproachRate:3
SliderMultiplier:0.8
SliderTickRate:1

[Events]
//Background and Video events
0,0,"bg2.jpg",0,0
Video,350,"video.flv"
//Break Periods
//Storyboard Layer 0 (Background)
//Storyboard Layer 1 (Fail)
//Storyboard Layer 2 (Pass)
//Storyboard Layer 3 (Foreground)
//Storyboard Layer 4 (Overlay)
//Storyboard Sound Samples

[TimingPoints]
6730,394.529195160442,4,2,1,40,1,0
6730,-100,4,2,1,40,0,0
7124,-100,4,2,1,75,0,0
16987,-100,4,2,1,55,0,0
17382,-100,4,2,1,60,0,0
17776,-100,4,2,1,90,0,0
18565,-100,4,2,2,85,0,0
19749,-100,4,2,2,50,0,0
19946,-100,4,2,2,80,0,0
21327,-100,4,2,2,50,0,0
21524,-100,4,2,2,90,0,0
26061,-100,4,2,2,50,0,0
26259,-100,4,2,2,90,0,0
27640,-100,4,2,2,50,0,0
27837,-100,4,2,2,90,0,0
31190,-100,4,2,2,65,0,0
31782,-100,4,2,2,50,0,0
31979,-100,4,2,2,80,0,0
38095,-100,4,2,2,50,0,0
38292,-100,4,2,2,75,0,0
43815,-100,4,2,2,70,0,0
44407,-100,4,2,2,50,0,0
44604,-100,4,2,2,80,0,0
50720,-100,4,2,2,50,0,0
50917,-100,4,2,2,75,0,0
55454,-100,4,2,2,50,0,0
55848,-100,4,2,2,70,0,0
56637,-100,4,2,2,60,0,0
57229,-100,4,2,2,60,0,1
57427,-100,4,2,2,80,0,1
57624,-100,4,2,2,60,0,1
57821,-100,4,2,2,80,0,1
58610,-100,4,2,2,60,0,1
58807,-100,4,2,2,80,0,1
60385,-100,4,2,2,60,0,1
60583,-100,4,2,2,80,0,1
61372,-100,4,2,2,60,0,1
61569,-100,4,2,2,80,0,1
61766,-100,4,2,2,60,0,1
61964,-100,4,2,2,80,0,1
63542,-100,4,2,2,60,0,1
63739,-100,4,2,2,80,0,1
64528,-100,4,2,2,60,0,1
64725,-100,4,2,2,80,0,1
64923,-100,4,2,2,60,0,1
65120,-100,4,2,2,80,0,1
66698,-100,4,2,2,60,0,1
66895,-100,4,2,2,85,0,1
68079,-100,4,2,2,60,0,1
68276,-100,4,2,2,85,0,1
69854,-100,4,2,2,60,0,1
70051,-100,4,2,2,85,0,1
70249,-100,4,2,2,60,0,1
70446,-100,4,2,2,85,0,1
71235,-100,4,2,2,60,0,1
71432,-100,4,2,2,85,0,1
73997,-100,4,2,2,60,0,1
74194,-100,4,2,2,85,0,1
74391,-100,4,2,2,60,0,1
74589,-100,4,2,2,85,0,1
76167,-100,4,2,2,60,0,1
76364,-100,4,2,2,85,0,1
79126,-100,4,2,2,60,0,1
79323,-100,4,2,2,95,0,1
80704,-100,4,2,2,55,0,1
81098,-100,4,2,2,80,0,1
81690,-100,4,2,2,75,0,0
82874,-100,4,2,2,50,0,0
83071,-100,4,2,2,75,0,0
84452,-100,4,2,2,50,0,0
84649,-100,4,2,2,85,0,0
89186,-100,4,2,2,50,0,0
89383,-100,4,2,2,75,0,0
90764,-100,4,2,2,50,0,0
90961,-100,4,2,2,75,0,0
91159,-100,4,2,3,65,0,0
91948,-100,4,2,3,20,0,0
92145,-100,4,2,1,70,0,0
92342,-100,4,2,1,90,0,0
92737,-100,4,2,1,70,0,0
92934,-100,4,2,1,90,0,0
93329,-100,4,2,1,70,0,0
93920,-100,4,2,2,35,0,0

[Colours]
Combo1 : 225,225,0
Combo2 : 128,0,255
Combo3 : 179,179,255
Combo4 : 205,12,40

[HitObjects]
88,196,6729,6,0,B|32:156|32:156|36:84|36:84|48:60,1,160,4|8,0:0|0:0,0:0:0:0:
180,200,8308,2,0,B|212:216|212:216|244:148|244:148|336:104,1,200,8|2,0:0|0:0,0:0:0:0:
468,128,9886,2,0,L|456:296,1,160,8|8,0:0|0:0,0:0:0:0:
404,368,11069,1,2,0:0:0:0:
320,320,11464,6,0,B|240:300|240:300|147:320,1,160,8|2,0:0|0:0,0:0:0:0:
84,368,12647,1,0,0:0:0:0:
15,299,13042,2,0,P|0:222|25:148,1,160,8|8,0:0|0:0,0:0:0:0:
121,157,14226,1,0,0:0:0:0:
180,82,14620,6,0,L|347:90,1,160,8|2,0:0|0:0,0:0:0:0:
424,45,15804,1,2,0:0:0:0:
487,116,16198,2,0,L|498:282,2,160,0|0|8,0:0|0:0|0:0,0:0:0:0:
316,204,18565,6,0,P|308:263|323:320,2,120,8|2|12,0:0|0:0|0:0,0:0:0:0:
369,123,20143,2,0,P|314:104|259:125,2,120,2|2|12,0:0|0:0|0:0,0:0:0:0:
400,215,21722,6,0,P|441:190|466:118,1,120,2|2,0:0|0:0,0:0:0:0:
372,16,22905,1,8,0:0:0:0:
277,32,23300,1,2,0:0:0:0:
210,102,23694,2,0,P|137:131|60:116,1,160,8|8,0:0|0:0,0:0:0:0:
14,200,24878,6,0,L|4:319,2,120,8|2|12,0:0|0:0|0:0,0:0:0:0:
101,240,26456,2,0,L|91:359,2,120,2|2|12,0:0|0:0|0:0,0:0:0:0:
197,240,28034,6,0,P|256:238|309:211,1,120,2|4,0:0|0:0,0:0:0:0:
346,120,29020,2,0,P|397:91|456:97,1,120,2|8,0:0|0:0,0:0:0:0:
496,184,30007,1,2,0:0:0:0:
478,280,30401,1,2,0:0:0:0:
399,335,30796,1,2,0:0:0:0:
305,312,31190,1,2,0:0:0:0:
171,365,31782,6,0,P|112:358|65:313,1,120,6|8,0:0|0:0,0:0:0:0:
28,231,32768,1,2,0:0:0:0:
32,87,33360,2,0,L|151:71,1,120,2|8,0:0|0:0,0:0:0:0:
199,154,34347,6,0,P|163:200|150:258,2,120,2|2|8,0:0|0:0|0:0,0:0:0:0:
277,209,35925,1,2,0:0:0:0:
335,285,36319,1,8,0:0:0:0:
415,337,36714,2,0,P|429:304|427:260,1,80,2|8,0:0|0:0,0:0:0:0:
377,178,37503,1,2,0:0:0:0:
351,36,38095,6,0,L|470:20,1,120,6|8,0:0|0:0,0:0:0:0:
487,114,39081,1,2,0:0:0:0:
344,133,39673,2,0,P|303:158|275:227,1,120,2|8,0:0|0:0,0:0:0:0:
262,317,40659,6,0,P|204:287|179:235,2,120,2|2|8,0:0|0:0|0:0,0:0:0:0:
357,305,42237,1,2,0:0:0:0:
406,222,42632,1,8,0:0:0:0:
358,138,43026,2,0,L|278:131,1,80,2|8,0:0|0:0,0:0:0:0:
210,62,43815,6,0,P|156:37|98:51,1,120,8|6,0:0|0:0,0:0:0:0:
13,166,44999,1,8,0:0:0:0:
101,202,45393,2,0,P|154:178|212:192,2,120,2|2|8,0:0|0:0|0:0,0:0:0:0:
65,291,46971,6,0,P|88:322|169:342,1,120,2|2,0:0|0:0,0:0:0:0:
305,318,48155,1,8,0:0:0:0:
263,231,48550,2,0,P|206:238|150:207,2,120,2|0|8,0:0|0:0|0:0,0:0:0:0:
226,142,50128,6,0,B|237:88|237:88|302:60,1,120,2|6,0:0|0:0,0:0:0:0:
448,41,51311,1,8,0:0:0:0:
447,137,51706,2,0,P|451:176|475:207,1,80,2|8,0:0|0:0,0:0:0:0:
459,302,52495,2,0,P|437:335|401:352,1,80,2|8,0:0|0:0,0:0:0:0:
331,286,53284,5,2,0:0:0:0:
374,200,53678,1,8,0:0:0:0:
378,103,54073,2,0,L|298:93,1,80,0|8,0:0|0:0,0:0:0:0:
215,50,54862,2,0,L|95:34,2,120,8|6|8,0:0|0:0|0:0,0:0:0:0:
241,142,56440,1,8,0:0:0:0:
415,221,57229,6,0,L|420:141,1,80,6|14,0:0|0:0,0:0:0:0:
401,47,58018,2,0,B|345:21|345:21|286:24,1,120,2|4,0:0|0:0,0:0:0:0:
197,137,59202,2,0,B|117:145|117:145|42:116,1,160,8|8,0:0|0:0,0:0:0:0:
1,202,60385,5,6,0:0:0:0:
42,288,60780,1,8,0:0:0:0:
131,321,61175,2,0,P|189:313|239:279,1,120,2|6,0:0|0:0,0:0:0:0:
290,145,62358,2,0,P|366:126|441:152,1,160,8|8,0:0|0:0,0:0:0:0:
489,235,63542,6,0,L|475:313,1,80,6|8,0:0|0:0,0:0:0:0:
393,363,64331,2,0,P|332:371|263:345,1,120,2|6,0:0|0:0,0:0:0:0:
200,230,65514,2,0,P|248:169|324:148,1,160,8|8,0:0|0:0,0:0:0:0:
414,182,66698,5,6,0:0:0:0:
488,121,67092,1,8,0:0:0:0:
449,34,67487,2,0,L|329:18,1,120,2|4,0:0|0:0,0:0:0:0:
238,49,68473,2,0,L|118:33,1,120,8|0,0:0|0:0,0:0:0:0:
26,59,69460,1,8,0:0:0:0:
52,151,69854,6,0,L|131:141,1,80,6|14,0:0|0:0,0:0:0:0:
225,160,70643,2,0,B|283:174|283:174|340:156,1,120,2|4,0:0|0:0,0:0:0:0:
461,77,71827,2,0,B|495:153|495:153|490:229,1,160,8|8,0:0|0:0,0:0:0:0:
453,318,73010,5,2,0:0:0:0:
357,327,73405,1,8,0:0:0:0:
290,260,73799,2,0,P|235:239|177:247,1,120,2|6,0:0|0:0,0:0:0:0:
82,356,74983,1,8,0:0:0:0:
24,278,75378,2,0,L|19:198,1,80,0|8,0:0|0:0,0:0:0:0:
40,104,76167,6,0,L|35:24,1,80,6|8,0:0|0:0,0:0:0:0:
128,1,76956,2,0,L|132:80,1,80,2|8,0:0|0:0,0:0:0:0:
192,155,77745,1,2,0:0:0:0:
284,182,78139,1,8,0:0:0:0:
360,124,78534,2,0,P|416:105|472:124,2,120,2|6|8,0:0|0:0|0:0,0:0:0:0:
418,200,80112,5,8,0:0:0:0:
449,340,80704,2,0,B|393:353|393:353|333:335,1,120,6|10,0:0|0:0,0:0:0:0:
266,265,81690,6,0,B|208:252|208:252|146:265,1,120,8|4,0:0|0:0,0:0:0:0:
53,372,82874,5,12,0:0:0:0:
23,280,83268,2,0,B|12:222|12:222|27:163,1,120,2|2,0:0|0:0,0:0:0:0:
87,31,84452,1,12,0:0:0:0:
176,65,84846,6,0,B|232:80|232:80|304:65,1,120,0|2,0:0|0:0,0:0:0:0:
421,3,86030,1,8,0:0:0:0:
473,83,86424,1,2,0:0:0:0:
464,178,86819,2,0,P|388:199|312:178,1,160,8|8,0:0|0:0,0:0:0:0:
248,106,88003,6,0,B|188:93|188:93|130:104,1,120,8|2,0:0|0:0,0:0:0:0:
30,207,89186,1,12,0:0:0:0:
63,296,89581,6,0,B|114:270|114:270|174:285,1,120,2|2,0:0|0:0,0:0:0:0:
305,346,90764,1,12,0:0:0:0:
397,370,91159,2,0,B|450:337|450:337|468:283,1,120,2|2,0:0|0:0,0:0:0:0:
416,202,92145,6,0,L|401:82,2,120,8|8|12,0:0|0:0|0:0,0:0:0:0:
327,239,93723,2,0,L|285:239,1,40,2|12,0:0|0:0,0:0:0:0:
