osu file format v14

[General]
AudioFilename: audio.mp3
AudioLeadIn: 0
PreviewTime: 3997
Countdown: 0
SampleSet: Normal
StackLeniency: 0.3
Mode: 0
LetterboxInBreaks: 0
WidescreenStoryboard: 1

[Editor]
DistanceSpacing: 2.2
BeatDivisor: 4
GridSize: 32
TimelineZoom: 1

[Metadata]
Title:Battle of Omega (GAME OP size)
TitleUnicode:Battle of Omega (GAME OP size)
Artist:Kageyama Hironobu
ArtistUnicode:影山ヒロノブ
Creator:seselis1
Version:Take Your Chance!
Source:Dragon Ball: Raging Blast 2
Tags:ドラゴンボール レイジングブラスト 2 dbz J-POP opening
BeatmapID:1598674
BeatmapSetID:759592

[Difficulty]
HPDrainRate:6.5
CircleSize:4
OverallDifficulty:8.5
ApproachRate:9.5
SliderMultiplier:1.8
SliderTickRate:1

[Events]
//Background and Video events
0,0,"bg.jpg",0,0
//Break Periods
//Storyboard Layer 0 (Background)
//Storyboard Layer 1 (Fail)
//Storyboard Layer 2 (Pass)
//Storyboard Layer 3 (Foreground)
//Storyboard Sound Samples

[TimingPoints]
2232,306.122448979592,4,1,2,40,1,0
4221,-125,4,1,2,40,0,0
4451,-125,4,1,3,40,0,0
4527,-66.6666666666667,4,1,2,60,0,1
9272,-100,4,1,2,60,0,1
9502,-100,4,1,3,60,0,1
9578,-66.6666666666667,4,1,2,60,0,1
14017,-100,4,1,2,60,0,0
14247,-100,4,1,3,60,0,0
14323,-66.6666666666667,4,1,2,60,0,1
19068,-100,4,1,2,60,0,1
19374,-66.6666666666667,4,1,2,60,0,1
24272,-125,4,1,2,40,0,0
29170,-83.3333333333333,4,1,2,50,0,0
29476,-100,4,1,2,50,0,0
38660,-83.3333333333333,4,1,2,50,0,0
38966,-83.3333333333333,4,1,2,50,0,0
39272,-100,4,1,2,50,0,0
41109,-83.3333333333333,4,1,2,50,0,0
41415,-100,4,1,2,50,0,0
48762,-83.3333333333333,4,1,2,50,0,0
58099,-125,4,1,2,40,0,0
58328,-125,4,1,3,40,0,0
58405,-66.6666666666667,4,1,2,60,0,1
63150,-100,4,1,2,60,0,1
63379,-100,4,1,3,60,0,1
63456,-66.6666666666667,4,1,2,60,0,1
67895,-100,4,1,2,40,0,0
68124,-100,4,1,3,40,0,0
68201,-66.6666666666667,4,1,2,60,0,1
72946,-100,4,1,2,60,0,1
73175,-100,4,1,3,60,0,1
73252,-66.6666666666667,4,1,2,60,0,1
78150,-100,4,1,2,40,0,0
79221,-83.3333333333333,4,1,2,40,0,0
80599,-125,4,1,2,40,0,0
85344,-100,4,1,2,50,0,0
91160,-83.3333333333333,4,1,2,50,0,0
91925,-83.3333333333333,4,1,3,50,0,0

[Colours]
Combo1 : 49,221,173
Combo2 : 230,230,0
Combo3 : 255,128,64
SliderBorder : 54,169,166
SliderTrackOverride : 255,255,155

[HitObjects]
0,115,2231,6,0,L|101:101,1,90,0|0,0:0|0:0,0:0:0:0:
266,72,2537,1,0,0:0:0:0:
455,231,2690,2,0,L|354:217,1,90,10|0,0:0|0:0,0:0:0:0:
189,188,2996,1,0,0:0:0:0:
288,337,3149,1,8,0:0:0:0:
266,72,3302,5,10,0:0:0:0:
266,72,3608,1,8,0:0:0:0:
113,280,3761,1,10,0:0:0:0:
113,280,4067,1,10,0:0:0:0:
80,138,4221,2,0,P|136:130|185:155,1,108,10|0,0:0|0:0,0:0:0:0:
302,161,4527,6,0,P|216:171|219:-5,1,270.000010299683,6|0,0:0|3:0,0:0:0:0:
334,262,4987,1,8,0:0:0:0:
382,84,5140,1,0,0:0:0:0:
464,352,5293,1,2,3:0:0:0:
188,293,5446,1,2,0:0:0:0:
382,84,5599,1,8,0:0:0:0:
193,380,5752,6,0,P|107:323|193:203,1,270.000010299683,2|0,3:0|3:0,0:0:0:0:
383,375,6211,1,8,0:0:0:0:
188,293,6364,1,0,0:0:0:0:
445,176,6517,1,2,3:0:0:0:
169,116,6670,1,2,0:0:0:0:
249,382,6823,1,8,0:0:0:0:
413,78,6976,6,0,L|258:99,1,135.000005149842,2|0,3:0|0:0,0:0:0:0:
96,316,7283,1,0,3:0:0:0:
359,221,7436,2,0,L|201:201,1,135.000005149842,10|0,0:0|0:0,0:0:0:0:
473,325,7742,1,2,3:0:0:0:
428,170,7895,1,0,0:0:0:0:
215,340,8048,1,10,0:0:0:0:
511,170,8201,6,0,P|490:107|421:88,1,135.000005149842,2|0,3:0|0:0,0:0:0:0:
171,184,8507,1,0,3:0:0:0:
381,337,8660,1,8,0:0:0:0:
245,241,8813,1,0,0:0:0:0:
511,170,8966,1,2,3:0:0:0:
381,337,9119,1,0,3:0:0:0:
336,33,9272,2,0,P|383:22|459:76,1,135,12|0,0:0|0:0,0:0:0:0:
366,187,9578,6,0,P|303:71|357:22,1,202.500007724762,6|0,0:0|0:0,0:0:0:0:
379,104,9885,1,10,0:0:0:0:
184,36,10038,1,0,3:0:0:0:
238,312,10191,1,2,0:0:0:0:
202,130,10344,1,0,3:0:0:0:
100,383,10497,1,10,0:0:0:0:
371,356,10650,5,2,0:0:0:0:
202,130,10803,1,0,3:0:0:0:
238,312,10956,1,0,0:0:0:0:
249,31,11109,2,0,P|174:17|118:57,1,135.000005149842,10|0,0:0|3:0,0:0:0:0:
114,325,11415,2,0,P|190:339|246:300,1,135.000005149842,2|0,0:0|3:0,0:0:0:0:
20,99,11721,2,0,L|67:254,1,135.000005149842,10|0,0:0|0:0,0:0:0:0:
354,257,12027,6,0,L|308:102,1,135.000005149842,2|0,3:0|0:0,0:0:0:0:
185,374,12334,1,8,0:0:0:0:
390,364,12487,1,0,3:0:0:0:
187,165,12640,2,0,L|233:320,1,135.000005149842,0|0,3:0|3:0,0:0:0:0:
480,144,12946,1,10,0:0:0:0:
180,49,13099,5,2,0:0:0:0:
333,285,13252,1,0,3:0:0:0:
1,271,13405,1,8,0:0:0:0:
235,136,13558,1,8,0:0:0:0:
24,122,13711,1,0,3:0:0:0:
333,285,13864,1,10,0:0:0:0:
355,75,14017,2,0,L|208:148,1,135,10|0,0:0|0:0,0:0:0:0:
215,281,14323,6,0,L|251:-1,1,270.000010299683,6|0,0:0|3:0,0:0:0:0:
100,275,14783,1,8,0:0:0:0:
308,196,14936,1,0,0:0:0:0:
6,252,15089,1,2,3:0:0:0:
262,379,15242,1,2,0:0:0:0:
237,96,15395,1,8,0:0:0:0:
20,347,15548,6,0,L|297:283,1,270.000010299683,2|0,3:0|3:0,0:0:0:0:
463,49,16008,1,8,0:0:0:0:
360,185,16161,1,0,0:0:0:0:
158,7,16313,1,2,3:0:0:0:
360,185,16466,1,2,0:0:0:0:
83,249,16619,1,8,0:0:0:0:
452,142,16772,6,0,L|429:305,1,135.000005149842,2|0,3:0|0:0,0:0:0:0:
164,368,17078,1,0,3:0:0:0:
249,98,17232,2,0,L|275:260,1,135.000005149842,10|0,0:0|0:0,0:0:0:0:
39,75,17538,1,2,3:0:0:0:
234,18,17691,1,0,0:0:0:0:
29,211,17844,1,8,0:0:0:0:
348,114,17997,6,0,L|501:65,1,135.000005149842,2|0,3:0|0:0,0:0:0:0:
283,322,18303,1,0,3:0:0:0:
316,34,18456,1,8,0:0:0:0:
296,219,18609,1,0,0:0:0:0:
108,10,18762,1,2,3:0:0:0:
23,277,18915,1,0,3:0:0:0:
296,219,19068,2,0,P|261:175|207:163,1,90,10|8,0:0|0:0,0:0:0:0:
125,147,19298,1,8,0:0:0:0:
125,147,19374,6,0,L|329:73,1,202.500007724762,6|0,0:0|0:0,0:0:0:0:
259,13,19680,1,10,0:0:0:0:
412,162,19834,1,0,3:0:0:0:
159,259,19987,1,2,0:0:0:0:
328,195,20140,1,0,3:0:0:0:
65,294,20293,1,10,0:0:0:0:
263,93,20446,5,2,0:0:0:0:
293,373,20599,1,0,3:0:0:0:
161,260,20752,1,0,0:0:0:0:
378,62,20905,2,0,L|357:202,1,135.000005149842,10|0,0:0|3:0,0:0:0:0:
66,75,21211,2,0,L|219:54,1,135.000005149842,2|0,0:0|3:0,0:0:0:0:
103,320,21517,2,0,L|81:166,1,135.000005149842,10|0,0:0|0:0,0:0:0:0:
339,326,21823,6,0,L|185:305,1,135.000005149842,2|0,3:0|0:0,0:0:0:0:
296,28,22129,1,8,0:0:0:0:
443,297,22283,1,0,3:0:0:0:
156,174,22436,1,0,3:0:0:0:
378,176,22589,1,0,3:0:0:0:
96,81,22742,1,8,0:0:0:0:
336,384,22895,5,10,0:0:0:0:
336,384,23201,1,8,0:0:0:0:
411,6,23354,1,10,0:0:0:0:
62,244,24272,6,0,L|34:155,2,72,12|0|2,0:0|0:0|0:0,0:0:0:0:
94,324,24732,1,0,3:0:0:0:
185,211,24885,2,0,P|118:198|56:261,1,144,8|2,0:0|0:0,0:0:0:0:
194,302,25344,6,0,P|262:316|324:252,1,144,8|8,0:0|0:0,0:0:0:0:
314,123,25803,1,2,0:0:0:0:
435,203,25956,1,0,3:0:0:0:
442,56,26109,2,0,L|313:123,1,144,8|2,0:0|0:0,0:0:0:0:
237,203,26568,1,0,0:0:0:0:
228,56,26721,22,0,L|151:17,2,72,8|0|2,0:0|0:0|0:0,0:0:0:0:
237,203,27180,1,0,3:0:0:0:
107,270,27334,2,0,P|78:211|110:137,1,144,8|2,0:0|0:0,0:0:0:0:
237,203,27793,1,8,0:0:0:0:
194,316,27946,1,0,0:0:0:0:
187,89,28099,5,10,0:0:0:0:
372,189,28252,1,10,0:0:0:0:
194,316,28405,2,0,L|268:307,1,72,10|8,0:0|0:0,0:0:0:0:
443,199,28711,2,0,L|371:188,1,72,10|0,0:0|0:0,0:0:0:0:
238,207,29017,1,0,0:0:0:0:
252,257,29094,1,0,0:0:0:0:
267,307,29170,22,0,L|387:289,1,107.999996704102,4|0,0:0|0:0,0:0:0:0:
363,90,29476,2,0,P|313:74|264:95,1,90,2|0,0:0|3:0,0:0:0:0:
89,210,29783,2,0,P|139:225|189:205,1,90,2|0,0:0|3:0,0:0:0:0:
151,33,30089,2,0,L|141:133,1,90,10|0,0:0|0:0,0:0:0:0:
122,317,30395,5,2,3:0:0:0:
247,163,30548,1,2,0:0:0:0:
89,210,30701,1,8,0:0:0:0:
266,360,30854,2,0,L|257:260,1,90,2|0,3:0|0:0,0:0:0:0:
240,81,31160,1,2,3:0:0:0:
89,210,31313,1,10,0:0:0:0:
349,293,31466,21,2,0:0:0:0:
349,293,31619,2,0,L|381:171,1,90,0|0,3:0|0:0,0:0:0:0:
240,81,31925,2,0,L|250:193,1,90,10|0,0:0|3:0,0:0:0:0:
182,342,32232,2,0,L|151:221,1,90,2|0,0:0|3:0,0:0:0:0:
76,91,32538,1,10,0:0:0:0:
10,323,32691,5,2,0:0:0:0:
10,323,32844,2,0,L|42:202,1,90,0|0,3:0|0:0,0:0:0:0:
76,91,33150,1,8,0:0:0:0:
215,155,33303,2,0,P|175:171|114:141,1,90,0|0,3:0|0:0,0:0:0:0:
265,76,33609,1,0,3:0:0:0:
329,235,33762,2,0,P|289:251|227:221,1,90,8|0,0:0|0:0,0:0:0:0:
417,189,34068,22,0,L|405:301,1,90,0|0,3:0|0:0,0:0:0:0:
233,328,34374,2,0,L|245:217,1,90,10|0,0:0|3:0,0:0:0:0:
120,67,34680,2,0,L|132:178,1,90,2|0,0:0|3:0,0:0:0:0:
313,147,34987,1,10,0:0:0:0:
200,3,35140,1,2,0:0:0:0:
242,237,35293,5,2,3:0:0:0:
361,74,35446,1,2,0:0:0:0:
212,85,35599,1,8,0:0:0:0:
448,115,35752,2,0,P|459:72|437:17,1,90,2|0,3:0|0:0,0:0:0:0:
266,1,36058,1,2,3:0:0:0:
345,199,36211,1,10,0:0:0:0:
358,16,36364,1,2,0:0:0:0:
253,202,36517,22,0,L|379:197,1,90,2|0,3:0|0:0,0:0:0:0:
230,54,36823,2,0,L|106:49,1,90,10|0,0:0|3:0,0:0:0:0:
59,214,37129,2,0,L|183:209,1,90,2|0,0:0|3:0,0:0:0:0:
344,198,37436,1,10,0:0:0:0:
158,350,37589,5,2,0:0:0:0:
158,350,37742,2,0,L|239:286,1,90,0|0,3:0|0:0,0:0:0:0:
223,155,38048,1,8,0:0:0:0:
405,329,38201,2,0,L|298:316,1,90,10|0,0:0|0:0,0:0:0:0:
398,157,38507,1,4,0:0:0:0:
229,293,38660,1,4,0:0:0:0:
356,241,38813,1,0,0:0:0:0:
180,370,38966,22,0,P|146:332|153:261,1,107.999996704102,4|0,0:0|0:0,0:0:0:0:
291,165,39272,2,0,P|306:114|284:69,1,90,10|0,0:0|3:0,0:0:0:0:
110,77,39578,2,0,P|95:129|117:173,1,90,2|0,0:0|3:0,0:0:0:0:
265,257,39885,1,10,0:0:0:0:
200,80,40038,1,2,0:0:0:0:
145,276,40191,5,2,3:0:0:0:
346,230,40344,1,0,0:0:0:0:
170,180,40497,1,10,0:0:0:0:
409,287,40650,2,0,P|434:224|421:187,1,90,2|0,3:0|0:0,0:0:0:0:
334,121,40956,1,0,3:0:0:0:
337,339,41109,2,0,B|313:354|313:354|223:351,1,107.999996704102,4|0,0:0|0:0,0:0:0:0:
93,233,41415,22,0,L|211:229,1,90,2|0,3:0|0:0,0:0:0:0:
334,121,41721,2,0,L|215:117,1,90,10|0,0:0|3:0,0:0:0:0:
285,295,42027,2,0,P|305:252|283:192,1,90,2|0,0:0|3:0,0:0:0:0:
144,109,42334,1,10,0:0:0:0:
113,314,42487,5,2,0:0:0:0:
113,314,42640,2,0,P|157:334|217:312,1,90,0|0,3:0|0:0,0:0:0:0:
297,211,42946,1,8,0:0:0:0:
174,242,43099,1,0,3:0:0:0:
235,138,43252,2,0,P|280:118|340:140,1,90,0|0,0:0|3:0,0:0:0:0:
419,242,43558,1,8,0:0:0:0:
297,211,43711,1,0,0:0:0:0:
363,317,43864,22,0,P|407:337|467:315,1,90,0|0,3:0|0:0,0:0:0:0:
435,151,44170,2,0,L|417:249,1,90,10|0,0:0|3:0,0:0:0:0:
496,75,44476,2,0,P|452:55|392:77,1,90,2|0,0:0|3:0,0:0:0:0:
258,161,44783,1,10,0:0:0:0:
435,151,44936,1,2,0:0:0:0:
224,68,45089,5,2,3:0:0:0:
286,240,45242,1,2,0:0:0:0:
338,113,45395,1,8,0:0:0:0:
227,302,45548,2,0,P|265:326|323:319,1,90,2|0,3:0|0:0,0:0:0:0:
252,150,45854,1,2,3:0:0:0:
108,262,46007,1,10,0:0:0:0:
286,240,46160,1,2,0:0:0:0:
112,170,46313,22,0,L|106:284,1,90,2|0,3:0|0:0,0:0:0:0:
252,150,46619,2,0,L|158:88,1,90,10|0,0:0|3:0,0:0:0:0:
203,280,46925,2,0,L|304:229,1,90,2|0,0:0|3:0,0:0:0:0:
270,48,47232,1,10,0:0:0:0:
91,153,47385,5,2,0:0:0:0:
278,131,47538,1,0,3:0:0:0:
203,280,47691,1,6,0:0:0:0:
177,63,47844,1,10,0:0:0:0:
177,63,47997,1,0,3:0:0:0:
343,258,48150,1,14,0:0:0:0:
62,298,48303,1,12,0:0:0:0:
189,177,48456,1,2,0:0:0:0:
213,358,48609,1,8,0:0:0:0:
126,105,48762,22,0,P|174:81|226:89,1,107.999996704102,6|0,0:0|0:0,0:0:0:0:
379,166,49068,1,8,0:0:0:0:
189,177,49221,1,0,3:0:0:0:
389,359,49374,2,0,L|402:242,1,107.999996704102,2|0,0:0|3:0,0:0:0:0:
283,66,49680,2,0,L|295:174,1,107.999996704102,10|0,0:0|0:0,0:0:0:0:
497,89,49987,6,0,L|380:75,1,107.999996704102,2|0,3:0|0:0,0:0:0:0:
362,253,50293,1,8,0:0:0:0:
504,179,50446,1,0,3:0:0:0:
283,66,50599,2,0,L|294:179,1,107.999996704102,2|0,0:0|3:0,0:0:0:0:
389,359,50905,1,10,0:0:0:0:
400,140,51058,1,2,0:0:0:0:
211,254,51211,22,0,P|267:285|333:269,1,107.999996704102,2|0,3:0|0:0,0:0:0:0:
108,194,51517,2,0,P|54:225|35:290,1,107.999996704102,10|0,0:0|3:0,0:0:0:0:
214,139,51823,2,0,P|213:75|166:26,1,107.999996704102,2|0,0:0|3:0,0:0:0:0:
211,254,52129,1,10,0:0:0:0:
389,123,52283,5,2,0:0:0:0:
188,39,52436,1,8,0:0:0:0:
307,89,52589,1,0,0:0:0:0:
108,194,52742,2,0,L|70:67,1,107.999996704102,10|0,0:0|3:0,0:0:0:0:
211,254,53048,2,0,L|226:133,1,107.999996704102,2|0,0:0|3:0,0:0:0:0:
297,351,53354,2,0,L|363:254,1,107.999996704102,10|0,0:0|0:0,0:0:0:0:
491,87,53660,22,0,L|418:194,1,107.999996704102,2|0,3:0|0:0,0:0:0:0:
271,82,53966,1,8,0:0:0:0:
410,28,54119,1,0,3:0:0:0:
358,261,54272,2,0,P|302:264|250:231,1,107.999996704102,2|0,0:0|3:0,0:0:0:0:
193,45,54578,2,0,P|223:92|220:152,1,107.999996704102,10|0,0:0|0:0,0:0:0:0:
80,293,54885,6,0,P|105:243|159:216,1,107.999996704102,2|0,3:0|0:0,0:0:0:0:
302,301,55191,1,10,0:0:0:0:
223,143,55344,1,0,3:0:0:0:
441,156,55497,1,2,0:0:0:0:
240,235,55650,1,0,3:0:0:0:
318,45,55803,2,0,P|342:100|323:161,1,107.999996704102,10|0,0:0|0:0,0:0:0:0:
174,297,56109,22,0,P|150:243|169:180,1,107.999996704102,2|0,3:0|0:0,0:0:0:0:
327,248,56415,1,8,0:0:0:0:
260,102,56568,1,0,3:0:0:0:
461,98,56721,2,0,L|412:212,1,107.999996704102,2|0,0:0|3:0,0:0:0:0:
286,23,57027,1,10,0:0:0:0:
361,321,57180,5,10,0:0:0:0:
361,321,57487,1,8,0:0:0:0:
500,20,57640,1,10,0:0:0:0:
500,20,57946,1,10,0:0:0:0:
441,152,58099,2,0,P|398:165|340:131,1,108,10|0,0:0|0:0,0:0:0:0:
219,102,58405,6,0,P|298:98|319:264,1,270.000010299683,6|0,0:0|3:0,0:0:0:0:
199,16,58864,1,8,0:0:0:0:
104,166,59017,1,0,0:0:0:0:
410,68,59170,1,2,0:0:0:0:
237,294,59323,1,2,0:0:0:0:
99,53,59476,1,8,0:0:0:0:
331,298,59629,6,0,P|261:377|143:275,1,270.000010299683,2|0,3:0|3:0,0:0:0:0:
371,123,60089,1,8,0:0:0:0:
244,222,60242,1,0,0:0:0:0:
468,47,60395,1,2,0:0:0:0:
186,81,60548,1,2,0:0:0:0:
343,312,60701,1,8,0:0:0:0:
105,6,60854,6,0,L|75:161,1,135.000005149842,2|0,3:0|0:0,0:0:0:0:
245,355,61160,1,0,3:0:0:0:
186,81,61313,2,0,L|216:242,1,135.000005149842,10|0,0:0|0:0,0:0:0:0:
477,321,61619,1,2,0:0:0:0:
425,159,61772,1,0,0:0:0:0:
245,355,61925,1,10,0:0:0:0:
510,141,62078,6,0,P|465:80|397:77,1,135.000005149842,2|0,3:0|0:0,0:0:0:0:
148,165,62385,1,0,3:0:0:0:
414,295,62538,1,8,0:0:0:0:
238,210,62691,1,0,0:0:0:0:
512,155,62844,1,2,3:0:0:0:
414,295,62997,1,0,3:0:0:0:
289,0,63150,2,0,L|348:143,1,135,12|0,0:0|0:0,0:0:0:0:
512,155,63456,6,0,P|470:109|335:131,1,202.500007724762,6|0,0:0|0:0,0:0:0:0:
272,176,63762,1,10,0:0:0:0:
289,0,63915,1,0,3:0:0:0:
264,268,64068,1,2,0:0:0:0:
179,96,64221,1,0,3:0:0:0:
297,338,64374,1,10,0:0:0:0:
41,192,64527,5,2,0:0:0:0:
341,124,64680,1,0,3:0:0:0:
264,268,64834,1,0,0:0:0:0:
117,41,64987,2,0,P|180:13|253:61,1,135.000005149842,10|0,0:0|3:0,0:0:0:0:
191,330,65293,2,0,P|129:353|70:325,1,135.000005149842,2|0,0:0|3:0,0:0:0:0:
311,128,65599,2,0,L|334:277,1,135.000005149842,10|0,0:0|0:0,0:0:0:0:
8,240,65905,6,0,L|31:91,1,135.000005149842,2|0,3:0|0:0,0:0:0:0:
311,128,66211,1,8,0:0:0:0:
121,204,66364,1,0,3:0:0:0:
400,93,66517,2,0,L|370:260,1,135.000005149842,0|0,3:0|3:0,0:0:0:0:
221,4,66823,1,10,0:0:0:0:
354,315,66976,5,2,0:0:0:0:
505,91,67129,1,0,3:0:0:0:
161,118,67283,1,8,0:0:0:0:
422,211,67436,1,8,0:0:0:0:
201,251,67589,1,0,0:3:0:0:
480,383,67742,1,10,0:0:0:0:
422,211,67895,2,0,P|379:182|293:211,1,135,10|0,0:0|0:0,0:0:0:0:
201,251,68201,6,0,P|286:222|251:74,1,270.000010299683,6|0,0:0|3:0,0:0:0:0:
113,306,68660,1,8,0:0:0:0:
203,157,68813,1,0,0:0:0:0:
407,375,68966,1,2,0:0:0:0:
502,111,69119,1,2,0:0:0:0:
203,157,69272,1,8,0:0:0:0:
501,380,69425,6,0,L|502:105,1,270.000010299683,2|0,3:0|3:0,0:0:0:0:
242,10,69885,1,8,0:0:0:0:
403,70,70038,1,0,0:0:0:0:
128,126,70191,1,2,0:0:0:0:
403,70,70344,1,2,0:0:0:0:
352,345,70497,1,8,0:0:0:0:
160,15,70650,6,0,L|311:39,1,135.000005149842,2|0,3:0|0:0,0:0:0:0:
228,308,70956,1,0,3:0:0:0:
0,152,71109,2,0,L|145:128,1,135.000005149842,10|0,0:0|0:0,0:0:0:0:
252,383,71415,1,2,0:0:0:0:
93,311,71568,1,0,0:0:0:0:
368,267,71721,1,8,0:0:0:0:
51,378,71874,6,0,P|14:320|36:254,1,135.000005149842,2|0,3:0|0:0,0:0:0:0:
263,119,72180,1,0,3:0:0:0:
167,377,72334,1,8,0:0:0:0:
225,219,72487,1,0,0:0:0:0:
438,379,72640,1,2,3:0:0:0:
346,209,72793,1,0,3:0:0:0:
167,377,72946,2,0,L|303:361,1,135,10|0,0:0|0:0,0:0:0:0:
346,209,73252,6,0,P|270:279|316:371,1,202.500007724762,6|0,0:0|0:0,0:0:0:0:
382,308,73558,1,10,0:0:0:0:
167,377,73711,1,0,3:0:0:0:
259,94,73864,1,2,0:0:0:0:
195,291,74017,1,0,3:0:0:0:
55,28,74170,1,10,0:0:0:0:
346,209,74323,5,2,0:0:0:0:
49,208,74476,1,2,3:0:0:0:
156,59,74629,1,0,0:0:0:0:
166,352,74783,2,0,P|92:373|27:328,1,135.000005149842,10|0,0:0|3:0,0:0:0:0:
156,59,75089,2,0,P|230:38|295:83,1,135.000005149842,2|0,0:0|3:0,0:0:0:0:
14,255,75395,2,0,L|2:108,1,135.000005149842,8|0,0:0|0:0,0:0:0:0:
308,167,75701,6,0,L|296:314,1,135.000005149842,2|0,3:0|0:0,0:0:0:0:
119,76,76007,1,8,0:0:0:0:
397,130,76160,1,0,3:0:0:0:
144,272,76313,1,0,3:0:0:0:
214,94,76466,1,0,3:0:0:0:
420,305,76619,2,0,P|348:326|273:265,1,135.000005149842,8|0,0:0|0:0,0:0:0:0:
91,101,76925,6,0,P|153:73|216:95,1,135.000005149842,0|0,3:0|0:0,0:0:0:0:
214,374,77232,1,8,0:0:0:0:
22,171,77385,1,0,3:0:0:0:
308,166,77538,2,0,L|293:332,1,135.000005149842,2|0,0:0|3:0,0:0:0:0:
10,310,77844,2,0,L|24:143,1,135.000005149842,8|0,0:0|0:0,0:0:0:0:
215,96,78150,5,6,0:0:0:0:
108,241,78303,2,0,P|155:250|210:224,1,90,2|0,0:0|0:0,0:0:0:0:
301,91,78609,2,0,P|253:82|198:108,1,90,2|0,0:0|0:0,0:0:0:0:
281,282,78915,2,0,L|301:179,1,90,2|0,0:0|0:0,0:0:0:0:
471,31,79221,6,0,L|491:140,1,107.999996704102,10|0,0:0|0:0,0:0:0:0:
256,8,79527,1,10,0:0:0:0:
511,249,79680,1,10,0:0:0:0:
54,124,80599,22,0,L|40:40,2,72,12|0|2,0:0|0:0|0:0,0:0:0:0:
70,220,81058,1,0,3:0:0:0:
196,145,81211,2,0,L|45:122,1,144,8|2,0:0|0:0,0:0:0:0:
162,241,81670,6,0,L|312:218,1,144,8|8,0:0|0:0,0:0:0:0:
362,88,82129,1,2,0:0:0:0:
456,197,82283,1,0,3:0:0:0:
482,55,82436,2,0,P|405:44|356:103,1,144,8|2,0:0|0:0,0:0:0:0:
374,177,82895,1,8,0:0:0:0:
469,284,83048,22,0,P|493:266|509:220,2,72,8|0|2,0:0|0:0|0:0,0:0:0:0:
325,279,83507,1,0,3:0:0:0:
361,86,83660,2,0,B|372:61|372:61|373:205,1,144,4|0,0:0|0:0,0:0:0:0:
231,157,84119,1,8,0:0:0:0:
311,260,84272,1,0,0:0:0:0:
155,80,84425,5,10,0:0:0:0:
84,304,84578,1,10,0:0:0:0:
311,260,84732,2,0,L|226:277,1,72,10|8,0:0|0:0,0:0:0:0:
155,80,85038,2,0,L|240:97,1,72,10|0,0:0|0:0,0:0:0:0:
210,365,85344,22,0,P|152:312|167:215,1,180,4|0,0:0|3:0,0:0:0:0:
288,369,85803,1,8,0:0:0:0:
97,372,85956,1,0,0:0:0:0:
297,241,86109,2,0,P|264:274|205:279,1,90,0|0,3:0|0:0,0:0:0:0:
80,172,86415,1,8,0:0:0:0:
319,154,86568,6,0,P|377:207|362:304,1,180,0|0,3:0|3:0,0:0:0:0:
233,151,87027,1,8,0:0:0:0:
396,76,87180,1,0,0:0:0:0:
297,241,87334,1,0,3:0:0:0:
290,61,87487,1,0,0:0:0:0:
413,201,87640,1,8,0:0:0:0:
177,83,87793,22,0,P|152:167|224:239,1,180,4|0,0:0|3:0,0:0:0:0:
357,128,88252,1,8,0:0:0:0:
217,9,88405,1,0,0:0:0:0:
329,215,88558,2,0,P|372:221|424:185,1,90,0|0,3:0|0:0,0:0:0:0:
233,151,88864,2,0,P|190:145|138:181,1,90,8|0,0:0|3:0,0:0:0:0:
392,311,89170,5,8,0:0:0:0:
205,233,89323,2,0,L|230:330,1,90,8|0,0:0|0:0,0:0:0:0:
434,113,89629,2,0,L|409:210,1,90,8|0,0:0|0:0,0:0:0:0:
159,58,89936,2,0,L|207:240,1,180,8|0,0:0|0:0,0:0:0:0:
239,7,90395,21,8,0:0:0:0:
56,177,90548,1,8,0:0:0:0:
308,257,90701,1,8,0:0:0:0:
239,7,90854,1,10,0:0:0:0:
239,7,91160,2,0,L|268:117,1,107.999996704102,10|0,0:0|0:0,0:0:0:0:
463,23,91466,1,8,0:0:0:0:
323,319,91619,6,0,L|264:104,1,215.999993408203,10|0,0:0|0:0,0:0:0:0:
