osu file format v14

[General]
AudioFilename: audio.mp3
AudioLeadIn: 0
PreviewTime: 3997
Countdown: 0
SampleSet: Normal
StackLeniency: 0.3
Mode: 0
LetterboxInBreaks: 0
WidescreenStoryboard: 0

[Editor]
DistanceSpacing: 1
BeatDivisor: 4
GridSize: 32
TimelineZoom: 1

[Metadata]
Title:Battle of Omega (GAME OP size)
TitleUnicode:Battle of Omega (GAME OP size)
Artist:Kageyama Hironobu
ArtistUnicode:影山ヒロノブ
Creator:seselis1
Version:Normal
Source:Dragon Ball: Raging Blast 2
Tags:ドラゴンボール レイジングブラスト 2 dbz J-POP opening
BeatmapID:1652925
BeatmapSetID:759592

[Difficulty]
HPDrainRate:3
CircleSize:3
OverallDifficulty:4
ApproachRate:5
SliderMultiplier:1
SliderTickRate:1

[Events]
//Background and Video events
0,0,"bg.jpg",0,0
//Break Periods
//Storyboard Layer 0 (Background)
//Storyboard Layer 1 (Fail)
//Storyboard Layer 2 (Pass)
//Storyboard Layer 3 (Foreground)
//Storyboard Sound Samples

[TimingPoints]
2232,306.122448979592,4,1,2,40,1,0
4221,-100,4,1,2,40,0,0
4451,-100,4,1,3,40,0,0
4527,-100,4,1,2,60,0,1
9272,-100,4,1,2,60,0,1
9502,-100,4,1,3,60,0,1
9578,-100,4,1,2,60,0,1
14017,-100,4,1,2,60,0,0
14247,-100,4,1,3,60,0,0
14323,-100,4,1,2,60,0,1
19068,-100,4,1,2,60,0,1
19374,-100,4,1,2,60,0,1
24272,-100,4,1,2,40,0,0
29170,-100,4,1,2,50,0,0
29476,-100,4,1,2,50,0,0
38660,-100,4,1,2,50,0,0
38966,-100,4,1,2,50,0,0
39272,-100,4,1,2,50,0,0
41109,-100,4,1,2,50,0,0
41415,-100,4,1,2,50,0,0
48762,-100,4,1,2,50,0,0
58099,-100,4,1,2,40,0,0
58328,-100,4,1,3,40,0,0
58405,-100,4,1,2,60,0,1
63150,-100,4,1,2,60,0,1
63379,-100,4,1,3,60,0,1
63456,-100,4,1,2,60,0,1
67895,-100,4,1,2,40,0,0
68124,-100,4,1,3,40,0,0
68201,-100,4,1,2,60,0,1
72946,-100,4,1,2,60,0,1
73175,-100,4,1,3,60,0,1
73252,-100,4,1,2,60,0,1
78150,-100,4,1,2,40,0,0
79221,-100,4,1,2,40,0,0
80599,-100,4,1,2,40,0,0
85344,-100,4,1,2,50,0,0
91160,-100,4,1,2,50,0,0
91925,-100,4,1,3,50,0,0

[Colours]
Combo1 : 49,221,173
Combo2 : 230,230,0
Combo3 : 255,128,64
SliderBorder : 54,169,166
SliderTrackOverride : 255,255,155

[HitObjects]
34,66,2231,22,0,P|85:48|137:71,1,100
148,107,2691,2,0,P|199:125|251:102,1,100,10|0,0:0|0:0,0:0:0:0:
275,73,3150,1,8,0:0:0:0:
275,73,3303,1,10,0:0:0:0:
313,165,3609,1,8,0:0:0:0:
313,165,3762,1,10,0:0:0:0:
382,92,4068,2,0,L|437:83,1,50,10|10,0:0|0:0,0:0:0:0:
438,183,4527,6,0,L|424:290,1,100,6|0,0:0|3:0,0:0:0:0:
416,331,4987,1,8,0:0:0:0:
333,274,5293,2,0,P|312:270|270:282,1,50,2|2,3:0|0:0,0:0:0:0:
220,350,5752,2,0,P|170:366|117:340,1,100,2|0,3:0|3:0,0:0:0:0:
99,308,6211,1,8,0:0:0:0:
51,220,6517,2,0,L|109:212,1,50,2|2,3:0|0:0,0:0:0:0:
92,113,6976,6,0,L|210:126,1,100,2|0,3:0|3:0,0:0:0:0:
240,135,7436,1,10,0:0:0:0:
319,195,7742,2,0,P|346:151|324:91,1,100,2|10,3:0|0:0,0:0:0:0:
300,71,8201,2,0,L|402:49,1,100,2|0,3:0|3:0,0:0:0:0:
446,38,8660,1,8,0:0:0:0:
504,118,8966,2,0,L|463:225,1,100,2|12,3:0|0:0,0:0:0:0:
383,157,9578,6,0,L|357:218,1,50,6|0,0:0|0:0,0:0:0:0:
342,248,9885,1,10,0:0:0:0:
425,302,10191,1,2,0:0:0:0:
341,357,10497,1,10,0:0:0:0:
342,358,10650,2,0,P|298:358|257:316,1,100,2|0,0:0|0:0,0:0:0:0:
252,271,11109,2,0,L|150:271,1,100,10|2,0:0|0:0,0:0:0:0:
94,352,11721,1,10,0:0:0:0:
40,267,12027,6,0,L|24:154,1,100,2|8,3:0|0:0,0:0:0:0:
90,90,12640,1,0,3:0:0:0:
191,93,12946,2,0,L|181:164,1,50,10|2,0:0|0:0,0:0:0:0:
224,171,13252,2,0,L|284:162,2,50,0|8|8,3:0|0:0|0:0,0:0:0:0:
174,257,13864,2,0,L|223:266,1,50,10|10,0:0|0:0,0:0:0:0:
261,358,14323,6,0,L|367:338,1,100,6|0,0:0|3:0,0:0:0:0:
407,324,14783,1,8,0:0:0:0:
456,234,15089,2,0,L|391:225,1,50,2|2,3:0|0:0,0:0:0:0:
308,248,15548,2,0,P|303:192|344:149,1,100,2|0,3:0|3:0,0:0:0:0:
373,139,16007,1,8,0:0:0:0:
470,118,16313,2,0,L|456:71,1,50,2|2,3:0|0:0,0:0:0:0:
365,27,16772,6,0,L|264:50,1,100,2|0,3:0|3:0,0:0:0:0:
219,62,17232,1,10,0:0:0:0:
224,161,17538,2,0,L|121:140,1,100,2|8,3:0|0:0,0:0:0:0:
76,133,17997,2,0,L|89:245,1,100,2|0,3:0|3:0,0:0:0:0:
54,269,18456,1,8,0:0:0:0:
61,368,18762,2,0,P|110:375|157:351,1,100,2|10,3:0|0:0,0:0:0:0:
176,256,19374,6,0,L|245:272,1,50,6|0,0:0|0:0,0:0:0:0:
273,278,19680,1,10,0:0:0:0:
315,368,19987,1,2,0:0:0:0:
396,309,20293,1,10,0:0:0:0:
396,309,20446,2,0,L|419:202,1,100,2|0,0:0|0:0,0:0:0:0:
428,162,20905,1,10,0:0:0:0:
353,95,21211,2,0,L|330:202,1,100,2|10,0:0|0:0,0:0:0:0:
233,208,21823,6,0,L|258:102,1,100,2|8,3:0|0:0,0:0:0:0:
252,60,22283,1,0,3:0:0:0:
252,60,22436,2,0,P|199:37|156:49,1,100,0|8,3:0|0:0,0:0:0:0:
139,92,22895,1,10,0:0:0:0:
54,38,23201,1,8,0:0:0:0:
54,38,23354,1,10,0:0:0:0:
37,350,24272,6,0,L|145:344,1,100,12|2,0:0|0:0,0:0:0:0:
231,378,24885,2,0,P|239:323|206:278,1,100,8|2,0:0|0:0,0:0:0:0:
173,261,25344,2,0,P|149:217|159:169,1,100,8|8,0:0|0:0,0:0:0:0:
198,138,25803,1,2,0:0:0:0:
274,202,26109,2,0,L|382:188,1,100,8|2,0:0|0:0,0:0:0:0:
468,220,26721,22,0,P|477:171|454:128,1,100,8|2,0:0|0:0,0:0:0:0:
372,70,27334,2,0,L|260:81,1,100,8|2,0:0|0:0,0:0:0:0:
231,51,27793,1,8,0:0:0:0:
147,106,28099,1,10,0:0:0:0:
147,106,28252,1,10,0:0:0:0:
147,106,28405,2,0,L|162:209,1,100,10|10,0:0|0:0,0:0:0:0:
54,309,29170,5,4,0:0:0:0:
137,363,29476,2,0,P|187:373|233:345,1,100,2|2,0:0|0:0,0:0:0:0:
282,266,30089,1,10,0:0:0:0:
364,321,30395,2,0,L|424:324,1,50,2|2,3:0|0:0,0:0:0:0:
478,247,30854,1,2,3:0:0:0:
455,149,31160,2,0,L|395:152,1,50,2|10,3:0|0:0,0:0:0:0:
372,189,31466,22,0,L|257:177,1,100,2|0,0:0|0:0,0:0:0:0:
223,171,31925,1,10,0:0:0:0:
143,109,32232,2,0,P|118:161|134:215,1,100,2|10,0:0|0:0,0:0:0:0:
157,239,32691,2,0,L|126:278,1,50,2|0,0:0|3:0,0:0:0:0:
32,313,33150,1,8,0:0:0:0:
32,313,33303,2,0,P|53:351|121:364,1,100,0|0,3:0|3:0,0:0:0:0:
154,367,33762,1,8,0:0:0:0:
226,298,34068,5,0,3:0:0:0:
309,352,34374,2,0,P|356:338|381:297,1,100,10|2,0:0|0:0,0:0:0:0:
422,204,34987,2,0,P|400:197|363:198,1,50,10|2,0:0|0:0,0:0:0:0:
331,223,35293,2,0,P|306:222|282:215,1,50,2|2,3:0|0:0,0:0:0:0:
285,115,35752,2,0,P|233:100|190:115,1,100,2|2,3:0|3:0,0:0:0:0:
166,158,36211,1,10,0:0:0:0:
79,107,36517,22,0,P|61:154|74:202,1,100,2|10,3:0|0:0,0:0:0:0:
161,247,37129,2,0,P|173:294|155:340,1,100,2|10,0:0|0:0,0:0:0:0:
112,367,37589,2,0,L|51:366,1,50,2|0,0:0|3:0,0:0:0:0:
8,276,38048,1,8,0:0:0:0:
8,276,38201,2,0,L|80:191,1,100,10|4,0:0|0:0,0:0:0:0:
106,162,38660,1,4,0:0:0:0:
35,95,38966,5,4,0:0:0:0:
117,38,39272,2,0,P|169:20|215:43,1,100,10|2,0:0|0:0,0:0:0:0:
211,136,39885,2,0,P|239:140|277:129,1,50,10|2,0:0|0:0,0:0:0:0:
306,116,40191,1,2,3:0:0:0:
384,53,40497,1,10,0:0:0:0:
384,53,40650,2,0,L|397:158,1,100,2|0,3:0|3:0,0:0:0:0:
399,202,41109,1,4,0:0:0:0:
395,301,41415,22,0,P|340:279|291:299,1,100,2|10,3:0|0:0,0:0:0:0:
220,346,42027,1,2,0:0:0:0:
198,248,42334,2,0,L|186:199,1,50,10|2,0:0|0:0,0:0:0:0:
144,173,42640,2,0,P|90:167|51:195,2,100,0|8|0,3:0|0:0|0:0,0:0:0:0:
116,269,43558,1,8,0:0:0:0:
18,292,43864,5,0,3:0:0:0:
89,362,44170,2,0,P|143:368|182:340,1,100,10|2,0:0|0:0,0:0:0:0:
243,267,44783,2,0,L|225:206,1,50,10|2,0:0|0:0,0:0:0:0:
216,170,45089,2,0,L|277:175,1,50,2|2,3:0|0:0,0:0:0:0:
331,249,45548,2,0,L|442:239,1,100,2|2,3:0|3:0,0:0:0:0:
440,191,46007,1,10,0:0:0:0:
506,115,46313,22,0,P|460:87|402:98,1,100,2|10,3:0|0:0,0:0:0:0:
325,133,46925,2,0,P|275:135|234:108,1,100,2|10,0:0|0:0,0:0:0:0:
212,63,47385,2,0,L|101:73,1,100,2|6,0:0|0:0,0:0:0:0:
100,122,47844,2,0,L|0:113,2,100,10|14|2,0:0|0:0|0:0,0:0:0:0:
175,187,48762,6,0,P|174:224|118:270,1,100,6|8,0:0|0:0,0:0:0:0:
31,270,49374,2,0,P|32:307|88:353,1,100,2|10,0:0|0:0,0:0:0:0:
174,353,49987,2,0,L|288:343,1,100,2|8,3:0|0:0,0:0:0:0:
277,244,50599,2,0,L|391:254,1,100,2|10,0:0|0:0,0:0:0:0:
425,262,51058,1,2,0:0:0:0:
425,262,51211,22,0,P|436:318|400:367,2,100,2|10|2,3:0|0:0|0:0,0:0:0:0:
394,166,52129,1,10,0:0:0:0:
394,166,52283,2,0,L|294:157,1,100,2|0,0:0|0:0,0:0:0:0:
244,151,52742,2,0,P|233:95|269:46,2,100,10|2|10,0:0|0:0|0:0,0:0:0:0:
280,244,53660,6,0,P|291:300|255:349,1,100,2|8,3:0|0:0,0:0:0:0:
186,283,54272,2,0,L|68:270,1,100,2|10,0:0|0:0,0:0:0:0:
27,190,54885,2,0,L|145:177,1,100,2|10,3:0|0:0,0:0:0:0:
223,201,55497,2,0,P|230:158|198:105,1,100,2|10,0:0|0:0,0:0:0:0:
141,31,56109,22,0,L|259:18,1,100,2|8,3:0|0:0,0:0:0:0:
311,89,56721,2,0,L|429:102,1,100,2|10,0:0|0:0,0:0:0:0:
458,113,57180,1,10,0:0:0:0:
405,198,57487,1,8,0:0:0:0:
405,198,57640,1,10,0:0:0:0:
486,255,57946,2,0,L|472:314,1,50,10|10,0:0|0:0,0:0:0:0:
376,321,58405,22,0,P|325:302|271:329,1,100,6|0,0:0|3:0,0:0:0:0:
251,354,58864,1,8,0:0:0:0:
217,260,59170,2,0,L|198:196,1,50,2|2,0:0|0:0,0:0:0:0:
118,265,59629,2,0,L|87:368,1,100,2|0,3:0|3:0,0:0:0:0:
42,379,60089,1,8,0:0:0:0:
16,282,60395,2,0,L|-4:224,1,50,2|2,0:0|0:0,0:0:0:0:
14,135,60854,6,0,P|59:118|114:140,1,100,2|0,3:0|3:0,0:0:0:0:
138,171,61313,1,10,0:0:0:0:
118,265,61619,2,0,L|231:245,1,100,2|10,0:0|0:0,0:0:0:0:
234,200,62078,2,0,L|347:220,1,100,2|0,3:0|3:0,0:0:0:0:
357,260,62538,1,8,0:0:0:0:
365,359,62844,2,0,P|417:351|445:311,1,100,2|12,3:0|0:0,0:0:0:0:
487,225,63456,6,0,L|434:207,1,50,6|0,0:0|0:0,0:0:0:0:
417,164,63762,1,10,0:0:0:0:
332,217,64068,1,2,0:0:0:0:
307,120,64374,1,10,0:0:0:0:
307,120,64527,2,0,P|249:103|202:129,1,100,2|0,0:0|0:0,0:0:0:0:
205,166,64987,2,0,P|147:183|100:157,1,100,10|2,0:0|0:0,0:0:0:0:
46,93,65599,1,10,0:0:0:0:
10,186,65905,6,0,L|10:297,1,100,2|8,3:0|0:0,0:0:0:0:
75,361,66517,1,0,3:0:0:0:
154,299,66823,2,0,L|216:292,1,50,10|2,0:0|0:0,0:0:0:0:
253,291,67129,2,0,L|247:350,2,50,0|8|8,3:0|0:0|0:0,0:0:0:0:
330,227,67742,2,0,L|392:220,1,50,10|10,0:0|0:0,0:0:0:0:
437,139,68201,6,0,L|332:131,1,100,6|0,0:0|3:0,0:0:0:0:
287,124,68660,1,8,0:0:0:0:
198,78,68966,2,0,P|188:106|195:139,1,50,2|2,0:0|0:0,0:0:0:0:
248,206,69425,2,0,P|256:272|219:318,1,100,2|0,3:0|3:0,0:0:0:0:
205,335,69885,1,8,0:0:0:0:
115,380,70191,2,0,P|106:351|109:316,1,50,2|2,0:0|0:0,0:0:0:0:
155,246,70650,6,0,L|56:217,1,100,2|0,3:0|3:0,0:0:0:0:
39,171,71109,1,10,0:0:0:0:
131,132,71415,2,0,L|230:103,1,100,2|8,0:0|0:0,0:0:0:0:
275,92,71874,2,0,L|241:189,1,100,2|0,3:0|3:0,0:0:0:0:
267,229,72334,1,8,0:0:0:0:
344,166,72640,2,0,P|393:161|442:196,1,100,2|10,3:0|0:0,0:0:0:0:
463,282,73252,6,0,P|439:289|407:279,1,50,6|0,0:0|0:0,0:0:0:0:
372,257,73558,1,10,0:0:0:0:
337,350,73864,1,2,0:0:0:0:
264,279,74170,1,10,0:0:0:0:
264,279,74323,2,0,L|148:295,1,100,2|0,0:0|0:0,0:0:0:0:
151,244,74783,2,0,L|35:228,1,100,10|2,0:0|0:0,0:0:0:0:
11,139,75395,1,8,0:0:0:0:
72,60,75701,6,0,P|118:42|183:68,1,100,2|8,3:0|0:0,0:0:0:0:
176,102,76160,1,0,3:0:0:0:
176,102,76313,2,0,P|221:120|269:109,1,100,0|8,3:0|0:0,0:0:0:0:
361,69,76925,2,0,L|361:179,1,100,0|8,3:0|0:0,0:0:0:0:
402,260,77538,2,0,P|355:271|309:253,1,100,2|8,0:0|0:0,0:0:0:0:
234,184,78150,6,0,L|158:195,1,50,6|2,0:0|0:0,0:0:0:0:
109,257,78609,2,0,P|84:209|99:157,1,100,2|2,0:0|0:0,0:0:0:0:
169,101,79221,2,0,L|285:82,1,100,10|10,0:0|0:0,0:0:0:0:
291,41,79680,1,10,0:0:0:0:
429,303,80599,22,0,L|313:284,1,100,12|2,0:0|0:0,0:0:0:0:
252,224,81211,2,0,P|226:269|239:323,1,100,8|2,0:0|0:0,0:0:0:0:
263,354,81670,2,0,L|147:373,1,100,8|8,0:0|0:0,0:0:0:0:
131,332,82129,1,2,0:0:0:0:
138,232,82436,2,0,L|22:213,1,100,8|2,0:0|0:0,0:0:0:0:
70,177,82895,6,0,P|97:137|82:79,1,100,8|0,0:0|0:0,0:0:0:0:
54,51,83354,1,2,0:0:0:0:
148,17,83660,2,0,L|246:33,1,100,4|0,0:0|0:0,0:0:0:0:
258,81,84119,1,8,0:0:0:0:
356,98,84425,1,10,0:0:0:0:
356,98,84578,1,10,0:0:0:0:
356,98,84732,2,0,L|342:199,1,100,10|10,0:0|0:0,0:0:0:0:
372,292,85344,22,0,P|325:300|274:268,1,100,4|0,0:0|3:0,0:0:0:0:
252,234,85803,1,8,0:0:0:0:
172,173,86109,2,0,P|148:216|156:264,1,100,0|8,3:0|0:0,0:0:0:0:
184,305,86568,2,0,L|73:309,1,100,0|0,3:0|3:0,0:0:0:0:
34,303,87027,1,8,0:0:0:0:
54,204,87334,2,0,L|37:98,1,100,0|8,3:0|0:0,0:0:0:0:
34,55,87793,6,0,P|80:72|130:48,1,100,4|0,0:0|3:0,0:0:0:0:
159,17,88252,1,8,0:0:0:0:
237,79,88558,2,0,L|220:185,1,100,0|8,3:0|0:0,0:0:0:0:
181,269,89170,2,0,P|205:278|238:277,1,50,8|8,0:0|0:0,0:0:0:0:
313,225,89629,1,8,0:0:0:0:
393,165,89936,2,0,P|415:229|393:273,1,100,8|0,0:0|0:0,0:0:0:0:
375,296,90395,21,8,0:0:0:0:
329,317,90548,2,0,L|329:373,2,50,8|8|10,0:0|0:0|0:0,0:0:0:0:
235,280,91160,2,0,L|215:216,1,50,10|0,0:0|0:0,0:0:0:0:
201,185,91466,1,8,0:0:0:0:
201,185,91619,2,0,L|237:74,1,100,10|0,0:0|0:0,0:0:0:0:
