osu file format v14

[General]
AudioFilename: audio.mp3
AudioLeadIn: 0
PreviewTime: 3997
Countdown: 0
SampleSet: Normal
StackLeniency: 0.3
Mode: 0
LetterboxInBreaks: 0
WidescreenStoryboard: 0

[Editor]
DistanceSpacing: 1.3
BeatDivisor: 4
GridSize: 32
TimelineZoom: 1

[Metadata]
Title:Battle of Omega (GAME OP size)
TitleUnicode:Battle of Omega (GAME OP size)
Artist:Kageyama Hironobu
ArtistUnicode:影山ヒロノブ
Creator:seselis1
Version:Insane
Source:Dragon Ball: Raging Blast 2
Tags:ドラゴンボール レイジングブラスト 2 dbz J-POP opening
BeatmapID:1646637
BeatmapSetID:759592

[Difficulty]
HPDrainRate:5
CircleSize:4
OverallDifficulty:7
ApproachRate:8.8
SliderMultiplier:1.2
SliderTickRate:1

[Events]
//Background and Video events
0,0,"bg.jpg",0,0
//Break Periods
//Storyboard Layer 0 (Background)
//Storyboard Layer 1 (Fail)
//Storyboard Layer 2 (Pass)
//Storyboard Layer 3 (Foreground)
//Storyboard Sound Samples

[TimingPoints]
2232,306.122448979592,4,1,2,40,1,0
4221,-117.647058823529,4,1,2,40,0,0
4451,-117.647058823529,4,1,3,40,0,0
4527,-74.0740740740741,4,1,2,60,0,1
9272,-100,4,1,2,60,0,1
9502,-100,4,1,3,60,0,1
9578,-74.0740740740741,4,1,2,60,0,1
14017,-100,4,1,2,60,0,0
14247,-100,4,1,3,60,0,0
14323,-74.0740740740741,4,1,2,60,0,1
19068,-100,4,1,2,60,0,1
19374,-74.0740740740741,4,1,2,60,0,1
24272,-117.647058823529,4,1,2,40,0,0
29170,-86.9565217391304,4,1,2,50,0,0
29476,-100,4,1,2,50,0,0
38660,-86.9565217391304,4,1,2,50,0,0
38966,-86.9565217391304,4,1,2,50,0,0
39272,-100,4,1,2,50,0,0
41109,-86.9565217391304,4,1,2,50,0,0
41415,-100,4,1,2,50,0,0
48762,-86.9565217391304,4,1,2,50,0,0
58099,-117.647058823529,4,1,2,40,0,0
58328,-117.647058823529,4,1,3,40,0,0
58405,-74.0740740740741,4,1,2,60,0,1
63150,-100,4,1,2,60,0,1
63379,-100,4,1,3,60,0,1
63456,-74.0740740740741,4,1,2,60,0,1
67895,-100,4,1,2,40,0,0
68124,-100,4,1,3,40,0,0
68201,-74.0740740740741,4,1,2,60,0,1
72946,-100,4,1,2,60,0,1
73175,-100,4,1,3,60,0,1
73252,-74.0740740740741,4,1,2,60,0,1
78150,-100,4,1,2,40,0,0
79221,-86.9565217391304,4,1,2,40,0,0
80599,-117.647058823529,4,1,2,40,0,0
85344,-100,4,1,2,50,0,0
91160,-86.9565217391304,4,1,2,50,0,0
91925,-86.9565217391304,4,1,3,50,0,0

[Colours]
Combo1 : 49,221,173
Combo2 : 230,230,0
Combo3 : 255,128,64
SliderBorder : 54,169,166
SliderTrackOverride : 255,255,155

[HitObjects]
75,42,2231,6,0,L|58:110,1,60,0|0,0:0|0:0,0:0:0:0:
36,175,2538,1,0,0:0:0:0:
138,153,2691,2,0,L|155:221,1,60,10|0,0:0|0:0,0:0:0:0:
177,286,2998,1,0,0:0:0:0:
76,260,3150,1,8,0:0:0:0:
149,381,3303,5,10,0:0:0:0:
149,381,3609,1,8,0:0:0:0:
259,294,3762,1,10,0:0:0:0:
259,294,4068,1,10,0:0:0:0:
294,233,4221,2,0,P|259:222|214:239,1,76.5000014591217,10|0,0:0|0:0,0:0:0:0:
177,261,4527,6,0,P|106:254|72:171,1,162.000000617981,6|0,0:0|3:0,0:0:0:0:
151,114,4987,2,0,P|162:149|145:194,1,81.0000003089905,8|0,0:0|0:0,0:0:0:0:
64,79,5293,1,2,3:0:0:0:
150,27,5446,1,2,0:0:0:0:
245,79,5599,1,8,0:0:0:0:
148,189,5752,6,0,L|151:21,1,162.000000617981,2|0,3:0|3:0,0:0:0:0:
245,79,6211,2,0,L|244:166,1,81.0000003089905,8|0,0:0|0:0,0:0:0:0:
317,234,6517,1,2,3:0:0:0:
414,193,6670,1,2,0:0:0:0:
339,118,6823,1,8,0:0:0:0:
390,269,6976,6,0,P|429:274|472:242,1,81.0000003089905,2|0,3:0|0:0,0:0:0:0:
503,155,7283,1,0,3:0:0:0:
412,102,7436,2,0,P|373:97|330:129,1,81.0000003089905,10|0,0:0|0:0,0:0:0:0:
297,214,7742,1,2,3:0:0:0:
373,188,7895,1,0,0:0:0:0:
259,143,8048,1,10,0:0:0:0:
232,270,8201,6,0,P|254:292|310:297,1,81.0000003089905,2|0,3:0|0:0,0:0:0:0:
197,192,8507,1,0,3:0:0:0:
197,192,8660,2,0,L|97:192,1,81.0000003089905,8|0,0:0|0:0,0:0:0:0:
133,88,8966,1,2,3:0:0:0:
208,112,9119,1,0,3:0:0:0:
57,114,9272,2,0,P|53:67|87:25,1,90,12|0,0:0|0:0,0:0:0:0:
129,7,9578,6,0,L|133:99,1,81.0000003089905,6|0,0:0|0:0,0:0:0:0:
103,192,9885,2,0,P|143:199|187:174,1,81.0000003089905,10|0,0:0|3:0,0:0:0:0:
228,90,10191,2,0,P|268:83|312:108,1,81.0000003089905,2|0,0:0|3:0,0:0:0:0:
339,198,10497,1,10,0:0:0:0:
435,156,10650,6,0,P|410:115|360:96,1,81.0000003089905,2|0,0:0|3:0,0:0:0:0:
303,99,10956,1,0,0:0:0:0:
250,189,11109,2,0,L|261:280,1,81.0000003089905,10|0,0:0|3:0,0:0:0:0:
361,297,11415,2,0,L|372:206,1,81.0000003089905,2|0,0:0|3:0,0:0:0:0:
467,174,11721,2,0,L|478:265,1,81.0000003089905,10|0,0:0|0:0,0:0:0:0:
361,297,12027,6,0,L|336:128,1,162.000000617981,2|8,3:0|0:0,0:0:0:0:
357,32,12487,1,0,3:0:0:0:
263,94,12640,2,0,P|218:104|181:81,1,81.0000003089905,0|0,3:0|3:0,0:0:0:0:
111,17,12946,1,10,0:0:0:0:
110,122,13099,5,2,0:0:0:0:
18,70,13252,1,0,3:0:0:0:
73,195,13405,1,8,0:0:0:0:
188,89,13558,1,8,0:0:0:0:
188,89,13711,1,0,3:0:0:0:
156,215,13864,1,10,0:0:0:0:
219,169,14017,2,0,P|261:156|316:189,1,90,10|0,0:0|0:0,0:0:0:0:
320,222,14323,6,0,P|372:284|454:249,1,162.000000617981,6|0,0:0|3:0,0:0:0:0:
423,131,14783,2,0,L|387:226,1,81.0000003089905,8|0,0:0|0:0,0:0:0:0:
511,147,15089,1,2,3:0:0:0:
453,55,15242,1,2,0:0:0:0:
350,85,15395,1,8,0:0:0:0:
394,206,15548,6,0,L|457:46,1,162.000000617981,2|0,3:0|3:0,0:0:0:0:
350,85,16007,2,0,L|314:180,1,81.0000003089905,8|0,0:0|0:0,0:0:0:0:
218,136,16313,1,2,3:0:0:0:
167,43,16466,1,2,0:0:0:0:
269,20,16619,1,8,0:0:0:0:
127,113,16772,6,0,L|20:82,1,81.0000003089905,2|0,3:0|0:0,0:0:0:0:
167,43,17078,1,0,3:0:0:0:
218,136,17232,2,0,L|178:246,1,81.0000003089905,10|0,0:0|0:0,0:0:0:0:
147,306,17538,1,2,3:0:0:0:
114,239,17691,1,0,0:0:0:0:
226,285,17844,1,8,0:0:0:0:
152,382,17997,6,0,P|102:370|78:322,1,81.0000003089905,2|0,3:0|0:0,0:0:0:0:
114,239,18303,1,0,3:0:0:0:
114,239,18456,2,0,P|142:267|147:306,1,81.0000003089905,8|0,0:0|0:0,0:0:0:0:
35,227,18762,1,2,3:0:0:0:
85,164,18915,1,0,3:0:0:0:
199,204,19068,6,0,P|232:212|262:203,1,60,10|8,0:0|0:0,0:0:0:0:
285,178,19298,1,8,0:0:0:0:
317,137,19374,2,0,P|352:126|399:145,1,81.0000003089905,6|0,0:0|0:0,0:0:0:0:
367,285,19680,2,0,L|353:190,1,81.0000003089905,10|0,0:0|3:0,0:0:0:0:
480,119,19987,2,0,L|466:214,1,81.0000003089905,2|0,0:0|3:0,0:0:0:0:
449,302,20293,1,10,0:0:0:0:
355,204,20446,6,0,P|317:188|267:198,1,81.0000003089905,2|0,0:0|3:0,0:0:0:0:
219,249,20752,1,0,0:0:0:0:
205,353,20905,2,0,L|285:342,1,81.0000003089905,10|0,0:0|3:0,0:0:0:0:
219,249,21211,2,0,L|139:260,1,81.0000003089905,2|0,0:0|3:0,0:0:0:0:
77,174,21517,2,0,L|157:163,1,81.0000003089905,10|0,0:0|0:0,0:0:0:0:
299,240,21823,6,0,L|134:260,1,162.000000617981,2|8,3:0|0:0,0:0:0:0:
77,174,22283,1,0,3:0:0:0:
171,83,22436,2,0,L|156:162,1,81.0000003089905,0|0,3:0|3:0,0:0:0:0:
255,126,22742,1,8,0:0:0:0:
207,250,22895,5,10,0:0:0:0:
207,250,23201,1,8,0:0:0:0:
343,236,23354,1,10,0:0:0:0:
77,262,24272,6,0,L|90:324,2,51.0000009727478,12|0|2,0:0|0:0|0:0,0:0:0:0:
57,192,24732,1,0,3:0:0:0:
178,162,24885,2,0,L|158:266,1,102.000001945496,8|2,0:0|0:0,0:0:0:0:
255,220,25344,6,0,P|295:210|354:251,1,102.000001945496,8|8,0:0|0:0,0:0:0:0:
383,298,25803,1,2,0:0:0:0:
343,357,25956,1,0,3:0:0:0:
470,324,26109,2,0,L|450:220,1,102.000001945496,8|2,0:0|0:0,0:0:0:0:
434,154,26568,1,0,0:0:0:0:
419,65,26721,22,0,P|450:64|475:77,2,51.0000009727478,8|0|2,0:0|0:0|0:0,0:0:0:0:
355,98,27180,1,0,3:0:0:0:
321,191,27334,2,0,P|281:201|222:160,1,102.000001945496,8|2,0:0|0:0,0:0:0:0:
193,111,27793,1,8,0:0:0:0:
221,45,27946,1,0,0:0:0:0:
89,73,28099,5,10,0:0:0:0:
143,191,28252,1,10,0:0:0:0:
89,73,28405,2,0,L|36:78,1,51.0000009727478,10|8,0:0|0:0,0:0:0:0:
143,191,28711,2,0,L|196:196,1,51.0000009727478,10|0,0:0|0:0,0:0:0:0:
275,227,29017,1,0,0:0:0:0:
285,261,29094,1,0,0:0:0:0:
293,296,29170,22,0,L|225:305,1,69.0000013160706,4|0,0:0|0:0,0:0:0:0:
157,344,29476,2,0,P|146:316|159:267,1,60,2|0,0:0|3:0,0:0:0:0:
217,218,29783,2,0,P|228:190|215:141,1,60,2|0,0:0|3:0,0:0:0:0:
150,97,30089,2,0,P|139:69|152:20,1,60,10|0,0:0|0:0,0:0:0:0:
224,5,30395,5,2,3:0:0:0:
276,62,30548,1,2,0:0:0:0:
333,9,30701,1,8,0:0:0:0:
411,47,30854,2,0,P|413:76|402:104,1,60,2|0,3:0|0:0,0:0:0:0:
328,129,31160,1,2,3:0:0:0:
350,204,31313,1,10,0:0:0:0:
432,187,31466,22,0,L|505:198,2,60,2|0|0,0:0|3:0|0:0,0:0:0:0:
409,275,31925,2,0,L|328:285,1,60,10|0,0:0|3:0,0:0:0:0:
276,239,32232,2,0,P|264:270|271:301,1,60,2|0,0:0|3:0,0:0:0:0:
320,361,32538,1,10,0:0:0:0:
222,361,32691,6,0,L|150:347,1,60,2|0,0:0|3:0,0:0:0:0:
92,317,32997,1,0,0:0:0:0:
153,268,33150,1,8,0:0:0:0:
124,189,33303,2,0,P|98:202|77:231,1,60,0|0,3:0|0:0,0:0:0:0:
153,268,33609,1,0,3:0:0:0:
221,202,33762,2,0,L|224:126,1,60,8|0,0:0|0:0,0:0:0:0:
201,58,34068,22,0,P|230:66|266:55,1,60,0|0,3:0|0:0,0:0:0:0:
338,13,34374,2,0,L|404:8,1,60,10|0,0:0|3:0,0:0:0:0:
473,83,34680,2,0,L|407:88,1,60,2|0,0:0|3:0,0:0:0:0:
335,101,34987,1,10,0:0:0:0:
379,164,35140,1,2,0:0:0:0:
459,168,35293,5,2,3:0:0:0:
416,233,35446,2,0,L|415:300,1,60,2|8,0:0|0:0,0:0:0:0:
406,370,35752,2,0,P|374:363|350:330,1,60,2|0,3:0|0:0,0:0:0:0:
339,267,36058,1,2,3:0:0:0:
282,320,36211,1,10,0:0:0:0:
256,248,36364,1,2,0:0:0:0:
205,309,36517,22,0,P|178:321|148:318,1,60,2|0,3:0|0:0,0:0:0:0:
108,230,36823,2,0,P|137:229|168:256,1,60,10|0,0:0|3:0,0:0:0:0:
74,299,37129,2,0,P|48:283|35:257,1,60,2|0,0:0|3:0,0:0:0:0:
46,179,37436,1,10,0:0:0:0:
126,149,37589,6,0,P|151:133|164:107,1,60,2|0,0:0|3:0,0:0:0:0:
155,28,37895,1,0,0:0:0:0:
91,75,38048,1,8,0:0:0:0:
242,64,38201,2,0,L|318:58,1,60,10|0,0:0|0:0,0:0:0:0:
403,47,38507,1,4,0:0:0:0:
374,153,38660,2,0,L|305:146,1,69.0000013160706,4|0,0:0|0:0,0:0:0:0:
315,257,38966,22,0,P|315:295|296:322,1,69.0000013160706,4|0,0:0|0:0,0:0:0:0:
235,267,39272,2,0,L|157:253,1,60,10|0,0:0|3:0,0:0:0:0:
143,172,39578,2,0,L|65:186,1,60,2|0,0:0|3:0,0:0:0:0:
14,247,39885,1,10,0:0:0:0:
79,293,40038,1,2,0:0:0:0:
12,334,40191,5,2,3:0:0:0:
77,375,40344,1,0,0:0:0:0:
79,293,40497,1,10,0:0:0:0:
165,343,40650,2,0,P|197:347|234:336,1,60,2|0,3:0|0:0,0:0:0:0:
192,269,40956,1,0,3:0:0:0:
290,272,41109,2,0,B|300:280|300:280|303:354,1,69.0000013160706,4|0,0:0|0:0,0:0:0:0:
389,301,41415,22,0,L|414:238,1,60,2|0,3:0|0:0,0:0:0:0:
367,144,41721,2,0,L|342:207,1,60,10|0,0:0|3:0,0:0:0:0:
441,174,42027,2,0,L|466:111,1,60,2|0,0:0|3:0,0:0:0:0:
495,46,42334,1,10,0:0:0:0:
410,18,42487,6,0,P|379:10|337:23,1,60,2|0,0:0|3:0,0:0:0:0:
310,81,42793,1,0,0:0:0:0:
275,150,42946,2,0,L|205:141,1,60,8|0,0:0|3:0,0:0:0:0:
139,123,43252,1,0,0:0:0:0:
190,64,43405,1,0,3:0:0:0:
113,26,43558,2,0,L|43:35,1,60,8|0,0:0|0:0,0:0:0:0:
51,129,43864,22,0,P|52:158|86:191,1,60,0|0,3:0|0:0,0:0:0:0:
161,200,44170,2,0,P|160:229|126:262,1,60,10|0,0:0|3:0,0:0:0:0:
62,291,44476,2,0,P|63:320|97:353,1,60,2|0,0:0|3:0,0:0:0:0:
157,360,44783,1,10,0:0:0:0:
219,313,44936,1,2,0:0:0:0:
283,368,45089,6,0,L|356:375,2,60,2|2|8,3:0|0:0|0:0,0:0:0:0:
219,313,45548,2,0,L|212:240,1,60,2|0,3:0|0:0,0:0:0:0:
300,288,45854,1,2,3:0:0:0:
379,243,46007,2,0,L|386:170,1,60,10|2,0:0|0:0,0:0:0:0:
426,117,46313,22,0,P|392:107|352:116,1,60,2|0,3:0|0:0,0:0:0:0:
305,163,46619,2,0,P|271:173|231:164,1,60,10|0,0:0|3:0,0:0:0:0:
211,95,46925,2,0,P|177:85|137:94,1,60,2|0,0:0|3:0,0:0:0:0:
78,111,47232,1,10,0:0:0:0:
158,218,47385,6,0,L|146:287,1,60,2|0,0:0|3:0,0:0:0:0:
127,353,47691,1,6,0:0:0:0:
65,225,47844,1,10,0:0:0:0:
65,225,47997,1,0,3:0:0:0:
227,290,48150,1,14,0:0:0:0:
63,304,48303,1,12,0:0:0:0:
198,369,48456,2,0,P|234:376|267:362,1,60,2|8,0:0|0:0,0:0:0:0:
352,294,48762,22,0,P|287:267|213:304,1,138.000002632141,6|8,0:0|0:0,0:0:0:0:
337,372,49221,1,0,3:0:0:0:
433,350,49374,2,0,P|454:314|448:274,1,69.0000013160706,2|0,0:0|3:0,0:0:0:0:
384,208,49680,2,0,P|363:172|369:132,1,69.0000013160706,10|0,0:0|0:0,0:0:0:0:
476,94,49987,6,0,P|427:146|360:144,1,138.000002632141,2|8,3:0|0:0,0:0:0:0:
392,60,50446,1,0,3:0:0:0:
303,43,50599,2,0,L|225:32,1,69.0000013160706,2|0,0:0|3:0,0:0:0:0:
145,21,50905,1,10,0:0:0:0:
81,83,51058,1,2,0:0:0:0:
171,136,51211,22,0,L|249:125,1,69.0000013160706,2|0,3:0|0:0,0:0:0:0:
173,218,51517,2,0,L|95:207,1,69.0000013160706,10|0,0:0|3:0,0:0:0:0:
43,299,51823,2,0,L|121:288,1,69.0000013160706,2|0,0:0|3:0,0:0:0:0:
136,375,52129,1,10,0:0:0:0:
261,319,52283,6,0,L|184:304,1,69.0000013160706,2|8,0:0|0:0,0:0:0:0:
261,236,52589,1,0,0:0:0:0:
359,226,52742,2,0,L|329:306,1,69.0000013160706,10|0,0:0|3:0,0:0:0:0:
420,366,53048,2,0,L|420:276,1,69.0000013160706,2|0,0:0|3:0,0:0:0:0:
477,222,53354,2,0,L|507:302,1,69.0000013160706,10|0,0:0|0:0,0:0:0:0:
416,166,53660,22,0,L|416:20,1,138.000002632141,2|8,3:0|0:0,0:0:0:0:
327,44,54119,1,0,3:0:0:0:
273,131,54272,2,0,P|237:139|197:125,1,69.0000013160706,2|0,0:0|3:0,0:0:0:0:
205,6,54578,2,0,P|229:33|237:74,1,69.0000013160706,10|0,0:0|0:0,0:0:0:0:
128,123,54885,6,0,P|139:87|171:60,1,69.0000013160706,2|0,3:0|0:0,0:0:0:0:
238,184,55191,2,0,L|239:260,1,69.0000013160706,10|0,0:0|3:0,0:0:0:0:
100,258,55497,2,0,L|165:218,1,69.0000013160706,2|0,0:0|3:0,0:0:0:0:
232,344,55803,2,0,L|165:307,1,69.0000013160706,10|0,0:0|0:0,0:0:0:0:
303,303,56109,22,0,L|427:222,1,138.000002632141,2|8,3:0|0:0,0:0:0:0:
459,311,56568,1,0,3:0:0:0:
500,171,56721,2,0,P|469:145|436:142,1,69.0000013160706,2|0,0:0|3:0,0:0:0:0:
358,174,57027,1,10,0:0:0:0:
430,55,57180,5,10,0:0:0:0:
430,55,57487,1,8,0:0:0:0:
441,224,57640,1,10,0:0:0:0:
441,224,57946,1,10,0:0:0:0:
380,187,58099,2,0,L|297:211,1,76.5000014591217,10|0,0:0|0:0,0:0:0:0:
284,253,58405,6,0,L|117:206,1,162.000000617981,6|0,0:0|3:0,0:0:0:0:
89,120,58864,2,0,P|127:108|169:122,1,81.0000003089905,8|0,0:0|0:0,0:0:0:0:
48,193,59170,1,2,0:0:0:0:
13,99,59323,1,2,0:0:0:0:
93,31,59476,1,8,0:0:0:0:
228,114,59629,6,0,P|142:151|81:108,1,162.000000617981,2|0,3:0|3:0,0:0:0:0:
193,42,60089,2,0,P|232:33|278:50,1,81.0000003089905,8|0,0:0|0:0,0:0:0:0:
311,141,60395,1,2,0:0:0:0:
416,142,60548,1,2,0:0:0:0:
365,49,60701,1,8,0:0:0:0:
368,211,60854,6,0,P|405:229|460:206,1,81.0000003089905,2|0,3:0|0:0,0:0:0:0:
508,139,61160,1,0,3:0:0:0:
439,59,61313,2,0,P|403:41|364:48,1,81.0000003089905,10|0,0:0|0:0,0:0:0:0:
300,132,61619,1,2,0:0:0:0:
388,132,61772,1,0,0:0:0:0:
284,56,61925,1,10,0:0:0:0:
245,200,62078,6,0,L|265:281,1,81.0000003089905,2|0,3:0|0:0,0:0:0:0:
368,210,62385,1,0,3:0:0:0:
368,210,62538,2,0,L|388:129,1,81.0000003089905,8|0,0:0|0:0,0:0:0:0:
412,29,62844,1,2,3:0:0:0:
331,64,62997,1,0,3:0:0:0:
455,177,63150,2,0,L|477:85,1,90,12|0,0:0|0:0,0:0:0:0:
487,43,63456,6,0,P|452:25|396:37,1,81.0000003089905,6|0,0:0|0:0,0:0:0:0:
382,129,63762,2,0,P|347:147|291:135,1,81.0000003089905,10|0,0:0|3:0,0:0:0:0:
213,94,64068,2,0,P|194:129|198:169,1,81.0000003089905,2|0,0:0|3:0,0:0:0:0:
288,224,64374,1,10,0:0:0:0:
393,225,64527,6,0,P|396:264|378:300,1,81.0000003089905,2|0,0:0|3:0,0:0:0:0:
298,313,64834,1,0,0:0:0:0:
204,268,64987,2,0,L|163:346,1,81.0000003089905,10|0,0:0|3:0,0:0:0:0:
120,245,65293,2,0,L|161:167,1,81.0000003089905,2|0,0:0|3:0,0:0:0:0:
103,83,65599,2,0,L|62:161,1,81.0000003089905,10|0,0:0|0:0,0:0:0:0:
83,317,65905,6,0,L|159:169,1,162.000000617981,2|8,3:0|0:0,0:0:0:0:
206,80,66364,1,0,3:0:0:0:
273,161,66517,2,0,P|307:174|354:156,1,81.0000003089905,0|0,3:0|3:0,0:0:0:0:
414,79,66823,1,10,0:0:0:0:
309,68,66976,5,2,0:0:0:0:
348,161,67129,1,0,3:0:0:0:
493,99,67283,1,8,0:0:0:0:
465,238,67436,1,8,0:0:0:0:
465,238,67589,1,0,0:3:0:0:
414,79,67742,1,10,0:0:0:0:
493,99,67895,2,0,P|468:141|412:157,1,90,10|0,0:0|0:0,0:0:0:0:
378,159,68201,6,0,P|299:128|248:180,1,162.000000617981,6|0,0:0|3:0,0:0:0:0:
330,285,68660,2,0,L|318:191,1,81.0000003089905,8|0,0:0|0:0,0:0:0:0:
253,306,68966,1,2,0:0:0:0:
342,361,69119,1,2,0:0:0:0:
413,283,69272,1,8,0:0:0:0:
309,124,69425,6,0,L|333:296,1,162.000000617981,2|0,3:0|3:0,0:0:0:0:
398,202,69885,2,0,L|413:94,1,81.0000003089905,8|0,0:0|0:0,0:0:0:0:
355,31,70191,1,2,0:0:0:0:
309,124,70344,1,2,0:0:0:0:
246,38,70497,1,8,0:0:0:0:
283,199,70650,6,0,L|189:211,1,81.0000003089905,2|0,3:0|0:0,0:0:0:0:
106,166,70956,1,0,3:0:0:0:
153,278,71109,2,0,L|141:372,1,81.0000003089905,10|0,0:0|0:0,0:0:0:0:
78,243,71415,1,2,0:0:0:0:
106,166,71568,1,0,0:0:0:0:
153,278,71721,1,8,0:0:0:0:
11,204,71874,6,0,L|-1:110,1,81.0000003089905,2|0,3:0|0:0,0:0:0:0:
116,85,72180,1,0,3:0:0:0:
116,85,72334,2,0,L|104:179,1,81.0000003089905,8|0,0:0|0:0,0:0:0:0:
163,253,72640,1,2,3:0:0:0:
81,250,72793,1,0,3:0:0:0:
192,177,72946,2,0,P|224:193|242:246,1,90,10|0,0:0|0:0,0:0:0:0:
237,294,73252,6,0,L|338:275,1,81.0000003089905,6|0,0:0|0:0,0:0:0:0:
426,197,73558,2,0,P|381:182|340:200,1,81.0000003089905,10|0,0:0|3:0,0:0:0:0:
395,277,73864,2,0,P|433:286|470:271,1,81.0000003089905,2|0,0:0|3:0,0:0:0:0:
502,171,74170,1,10,0:0:0:0:
418,106,74323,6,0,P|408:57|419:26,1,81.0000003089905,2|2,0:0|3:0,0:0:0:0:
487,69,74629,1,0,0:0:0:0:
502,171,74783,2,0,L|423:202,1,81.0000003089905,10|0,0:0|3:0,0:0:0:0:
342,135,75089,2,0,L|421:104,1,81.0000003089905,2|0,0:0|3:0,0:0:0:0:
335,39,75395,2,0,L|256:70,1,81.0000003089905,8|0,0:0|0:0,0:0:0:0:
267,167,75701,6,0,L|425:101,1,162.000000617981,2|8,3:0|0:0,0:0:0:0:
429,208,76160,1,0,3:0:0:0:
367,293,76313,2,0,P|333:259|332:212,1,81.0000003089905,0|0,3:0|3:0,0:0:0:0:
452,298,76619,2,0,P|443:336|413:363,1,81.0000003089905,8|0,0:0|0:0,0:0:0:0:
267,313,76925,6,0,P|215:272|119:298,1,162.000000617981,0|8,3:0|0:0,0:0:0:0:
68,379,77385,1,0,3:0:0:0:
33,257,77538,2,0,L|9:155,1,81.0000003089905,2|0,0:0|3:0,0:0:0:0:
127,115,77844,2,0,L|103:217,1,81.0000003089905,8|0,0:0|0:0,0:0:0:0:
237,144,78150,5,6,0:0:0:0:
244,229,78303,2,0,P|212:229|186:215,1,60,2|0,0:0|0:0,0:0:0:0:
237,144,78609,2,0,P|252:116|277:100,1,60,2|0,0:0|0:0,0:0:0:0:
315,176,78915,2,0,P|330:203|331:232,1,60,2|0,0:0|0:0,0:0:0:0:
213,290,79221,6,0,L|250:215,1,69.0000013160706,10|0,0:0|0:0,0:0:0:0:
119,269,79527,1,10,0:0:0:0:
104,121,79680,1,10,0:0:0:0:
455,245,80599,22,0,L|434:306,2,51.0000009727478,12|0|2,0:0|0:0|0:0,0:0:0:0:
477,177,81058,1,0,3:0:0:0:
423,108,81211,2,0,P|388:146|397:208,1,102.000001945496,8|2,0:0|0:0,0:0:0:0:
438,293,81670,6,0,L|321:286,1,102.000001945496,8|8,0:0|0:0,0:0:0:0:
275,249,82129,1,2,0:0:0:0:
300,181,82283,1,0,3:0:0:0:
185,222,82436,2,0,L|192:339,1,102.000001945496,8|2,0:0|0:0,0:0:0:0:
120,316,82895,1,8,0:0:0:0:
15,335,83048,22,0,P|21:363|48:396,2,51.0000009727478,8|0|2,0:0|0:0|0:0,0:0:0:0:
29,265,83507,1,0,3:0:0:0:
102,179,83660,2,0,B|115:165|115:165|113:75,1,102.000001945496,4|0,0:0|0:0,0:0:0:0:
113,10,84119,1,8,0:0:0:0:
40,10,84272,1,0,0:0:0:0:
209,47,84425,5,10,0:0:0:0:
102,179,84578,1,10,0:0:0:0:
209,47,84732,2,0,P|241:44|279:55,1,51.0000009727478,10|8,0:0|0:0,0:0:0:0:
299,146,85038,2,0,P|331:149|369:138,1,51.0000009727478,10|0,0:0|0:0,0:0:0:0:
413,71,85344,22,0,L|446:200,1,120,4|0,0:0|3:0,0:0:0:0:
417,261,85803,1,8,0:0:0:0:
494,251,85956,1,0,0:0:0:0:
428,355,86109,2,0,L|347:338,1,60,0|0,3:0|0:0,0:0:0:0:
337,271,86415,1,8,0:0:0:0:
255,208,86568,6,0,P|228:266|251:323,1,120,0|0,3:0|3:0,0:0:0:0:
337,271,87027,2,0,L|352:207,1,60,8|0,0:0|0:0,0:0:0:0:
241,149,87334,2,0,L|256:213,1,60,0|0,3:0|0:0,0:0:0:0:
332,127,87640,1,8,0:0:0:0:
402,55,87793,22,0,P|438:130|417:176,1,120,4|0,0:0|3:0,0:0:0:0:
333,185,88252,2,0,P|326:150|337:116,1,60,8|0,0:0|0:0,0:0:0:0:
428,160,88558,2,0,P|461:171|485:197,1,60,0|0,3:0|0:0,0:0:0:0:
405,251,88864,2,0,P|378:274|343:282,1,60,8|0,0:0|3:0,0:0:0:0:
263,253,89170,5,8,0:0:0:0:
206,354,89323,2,0,L|284:365,1,60,8|0,0:0|0:0,0:0:0:0:
125,281,89629,2,0,L|203:270,1,60,8|0,0:0|0:0,0:0:0:0:
33,225,89936,2,0,L|149:167,1,120,8|0,0:0|0:0,0:0:0:0:
222,130,90395,21,8,0:0:0:0:
146,86,90548,1,8,0:0:0:0:
220,216,90701,1,8,0:0:0:0:
297,92,90854,1,10,0:0:0:0:
297,92,91160,2,0,L|314:158,1,69.0000013160706,10|0,0:0|0:0,0:0:0:0:
405,110,91466,1,8,0:0:0:0:
470,212,91619,6,0,L|319:248,1,138.000002632141,10|0,0:0|0:0,0:0:0:0:
