osu file format v14

[General]
AudioFilename: audio.mp3
AudioLeadIn: 0
PreviewTime: 3997
Countdown: 0
SampleSet: Normal
StackLeniency: 0.3
Mode: 0
LetterboxInBreaks: 0
WidescreenStoryboard: 0

[Editor]
DistanceSpacing: 1.3
BeatDivisor: 4
GridSize: 32
TimelineZoom: 1

[Metadata]
Title:Battle of Omega (GAME OP size)
TitleUnicode:Battle of Omega (GAME OP size)
Artist:Kageyama Hironobu
ArtistUnicode:影山ヒロノブ
Creator:seselis1
Version:Hard
Source:Dragon Ball: Raging Blast 2
Tags:ドラゴンボール レイジングブラスト 2 dbz J-POP opening
BeatmapID:1652396
BeatmapSetID:759592

[Difficulty]
HPDrainRate:4
CircleSize:4
OverallDifficulty:6
ApproachRate:8
SliderMultiplier:1.2
SliderTickRate:1

[Events]
//Background and Video events
0,0,"bg.jpg",0,0
//Break Periods
//Storyboard Layer 0 (Background)
//Storyboard Layer 1 (Fail)
//Storyboard Layer 2 (Pass)
//Storyboard Layer 3 (Foreground)
//Storyboard Sound Samples

[TimingPoints]
2232,306.122448979592,4,1,2,40,1,0
4221,-111.111111111111,4,1,2,40,0,0
4451,-111.111111111111,4,1,3,40,0,0
4527,-83.3333333333333,4,1,2,60,0,1
9272,-100,4,1,2,60,0,1
9502,-100,4,1,3,60,0,1
9578,-83.3333333333333,4,1,2,60,0,1
14017,-100,4,1,2,60,0,0
14247,-100,4,1,3,60,0,0
14323,-83.3333333333333,4,1,2,60,0,1
19068,-100,4,1,2,60,0,1
19374,-83.3333333333333,4,1,2,60,0,1
24272,-111.111111111111,4,1,2,40,0,0
29170,-90.9090909090909,4,1,2,50,0,0
29476,-100,4,1,2,50,0,0
38660,-90.9090909090909,4,1,2,50,0,0
38966,-90.9090909090909,4,1,2,50,0,0
39272,-100,4,1,2,50,0,0
41109,-90.9090909090909,4,1,2,50,0,0
41415,-100,4,1,2,50,0,0
48762,-90.9090909090909,4,1,2,50,0,0
58099,-111.111111111111,4,1,2,40,0,0
58328,-111.111111111111,4,1,3,40,0,0
58405,-83.3333333333333,4,1,2,60,0,1
63150,-100,4,1,2,60,0,1
63379,-100,4,1,3,60,0,1
63456,-83.3333333333333,4,1,2,60,0,1
67895,-100,4,1,2,40,0,0
68124,-100,4,1,3,40,0,0
68201,-83.3333333333333,4,1,2,60,0,1
72946,-100,4,1,2,60,0,1
73175,-100,4,1,3,60,0,1
73252,-83.3333333333333,4,1,2,60,0,1
78150,-100,4,1,2,40,0,0
79221,-90.9090909090909,4,1,2,40,0,0
80599,-111.111111111111,4,1,2,40,0,0
85344,-100,4,1,2,50,0,0
91160,-90.9090909090909,4,1,2,50,0,0
91925,-90.9090909090909,4,1,3,50,0,0

[Colours]
Combo1 : 49,221,173
Combo2 : 230,230,0
Combo3 : 255,128,64
SliderBorder : 54,169,166
SliderTrackOverride : 255,255,155

[HitObjects]
84,79,2231,6,0,L|8:71,2,60,0|0|0,0:0|0:0|0:0,0:0:0:0:
149,122,2691,2,0,L|225:114,2,60,10|0|0,0:0|0:0|0:0,0:0:0:0:
86,169,3150,1,8,0:0:0:0:
118,239,3303,5,10,0:0:0:0:
273,237,3609,1,8,0:0:0:0:
241,307,3762,1,10,0:0:0:0:
396,309,4068,1,10,0:0:0:0:
396,309,4221,2,0,L|431:233,1,80.9999975280763,10|0,0:0|0:0,0:0:0:0:
444,190,4527,6,0,P|372:198|327:139,1,143.999995605469,6|0,0:0|3:0,0:0:0:0:
270,73,4987,2,0,L|347:59,1,71.9999978027344,8|0,0:0|0:0,0:0:0:0:
432,40,5293,2,0,L|405:130,1,71.9999978027344,2|2,3:0|0:0,0:0:0:0:
381,197,5599,1,8,0:0:0:0:
381,197,5752,6,0,P|308:219|250:182,1,143.999995605469,2|0,3:0|3:0,0:0:0:0:
201,108,6211,2,0,P|162:100|130:109,1,71.9999978027344,8|0,0:0|0:0,0:0:0:0:
90,192,6517,2,0,P|129:200|161:191,1,71.9999978027344,2|2,3:0|0:0,0:0:0:0:
253,186,6823,1,8,0:0:0:0:
253,186,6976,6,0,L|223:264,1,71.9999978027344,2|0,3:0|0:0,0:0:0:0:
140,289,7283,1,0,3:0:0:0:
140,289,7436,2,0,L|170:367,1,71.9999978027344,10|0,0:0|0:0,0:0:0:0:
258,365,7742,2,0,L|312:303,1,71.9999978027344,2|0,3:0|0:0,0:0:0:0:
368,241,8048,1,10,0:0:0:0:
392,331,8201,6,0,P|452:290|446:208,1,143.999995605469,2|0,3:0|3:0,0:0:0:0:
388,158,8660,2,0,P|377:123|397:82,1,71.9999978027344,8|0,0:0|0:0,0:0:0:0:
465,37,8966,1,2,3:0:0:0:
481,129,9119,1,0,3:0:0:0:
388,90,9272,2,0,P|337:75|294:93,1,90,12|0,0:0|0:0,0:0:0:0:
282,128,9578,6,0,P|240:137|191:109,1,71.9999978027344,6|0,0:0|0:0,0:0:0:0:
146,61,9885,2,0,L|123:141,1,71.9999978027344,10|0,0:0|3:0,0:0:0:0:
33,141,10191,2,0,L|56:221,1,71.9999978027344,2|0,0:0|3:0,0:0:0:0:
146,222,10497,1,10,0:0:0:0:
175,311,10650,6,0,P|137:320|94:296,1,71.9999978027344,2|0,0:0|3:0,0:0:0:0:
150,226,10956,1,0,0:0:0:0:
150,226,11109,2,0,P|188:217|231:241,1,71.9999978027344,10|0,0:0|3:0,0:0:0:0:
269,306,11415,2,0,L|350:291,1,71.9999978027344,2|0,0:0|3:0,0:0:0:0:
339,199,11721,2,0,L|420:214,1,71.9999978027344,10|0,0:0|0:0,0:0:0:0:
458,292,12027,6,0,P|504:247|482:163,1,143.999995605469,2|8,3:0|0:0,0:0:0:0:
411,121,12487,1,0,3:0:0:0:
492,74,12640,2,0,L|507:-7,1,71.9999978027344,0|0,3:0|3:0,0:0:0:0:
414,27,12946,1,10,0:0:0:0:
411,121,13099,6,0,L|330:106,1,71.9999978027344,2|0,0:0|3:0,0:0:0:0:
301,22,13405,1,8,0:0:0:0:
233,87,13558,1,8,0:0:0:0:
272,171,13711,1,0,3:0:0:0:
179,158,13864,1,10,0:0:0:0:
179,158,14017,2,0,P|146:116|150:70,1,90,10|0,0:0|0:0,0:0:0:0:
163,37,14323,6,0,L|7:29,1,143.999995605469,6|0,0:0|3:0,0:0:0:0:
49,117,14783,2,0,L|77:199,1,71.9999978027344,8|0,0:0|0:0,0:0:0:0:
102,273,15089,2,0,L|179:268,1,71.9999978027344,2|2,3:0|0:0,0:0:0:0:
267,262,15395,1,8,0:0:0:0:
252,169,15548,6,0,P|172:257|180:287,1,143.999995605469,2|0,3:0|3:0,0:0:0:0:
267,262,16007,2,0,L|344:267,1,71.9999978027344,8|0,0:0|0:0,0:0:0:0:
428,241,16313,2,0,P|435:278|413:318,1,71.9999978027344,2|2,3:0|0:0,0:0:0:0:
344,270,16619,1,8,0:0:0:0:
344,270,16772,6,0,P|337:233|359:193,1,71.9999978027344,2|0,3:0|0:0,0:0:0:0:
425,152,17078,1,0,3:0:0:0:
425,152,17232,2,0,P|432:115|410:75,1,71.9999978027344,10|0,0:0|0:0,0:0:0:0:
332,118,17538,2,0,L|255:113,1,71.9999978027344,2|0,3:0|0:0,0:0:0:0:
214,31,17844,1,8,0:0:0:0:
149,110,17997,6,0,L|173:259,1,143.999995605469,2|0,3:0|3:0,0:0:0:0:
247,307,18456,2,0,L|259:233,1,71.9999978027344,8|0,0:0|0:0,0:0:0:0:
330,176,18762,1,2,3:0:0:0:
242,146,18915,1,0,3:0:0:0:
258,235,19068,2,0,P|282:258|325:268,1,60,10|8,0:0|0:0,0:0:0:0:
345,264,19298,1,8,0:0:0:0:
345,264,19374,6,0,P|379:256|427:271,1,71.9999978027344,6|0,0:0|0:0,0:0:0:0:
488,321,19680,2,0,L|505:234,1,71.9999978027344,10|0,0:0|3:0,0:0:0:0:
435,183,19987,2,0,L|418:96,1,71.9999978027344,2|0,0:0|3:0,0:0:0:0:
443,21,20293,1,10,0:0:0:0:
357,58,20446,6,0,P|324:67|281:52,1,71.9999978027344,2|0,0:0|3:0,0:0:0:0:
209,6,20752,1,0,0:0:0:0:
209,6,20905,2,0,P|176:-3|133:12,1,71.9999978027344,10|0,0:0|3:0,0:0:0:0:
65,63,21211,2,0,L|82:150,1,71.9999978027344,2|0,0:0|3:0,0:0:0:0:
173,172,21518,2,0,L|190:85,1,71.9999978027344,10|0,0:0|0:0,0:0:0:0:
288,57,21823,6,0,L|317:203,1,143.999995605469,2|8,3:0|0:0,0:0:0:0:
408,182,22283,1,0,3:0:0:0:
388,273,22436,2,0,L|371:356,1,71.9999978027344,0|0,3:0|3:0,0:0:0:0:
295,291,22742,1,8,0:0:0:0:
262,378,22895,5,10,0:0:0:0:
121,254,23201,1,8,0:0:0:0:
154,341,23354,1,10,0:0:0:0:
78,107,24272,22,0,L|13:92,2,53.9999983520508,12|0|2,0:0|0:0|0:0,0:0:0:0:
153,131,24732,1,0,3:0:0:0:
153,131,24885,2,0,P|166:185|121:204,1,107.999996704102,8|2,0:0|0:0,0:0:0:0:
52,230,25344,22,0,P|39:284|84:303,1,107.999996704102,8|8,0:0|0:0,0:0:0:0:
151,286,25803,1,2,0:0:0:0:
187,352,25956,1,0,3:0:0:0:
246,305,26109,2,0,P|291:291|355:324,1,107.999996704102,8|2,0:0|0:0,0:0:0:0:
394,370,26568,1,0,0:0:0:0:
434,306,26721,6,0,L|499:291,2,53.9999983520508,8|0|2,0:0|0:0|0:0,0:0:0:0:
387,246,27180,1,0,3:0:0:0:
387,246,27334,2,0,L|407:129,1,107.999996704102,8|2,0:0|0:0,0:0:0:0:
448,77,27793,2,0,P|418:65|378:72,1,53.9999983520508,8|0,0:0|0:0,0:0:0:0:
327,116,28099,21,10,0:0:0:0:
291,43,28252,1,10,0:0:0:0:
247,123,28405,2,0,L|251:179,1,53.9999983520508,10|8,0:0|0:0,0:0:0:0:
167,140,28711,2,0,L|171:84,1,53.9999983520508,10|0,0:0|0:0,0:0:0:0:
180,3,29017,1,0,0:0:0:0:
180,3,29170,6,0,L|113:6,1,66.0000020141602,4|0,0:0|0:0,0:0:0:0:
41,35,29476,2,0,P|18:86|58:158,1,120,2|2,0:0|0:0,0:0:0:0:
114,164,29936,1,0,3:0:0:0:
114,164,30089,2,0,L|177:133,1,60,10|0,0:0|0:0,0:0:0:0:
245,138,30395,22,0,L|298:164,2,60,2|2|8,3:0|0:0|0:0,0:0:0:0:
209,207,30854,2,0,L|209:346,1,120,2|2,3:0|3:0,0:0:0:0:
284,309,31313,1,10,0:0:0:0:
350,350,31466,6,0,P|414:369|470:339,1,120,2|0,0:0|0:0,0:0:0:0:
408,290,31925,2,0,L|388:215,1,60,10|0,0:0|3:0,0:0:0:0:
465,202,32232,2,0,L|485:127,1,60,2|0,0:0|3:0,0:0:0:0:
501,69,32538,1,10,0:0:0:0:
424,85,32691,22,0,L|349:65,1,60,2|0,0:0|3:0,0:0:0:0:
319,6,32997,1,0,0:0:0:0:
274,69,33150,1,8,0:0:0:0:
274,69,33303,2,0,L|306:202,1,120,0|0,3:0|3:0,0:0:0:0:
377,206,33762,2,0,L|362:282,1,60,8|0,0:0|0:0,0:0:0:0:
288,279,34068,6,0,L|242:242,1,60,0|0,3:0|0:0,0:0:0:0:
200,175,34374,2,0,P|158:238|187:291,1,120,10|2,0:0|0:0,0:0:0:0:
204,351,34834,1,0,3:0:0:0:
204,351,34987,2,0,L|124:366,1,60,10|2,0:0|0:0,0:0:0:0:
85,309,35293,22,0,L|26:297,2,60,2|2|8,3:0|0:0|0:0,0:0:0:0:
83,231,35752,2,0,L|59:99,1,120,2|2,3:0|3:0,0:0:0:0:
22,45,36211,2,0,P|50:34|90:40,1,60,10|2,0:0|0:0,0:0:0:0:
139,86,36517,6,0,P|189:109|261:82,1,120,2|10,3:0|0:0,0:0:0:0:
282,21,36976,1,0,3:0:0:0:
282,21,37129,2,0,L|363:6,1,60,2|0,0:0|3:0,0:0:0:0:
355,87,37436,1,10,0:0:0:0:
367,163,37589,22,0,L|448:178,1,60,2|0,0:0|3:0,0:0:0:0:
501,191,37895,1,0,0:0:0:0:
453,253,38048,1,8,0:0:0:0:
453,253,38201,2,0,L|446:327,1,60,10|0,0:0|0:0,0:0:0:0:
481,382,38507,1,4,0:0:0:0:
395,371,38660,2,0,L|309:357,1,66.0000020141602,4|0,0:0|0:0,0:0:0:0:
244,367,38966,6,0,P|243:332|268:297,1,66.0000020141602,4|0,0:0|0:0,0:0:0:0:
322,262,39272,2,0,P|342:200|304:147,1,120,10|2,0:0|0:0,0:0:0:0:
242,122,39732,1,0,3:0:0:0:
242,122,39885,2,0,L|177:133,1,60,10|2,0:0|0:0,0:0:0:0:
165,207,40191,22,0,L|100:196,1,60,2|0,3:0|0:0,0:0:0:0:
54,138,40497,1,10,0:0:0:0:
12,204,40650,2,0,L|39:336,1,120,2|0,3:0|3:0,0:0:0:0:
117,347,41109,2,0,B|130:333|130:333|140:276,1,66.0000020141602,4|0,0:0|0:0,0:0:0:0:
165,207,41415,6,0,L|230:218,1,60,2|0,3:0|0:0,0:0:0:0:
242,292,41721,2,0,L|307:281,1,60,10|0,0:0|3:0,0:0:0:0:
365,237,42027,2,0,P|381:263|370:316,1,60,2|0,0:0|3:0,0:0:0:0:
357,366,42334,1,10,0:0:0:0:
433,353,42487,22,0,L|498:342,1,60,2|0,0:0|3:0,0:0:0:0:
472,267,42793,1,0,0:0:0:0:
472,267,42946,2,0,L|493:196,1,60,8|0,0:0|3:0,0:0:0:0:
509,134,43252,1,0,0:0:0:0:
432,148,43405,1,0,3:0:0:0:
432,148,43558,2,0,L|405:90,1,60,8|0,0:0|0:0,0:0:0:0:
403,15,43864,6,0,P|371:18|342:43,1,60,0|0,3:0|0:0,0:0:0:0:
317,105,44170,2,0,P|260:114|207:69,1,120,10|2,0:0|0:0,0:0:0:0:
174,10,44629,1,0,3:0:0:0:
174,10,44783,2,0,L|126:57,1,60,10|2,0:0|0:0,0:0:0:0:
53,53,45089,22,0,L|6:5,2,60,2|2|8,3:0|0:0|0:0,0:0:0:0:
92,120,45548,2,0,L|91:254,1,120,2|2,3:0|3:0,0:0:0:0:
59,311,46007,2,0,P|88:319|131:304,1,60,10|2,0:0|0:0,0:0:0:0:
171,257,46313,6,0,P|200:249|243:264,1,60,2|0,3:0|0:0,0:0:0:0:
249,330,46619,2,0,L|321:319,1,60,10|0,0:0|3:0,0:0:0:0:
325,244,46925,2,0,L|397:255,1,60,2|0,0:0|3:0,0:0:0:0:
443,304,47232,1,10,0:0:0:0:
482,237,47385,22,0,L|492:166,1,60,2|0,0:0|3:0,0:0:0:0:
505,101,47691,1,6,0:0:0:0:
413,132,47844,1,10,0:0:0:0:
413,132,47997,1,0,3:0:0:0:
409,27,48150,1,14,0:0:0:0:
334,102,48303,1,12,0:0:0:0:
306,10,48456,2,0,P|272:10|241:26,1,60,2|8,0:0|0:0,0:0:0:0:
225,102,48762,6,0,L|88:55,1,132.00000402832,6|8,0:0|0:0,0:0:0:0:
24,19,49221,1,0,3:0:0:0:
24,104,49374,2,0,L|-5:182,1,66.0000020141602,2|0,0:0|3:0,0:0:0:0:
85,179,49680,2,0,L|114:257,1,66.0000020141602,10|0,0:0|0:0,0:0:0:0:
25,264,49987,22,0,L|-4:342,1,66.0000020141602,2|0,3:0|0:0,0:0:0:0:
80,361,50293,1,8,0:0:0:0:
80,361,50446,1,0,3:0:0:0:
152,315,50599,2,0,P|182:308|223:324,1,66.0000020141602,2|0,0:0|3:0,0:0:0:0:
281,372,50905,1,10,0:0:0:0:
299,288,51058,1,2,0:0:0:0:
363,345,51211,6,0,P|393:352|434:336,1,66.0000020141602,2|0,3:0|0:0,0:0:0:0:
509,323,51517,2,0,P|500:293|465:266,1,66.0000020141602,10|0,0:0|3:0,0:0:0:0:
420,203,51823,2,0,P|398:225|392:268,1,66.0000020141602,2|0,0:0|3:0,0:0:0:0:
474,269,52129,1,10,0:0:0:0:
502,187,52283,22,0,P|469:127|394:123,1,132.00000402832,2|0,0:0|0:0,0:0:0:0:
338,163,52742,2,0,L|263:139,1,66.0000020141602,10|0,0:0|3:0,0:0:0:0:
243,63,53048,2,0,L|168:87,1,66.0000020141602,2|0,0:0|3:0,0:0:0:0:
171,168,53354,2,0,L|96:144,1,66.0000020141602,10|0,0:0|0:0,0:0:0:0:
70,70,53660,6,0,P|20:114|37:192,1,132.00000402832,2|8,3:0|0:0,0:0:0:0:
80,238,54119,1,0,3:0:0:0:
164,251,54272,2,0,L|148:334,1,66.0000020141602,2|0,0:0|3:0,0:0:0:0:
235,298,54578,2,0,L|262:377,1,66.0000020141602,10|0,0:0|0:0,0:0:0:0:
328,312,54885,22,0,L|391:367,1,66.0000020141602,2|0,3:0|0:0,0:0:0:0:
463,364,55191,2,0,P|465:320|443:291,1,66.0000020141602,10|0,0:0|3:0,0:0:0:0:
388,247,55497,2,0,P|386:203|408:174,1,66.0000020141602,2|0,0:0|3:0,0:0:0:0:
474,149,55803,2,0,P|476:105|454:76,1,66.0000020141602,10|0,0:0|0:0,0:0:0:0:
380,92,56109,6,0,L|232:73,1,132.00000402832,2|8,3:0|0:0,0:0:0:0:
165,93,56568,1,0,3:0:0:0:
177,177,56721,2,0,L|253:166,1,66.0000020141602,2|0,0:0|3:0,0:0:0:0:
304,227,57027,1,10,0:0:0:0:
252,300,57180,21,10,0:0:0:0:
79,298,57487,1,8,0:0:0:0:
131,371,57640,1,10,0:0:0:0:
161,202,57946,1,10,0:0:0:0:
161,202,58099,2,0,L|134:114,1,80.9999975280763,10|0,0:0|0:0,0:0:0:0:
107,93,58405,22,0,P|178:100|235:44,1,143.999995605469,6|0,0:0|3:0,0:0:0:0:
148,20,58864,2,0,P|111:9|72:23,1,71.9999978027344,8|0,0:0|0:0,0:0:0:0:
18,78,59170,2,0,L|40:161,1,71.9999978027344,2|2,0:0|0:0,0:0:0:0:
13,230,59476,1,8,0:0:0:0:
13,230,59629,6,0,L|156:188,1,143.999995605469,2|0,3:0|3:0,0:0:0:0:
211,252,60089,2,0,L|132:277,1,71.9999978027344,8|0,0:0|0:0,0:0:0:0:
93,344,60395,2,0,L|172:369,1,71.9999978027344,2|2,0:0|0:0,0:0:0:0:
242,336,60701,1,8,0:0:0:0:
242,336,60854,6,0,P|275:320|327:335,1,71.9999978027344,2|0,3:0|0:0,0:0:0:0:
382,369,61160,1,0,3:0:0:0:
382,369,61313,2,0,P|417:372|449:356,1,71.9999978027344,10|0,0:0|0:0,0:0:0:0:
397,286,61619,2,0,L|359:220,1,71.9999978027344,2|0,0:0|0:0,0:0:0:0:
279,250,61925,1,10,0:0:0:0:
303,167,62078,6,0,L|334:17,1,143.999995605469,2|0,3:0|3:0,0:0:0:0:
408,68,62538,2,0,L|390:145,1,71.9999978027344,8|0,0:0|0:0,0:0:0:0:
446,204,62844,1,2,3:0:0:0:
480,124,62997,1,0,3:0:0:0:
391,138,63150,2,0,P|340:147|302:112,1,90,12|0,0:0|0:0,0:0:0:0:
311,83,63456,6,0,P|280:70|227:92,1,71.9999978027344,6|0,0:0|0:0,0:0:0:0:
165,114,63762,2,0,L|183:204,1,71.9999978027344,10|0,0:0|3:0,0:0:0:0:
265,188,64068,2,0,L|247:278,1,71.9999978027344,2|0,0:0|3:0,0:0:0:0:
165,270,64374,1,10,0:0:0:0:
196,350,64527,6,0,P|239:367|280:356,1,71.9999978027344,2|0,0:0|3:0,0:0:0:0:
330,308,64834,1,0,0:0:0:0:
330,308,64987,2,0,P|373:291|414:302,1,71.9999978027344,10|0,0:0|3:0,0:0:0:0:
468,343,65293,2,0,L|487:265,1,71.9999978027344,2|0,0:0|3:0,0:0:0:0:
421,214,65599,2,0,L|402:136,1,71.9999978027344,10|0,0:0|0:0,0:0:0:0:
447,69,65905,6,0,P|378:55|327:102,1,143.999995605469,2|8,3:0|0:0,0:0:0:0:
327,187,66364,1,0,3:0:0:0:
256,136,66517,2,0,L|165:123,1,71.9999978027344,0|0,3:0|3:0,0:0:0:0:
118,70,66823,1,10,0:0:0:0:
101,154,66976,6,0,L|88:245,1,71.9999978027344,2|0,0:0|3:0,0:0:0:0:
17,271,67283,1,8,0:0:0:0:
79,330,67436,1,8,0:0:0:0:
156,291,67589,1,0,0:3:0:0:
216,352,67742,1,10,0:0:0:0:
216,352,67895,2,0,P|239:312|230:261,1,90,10|0,0:0|0:0,0:0:0:0:
210,233,68201,6,0,L|365:221,1,143.999995605469,6|0,0:0|3:0,0:0:0:0:
428,178,68660,2,0,P|441:228|433:254,1,71.9999978027344,8|0,0:0|0:0,0:0:0:0:
357,290,68966,2,0,P|346:248|362:206,1,71.9999978027344,2|2,0:0|0:0,0:0:0:0:
358,134,69272,1,8,0:0:0:0:
358,134,69425,6,0,L|203:122,1,143.999995605469,2|0,3:0|3:0,0:0:0:0:
143,74,69884,2,0,P|130:124|138:150,1,71.9999978027344,8|0,0:0|0:0,0:0:0:0:
127,229,70191,2,0,L|203:207,1,71.9999978027344,2|2,0:0|0:0,0:0:0:0:
279,188,70497,1,8,0:0:0:0:
279,188,70650,6,0,L|266:270,1,71.9999978027344,2|0,3:0|0:0,0:0:0:0:
353,252,70956,1,0,3:0:0:0:
353,252,71109,2,0,L|366:334,1,71.9999978027344,10|0,0:0|0:0,0:0:0:0:
443,289,71415,2,0,L|458:207,1,71.9999978027344,2|0,0:0|0:0,0:0:0:0:
476,134,71721,1,8,0:0:0:0:
392,155,71874,6,0,P|327:172|268:122,1,143.999995605469,2|0,3:0|3:0,0:0:0:0:
230,50,72334,2,0,P|260:38|308:54,1,71.9999978027344,8|0,0:0|0:0,0:0:0:0:
270,127,72640,1,2,3:0:0:0:
184,116,72793,1,0,3:0:0:0:
216,199,72946,2,0,L|198:296,1,90,10|0,0:0|0:0,0:0:0:0:
203,330,73252,6,0,L|122:304,1,71.9999978027344,6|0,0:0|0:0,0:0:0:0:
63,248,73558,2,0,L|144:222,1,71.9999978027344,10|0,0:0|3:0,0:0:0:0:
75,160,73864,2,0,L|-6:134,1,71.9999978027344,2|0,0:0|3:0,0:0:0:0:
68,77,74170,1,10,0:0:0:0:
148,109,74323,6,0,P|186:111|228:78,1,71.9999978027344,2|2,0:0|3:0,0:0:0:0:
278,36,74629,1,0,0:0:0:0:
278,36,74783,2,0,L|296:119,1,71.9999978027344,10|0,0:0|3:0,0:0:0:0:
373,154,75089,2,0,L|391:71,1,71.9999978027344,2|0,0:0|3:0,0:0:0:0:
481,84,75395,2,0,L|499:167,1,71.9999978027344,8|0,0:0|0:0,0:0:0:0:
418,224,75701,6,0,L|387:80,1,143.999995605469,2|8,3:0|0:0,0:0:0:0:
293,106,76160,1,0,3:0:0:0:
293,106,76313,2,0,P|266:114|214:94,1,71.9999978027344,0|0,3:0|3:0,0:0:0:0:
179,29,76619,2,0,P|152:21|100:41,1,71.9999978027344,8|0,0:0|0:0,0:0:0:0:
149,109,76925,6,0,L|156:258,1,143.999995605469,0|8,3:0|0:0,0:0:0:0:
78,291,77385,1,0,3:0:0:0:
78,291,77538,2,0,L|127:354,1,71.9999978027344,2|0,0:0|3:0,0:0:0:0:
208,343,77844,2,0,L|257:280,1,71.9999978027344,8|0,0:0|0:0,0:0:0:0:
311,219,78150,5,6,0:0:0:0:
374,273,78303,2,0,P|403:280|444:266,1,60,2|0,0:0|0:0,0:0:0:0:
509,263,78609,2,0,P|500:234|467:205,1,60,2|0,0:0|0:0,0:0:0:0:
433,150,78915,2,0,P|412:171|404:214,1,60,2|0,0:0|0:0,0:0:0:0:
402,311,79221,6,0,L|410:386,1,66.0000020141602,10|0,0:0|0:0,0:0:0:0:
327,349,79527,1,10,0:0:0:0:
312,264,79680,1,10,0:0:0:0:
112,200,80599,22,0,L|184:190,2,53.9999983520508,12|0|2,0:0|0:0|0:0,0:0:0:0:
37,211,81058,1,0,3:0:0:0:
37,211,81211,2,0,P|12:163|42:98,1,107.999996704102,8|2,0:0|0:0,0:0:0:0:
100,100,81670,6,0,P|158:110|204:75,1,107.999996704102,8|8,0:0|0:0,0:0:0:0:
230,17,82129,1,2,0:0:0:0:
278,75,82283,1,0,3:0:0:0:
323,14,82436,2,0,P|381:4|427:39,1,107.999996704102,8|2,0:0|0:0,0:0:0:0:
434,103,82895,1,8,0:0:0:0:
368,139,83048,22,0,L|309:131,2,53.9999983520508,8|0|2,0:0|0:0|0:0,0:0:0:0:
421,191,83507,1,0,3:0:0:0:
391,260,83660,2,0,B|370:271|370:271|273:261,1,107.999996704102,4|0,0:0|0:0,0:0:0:0:
245,198,84119,2,0,L|175:208,1,53.9999983520508,8|0,0:0|0:0,0:0:0:0:
155,287,84425,5,10,0:0:0:0:
105,218,84578,1,10,0:0:0:0:
70,294,84732,2,0,L|51:344,1,53.9999983520508,10|8,0:0|0:0,0:0:0:0:
0,263,85038,2,0,L|19:213,1,53.9999983520508,10|0,0:0|0:0,0:0:0:0:
39,120,85344,22,0,P|77:156|155:142,1,120,4|0,0:0|3:0,0:0:0:0:
182,85,85803,2,0,P|212:78|258:105,1,60,8|0,0:0|0:0,0:0:0:0:
284,150,86109,2,0,P|314:157|360:130,1,60,0|0,3:0|0:0,0:0:0:0:
391,88,86415,1,8,0:0:0:0:
449,139,86568,6,0,L|431:260,1,120,0|0,3:0|3:0,0:0:0:0:
411,333,87027,2,0,L|329:344,1,60,8|0,0:0|0:0,0:0:0:0:
340,263,87334,2,0,L|258:252,1,60,0|0,3:0|0:0,0:0:0:0:
236,319,87640,1,8,0:0:0:0:
195,252,87793,22,0,P|206:206|268:174,1,120,4|0,0:0|3:0,0:0:0:0:
344,180,88252,2,0,P|365:142|365:114,1,60,8|0,0:0|0:0,0:0:0:0:
295,94,88558,2,0,P|274:56|274:28,1,60,0|0,3:0|0:0,0:0:0:0:
350,41,88864,2,0,L|413:41,1,60,8|0,0:0|3:0,0:0:0:0:
471,88,89170,5,8,0:0:0:0:
468,165,89323,2,0,L|420:213,1,60,8|0,0:0|0:0,0:0:0:0:
457,278,89629,2,0,L|391:295,1,60,8|0,0:0|0:0,0:0:0:0:
386,370,89936,2,0,L|265:329,1,120,8|0,0:0|0:0,0:0:0:0:
222,271,90395,21,8,0:0:0:0:
177,334,90548,1,8,0:0:0:0:
119,281,90701,1,8,0:0:0:0:
74,345,90854,1,10,0:0:0:0:
46,175,91160,2,0,L|128:165,1,66.0000020141602,10|0,0:0|0:0,0:0:0:0:
100,81,91466,1,8,0:0:0:0:
184,94,91619,6,0,L|318:109,1,132.00000402832,10|0,0:0|0:0,0:0:0:0:
