osu file format v14

[General]
AudioFilename: audio.mp3
AudioLeadIn: 0
PreviewTime: 3997
Countdown: 0
SampleSet: Normal
StackLeniency: 0.3
Mode: 0
LetterboxInBreaks: 0
WidescreenStoryboard: 0

[Editor]
Bookmarks: 30859
DistanceSpacing: 1.8
BeatDivisor: 4
GridSize: 32
TimelineZoom: 1

[Metadata]
Title:Battle of Omega (GAME OP size)
TitleUnicode:Battle of Omega (GAME OP size)
Artist:Kageyama Hironobu
ArtistUnicode:影山ヒロノブ
Creator:seselis1
Version:Expert
Source:Dragon Ball: Raging Blast 2
Tags:ドラゴンボール レイジングブラスト 2 dbz J-POP opening
BeatmapID:1746432
BeatmapSetID:759592

[Difficulty]
HPDrainRate:6
CircleSize:4
OverallDifficulty:8
ApproachRate:9.2
SliderMultiplier:1.6
SliderTickRate:1

[Events]
//Background and Video events
0,0,"bg.jpg",0,0
//Break Periods
//Storyboard Layer 0 (Background)
//Storyboard Layer 1 (Fail)
//Storyboard Layer 2 (Pass)
//Storyboard Layer 3 (Foreground)
//Storyboard Sound Samples

[TimingPoints]
2232,306.122448979592,4,1,2,40,1,0
4221,-125,4,1,2,40,0,0
4451,-125,4,1,3,40,0,0
4527,-66.6666666666667,4,1,2,60,0,1
9272,-100,4,1,2,60,0,1
9502,-100,4,1,3,60,0,1
9578,-66.6666666666667,4,1,2,60,0,1
14017,-100,4,1,2,60,0,0
14247,-100,4,1,3,60,0,0
14323,-66.6666666666667,4,1,2,60,0,1
19068,-100,4,1,2,60,0,1
19374,-66.6666666666667,4,1,2,60,0,1
24272,-125,4,1,2,40,0,0
29170,-83.3333333333333,4,1,2,50,0,0
29476,-100,4,1,2,50,0,0
38660,-83.3333333333333,4,1,2,50,0,0
38966,-83.3333333333333,4,1,2,50,0,0
39272,-100,4,1,2,50,0,0
41109,-83.3333333333333,4,1,2,50,0,0
41415,-100,4,1,2,50,0,0
48762,-83.3333333333333,4,1,2,50,0,0
58099,-125,4,1,2,40,0,0
58328,-125,4,1,3,40,0,0
58405,-66.6666666666667,4,1,2,60,0,1
63150,-100,4,1,2,60,0,1
63379,-100,4,1,3,60,0,1
63456,-66.6666666666667,4,1,2,60,0,1
67895,-100,4,1,2,40,0,0
68124,-100,4,1,3,40,0,0
68201,-66.6666666666667,4,1,2,60,0,1
72946,-100,4,1,2,60,0,1
73175,-100,4,1,3,60,0,1
73252,-66.6666666666667,4,1,2,60,0,1
78150,-100,4,1,2,40,0,0
79221,-83.3333333333333,4,1,2,40,0,0
80599,-125,4,1,2,40,0,0
85344,-100,4,1,2,50,0,0
91160,-83.3333333333333,4,1,2,50,0,0
91925,-83.3333333333333,4,1,3,50,0,0

[Colours]
Combo1 : 49,221,173
Combo2 : 230,230,0
Combo3 : 255,128,64
SliderBorder : 54,169,166
SliderTrackOverride : 255,255,155

[HitObjects]
57,100,2231,6,0,L|155:93,1,80,0|0,0:0|0:0,0:0:0:0:
273,82,2538,1,0,0:0:0:0:
153,221,2691,2,0,L|251:214,1,80,10|0,0:0|0:0,0:0:0:0:
369,204,2998,1,0,0:0:0:0:
288,312,3150,1,8,0:0:0:0:
273,82,3303,5,10,0:0:0:0:
273,82,3609,1,8,0:0:0:0:
288,312,3762,1,10,0:0:0:0:
288,312,4068,1,10,0:0:0:0:
378,313,4221,2,0,P|341:299|274:323,1,96,10|0,0:0|0:0,0:0:0:0:
228,354,4527,6,0,P|147:351|134:209,1,240.000009155274,6|0,0:0|3:0,0:0:0:0:
238,136,4987,2,0,P|259:81|230:14,1,120.000004577637,8|0,0:0|0:0,0:0:0:0:
56,112,5293,1,2,3:0:0:0:
195,267,5446,1,2,0:0:0:0:
148,129,5599,1,8,0:0:0:0:
332,286,5752,6,0,B|522:299|522:299|458:247,1,240.000009155274,2|0,3:0|3:0,0:0:0:0:
386,167,6212,2,0,P|369:104|402:43,1,120.000004577637,8|0,0:0|0:0,0:0:0:0:
253,205,6517,1,2,3:0:0:0:
121,49,6670,1,2,0:0:0:0:
250,98,6823,1,8,0:0:0:0:
125,259,6976,6,0,P|74:225|66:163,1,120.000004577637,2|0,3:0|0:0,0:0:0:0:
121,49,7283,1,0,3:0:0:0:
341,144,7436,2,0,P|307:195|245:203,1,120.000004577637,10|0,0:0|0:0,0:0:0:0:
64,170,7742,1,2,3:0:0:0:
225,118,7895,1,0,0:0:0:0:
270,297,8048,1,10,0:0:0:0:
203,29,8201,6,0,L|79:16,1,120.000004577637,2|0,3:0|0:0,0:0:0:0:
164,185,8507,1,0,3:0:0:0:
271,94,8660,2,0,L|395:81,1,120.000004577637,8|0,0:0|0:0,0:0:0:0:
376,284,8966,1,2,3:0:0:0:
314,177,9119,1,0,3:0:0:0:
495,296,9272,2,0,L|371:283,1,120.000004577637,12|0,0:0|0:0,0:0:0:0:
308,321,9578,6,0,B|278:351|278:351|124:334,1,180.000006866455,6|0,0:0|0:0,0:0:0:0:
66,316,9885,1,10,0:0:0:0:
183,241,10038,1,0,3:0:0:0:
25,111,10191,1,2,0:0:0:0:
75,220,10344,1,0,3:0:0:0:
242,97,10497,1,10,0:0:0:0:
275,318,10650,6,0,L|177:236,1,120.000004577637,2|0,0:0|3:0,0:0:0:0:
135,92,10956,1,0,0:0:0:0:
338,108,11109,2,0,P|319:163|253:191,1,120.000004577637,10|0,0:0|3:0,0:0:0:0:
75,220,11415,2,0,P|132:208|189:252,1,120.000004577637,2|0,0:0|3:0,0:0:0:0:
303,384,11721,2,0,P|264:340|273:268,1,120.000004577637,10|0,0:0|0:0,0:0:0:0:
381,47,12027,6,0,P|435:129|362:263,1,240.000009155274,2|8,3:0|0:0,0:0:0:0:
290,146,12487,1,0,3:0:0:0:
169,229,12640,2,0,P|214:276|288:272,1,120.000004577637,0|0,3:0|3:0,0:0:0:0:
305,63,12946,1,10,0:0:0:0:
384,250,13099,5,2,0:0:0:0:
149,141,13252,1,0,3:0:0:0:
342,149,13405,1,8,0:0:0:0:
121,28,13558,1,8,0:0:0:0:
324,31,13711,1,0,3:0:0:0:
68,197,13864,1,10,0:0:0:0:
181,234,14017,2,0,L|62:194,1,120,10|0,0:0|0:0,0:0:0:0:
8,253,14323,6,0,L|236:332,1,240.000009155274,6|0,0:0|3:0,0:0:0:0:
359,290,14783,2,0,L|477:250,1,120,8|0,0:0|0:0,0:0:0:0:
268,248,15089,1,2,3:0:0:0:
361,66,15242,1,2,0:0:0:0:
365,199,15395,1,8,0:0:0:0:
119,185,15548,6,0,P|58:149|132:25,1,240.000009155274,2|0,3:0|3:0,0:0:0:0:
250,72,16007,2,0,P|310:88|368:58,1,120.000004577637,8|0,0:0|0:0,0:0:0:0:
160,103,16313,1,2,3:0:0:0:
251,285,16466,1,2,0:0:0:0:
301,176,16619,1,8,0:0:0:0:
174,336,16772,6,0,P|220:377|288:366,1,120.000004577637,2|0,3:0|0:0,0:0:0:0:
374,281,17078,1,0,3:0:0:0:
180,153,17232,2,0,P|139:199|150:267,1,120.000004577637,10|0,0:0|0:0,0:0:0:0:
339,166,17538,1,2,3:0:0:0:
331,41,17691,1,0,0:0:0:0:
221,223,17844,1,8,0:0:0:0:
467,110,17997,6,0,L|454:240,1,120.000004577637,2|0,3:0|0:0,0:0:0:0:
286,119,18303,1,0,3:0:0:0:
307,252,18456,2,0,L|320:382,1,120.000004577637,8|0,0:0|0:0,0:0:0:0:
121,322,18762,1,2,3:0:0:0:
233,277,18915,1,0,3:0:0:0:
35,355,19068,2,0,L|45:250,1,80,10|8,0:0|0:0,0:0:0:0:
49,221,19298,1,8,0:0:0:0:
57,169,19374,6,0,B|64:142|64:142|148:84,1,120.000004577637,6|0,0:0|0:0,0:0:0:0:
233,277,19680,1,10,0:0:0:0:
121,233,19834,1,0,3:0:0:0:
220,55,19987,1,2,0:0:0:0:
228,192,20140,1,0,3:0:0:0:
58,53,20293,1,10,0:0:0:0:
228,192,20446,6,0,L|365:177,1,120.000004577637,2|0,0:0|3:0,0:0:0:0:
356,41,20752,1,0,0:0:0:0:
156,156,20905,2,0,P|157:233|196:269,1,120.000004577637,10|0,0:0|3:0,0:0:0:0:
239,66,21211,2,0,P|171:28|121:44,1,120.000004577637,2|0,0:0|3:0,0:0:0:0:
264,193,21517,2,0,P|330:153|341:101,1,120.000004577637,10|0,0:0|0:0,0:0:0:0:
73,213,21823,6,0,P|105:322|217:341,1,240.000009155274,2|8,3:0|0:0,0:0:0:0:
186,225,22283,1,0,3:0:0:0:
317,171,22436,2,0,L|321:300,1,120.000004577637,0|0,3:0|3:0,0:0:0:0:
186,225,22742,1,8,0:0:0:0:
461,358,22895,5,10,0:0:0:0:
461,358,23201,1,8,0:0:0:0:
186,225,23354,1,10,0:0:0:0:
485,94,24272,6,0,L|498:25,2,64,12|0|2,0:0|0:0|0:0,0:0:0:0:
471,170,24732,1,0,3:0:0:0:
387,70,24885,2,0,B|366:53|366:53|255:48,1,128,8|2,0:0|0:0,0:0:0:0:
253,191,25344,6,0,L|387:184,1,128,8|8,0:0|0:0,0:0:0:0:
227,120,25803,1,2,0:0:0:0:
227,120,25956,1,0,3:0:0:0:
216,276,26109,2,0,L|82:269,1,128,8|2,0:0|0:0,0:0:0:0:
14,267,26568,1,0,0:0:0:0:
124,185,26721,22,0,L|203:187,2,64,8|0|2,0:0|0:0|0:0,0:0:0:0:
48,183,27180,1,0,3:0:0:0:
149,59,27334,2,0,L|118:212,1,128,8|2,0:0|0:0,0:0:0:0:
105,258,27793,1,8,0:0:0:0:
214,266,27946,1,0,0:0:0:0:
49,313,28099,5,10,0:0:0:0:
258,331,28252,1,10,0:0:0:0:
9,241,28405,2,0,L|8:161,1,64,10|8,0:0|0:0,0:0:0:0:
214,266,28711,2,0,L|234:187,1,64,10|0,0:0|0:0,0:0:0:0:
209,84,29017,1,0,0:0:0:0:
159,76,29094,1,0,0:0:0:0:
105,69,29170,22,0,L|112:176,1,95.9999970703126,4|0,0:0|0:0,0:0:0:0:
68,324,29476,2,0,P|109:334|155:319,1,80,2|0,0:0|3:0,0:0:0:0:
229,203,29783,2,0,P|270:193|316:208,1,80,2|0,0:0|3:0,0:0:0:0:
380,331,30089,2,0,P|421:341|467:326,1,80,10|0,0:0|0:0,0:0:0:0:
404,168,30395,5,2,3:0:0:0:
272,281,30548,1,2,0:0:0:0:
385,253,30701,1,8,0:0:0:0:
229,203,30854,2,0,L|108:171,1,120,2|0,3:0|0:0,0:0:0:0:
46,155,31160,1,2,3:0:0:0:
110,274,31313,1,10,0:0:0:0:
229,203,31466,21,2,0:0:0:0:
229,203,31619,2,0,L|251:100,1,80,0|0,3:0|0:0,0:0:0:0:
150,27,31925,2,0,L|172:130,1,80,10|0,0:0|3:0,0:0:0:0:
327,142,32232,2,0,L|377:64,1,80,2|0,0:0|3:0,0:0:0:0:
270,0,32538,1,10,0:0:0:0:
245,124,32691,5,2,0:0:0:0:
245,124,32844,2,0,L|229:203,1,80,0|0,3:0|0:0,0:0:0:0:
316,226,33150,1,8,0:0:0:0:
338,315,33303,2,0,P|292:319|254:293,1,80,0|0,3:0|0:0,0:0:0:0:
316,226,33609,1,0,3:0:0:0:
402,199,33762,2,0,P|448:195|486:221,1,80,8|0,0:0|0:0,0:0:0:0:
503,298,34068,22,0,P|457:302|419:276,1,80,0|0,3:0|0:0,0:0:0:0:
465,113,34374,2,0,L|482:23,1,80,10|0,0:0|3:0,0:0:0:0:
323,77,34680,2,0,L|340:167,1,80,2|0,0:0|3:0,0:0:0:0:
392,30,34987,1,10,0:0:0:0:
256,22,35140,1,2,0:0:0:0:
337,155,35293,5,2,3:0:0:0:
201,147,35446,1,2,0:0:0:0:
262,228,35599,1,8,0:0:0:0:
148,77,35752,2,0,P|86:58|25:96,1,120,2|0,3:0|0:0,0:0:0:0:
8,131,36058,1,2,3:0:0:0:
94,235,36211,1,10,0:0:0:0:
201,147,36364,1,2,0:0:0:0:
12,220,36517,22,0,L|22:321,1,80,2|0,3:0|0:0,0:0:0:0:
160,354,36823,2,0,L|170:253,1,80,10|0,0:0|3:0,0:0:0:0:
297,213,37129,2,0,L|307:314,1,80,2|0,0:0|3:0,0:0:0:0:
427,353,37436,1,10,0:0:0:0:
446,185,37589,5,2,0:0:0:0:
446,185,37742,2,0,L|436:286,1,80,0|0,3:0|0:0,0:0:0:0:
360,153,38048,1,8,0:0:0:0:
271,256,38201,2,0,P|214:265|170:238,1,80,10|0,0:0|0:0,0:0:0:0:
230,126,38507,1,4,0:0:0:0:
351,288,38660,1,4,0:0:0:0:
360,153,38813,1,0,0:0:0:0:
194,257,38966,22,0,L|206:369,1,95.9999970703126,4|0,0:0|0:0,0:0:0:0:
87,282,39272,2,0,L|98:185,1,80,10|0,0:0|3:0,0:0:0:0:
174,91,39578,2,0,L|185:188,1,80,2|0,0:0|3:0,0:0:0:0:
64,101,39885,1,10,0:0:0:0:
163,7,40038,1,2,0:0:0:0:
283,82,40191,5,2,3:0:0:0:
180,94,40344,1,0,0:0:0:0:
283,182,40497,1,10,0:0:0:0:
391,81,40650,2,0,P|333:59|273:94,1,120,2|0,3:0|0:0,0:0:0:0:
338,132,40956,1,0,3:0:0:0:
345,317,41109,2,0,B|353:299|353:299|351:220,1,95.9999970703126,4|0,0:0|0:0,0:0:0:0:
193,205,41415,22,0,P|243:209|275:193,1,80,2|0,3:0|0:0,0:0:0:0:
141,137,41721,2,0,P|112:178|110:214,1,80,10|0,0:0|3:0,0:0:0:0:
222,125,42027,2,0,P|200:79|170:59,1,80,2|0,0:0|3:0,0:0:0:0:
54,121,42334,1,10,0:0:0:0:
193,205,42487,5,2,0:0:0:0:
193,205,42640,2,0,L|180:302,1,80,0|0,3:0|0:0,0:0:0:0:
172,384,42946,1,8,0:0:0:0:
264,350,43099,1,0,3:0:0:0:
264,350,43252,2,0,L|277:253,1,80,0|0,0:0|3:0,0:0:0:0:
285,171,43558,1,8,0:0:0:0:
361,233,43711,1,0,0:0:0:0:
361,233,43864,22,0,L|348:330,1,80,0|0,3:0|0:0,0:0:0:0:
483,339,44170,2,0,P|503:295|490:239,1,80,10|0,0:0|3:0,0:0:0:0:
361,233,44476,2,0,P|360:193|379:158,1,80,2|0,0:0|3:0,0:0:0:0:
494,83,44783,1,10,0:0:0:0:
445,210,44936,1,2,0:0:0:0:
308,90,45089,5,2,3:0:0:0:
260,217,45242,1,2,0:0:0:0:
209,138,45395,1,8,0:0:0:0:
307,284,45548,2,0,P|264:302|199:274,1,120,2|0,3:0|0:0,0:0:0:0:
163,216,45854,1,2,3:0:0:0:
140,351,46007,1,10,0:0:0:0:
41,257,46160,1,2,0:0:0:0:
217,370,46313,22,0,P|252:380|314:357,1,80,2|0,3:0|0:0,0:0:0:0:
296,217,46619,2,0,P|269:242|258:307,1,80,10|0,0:0|3:0,0:0:0:0:
398,360,46925,2,0,P|389:324|338:282,1,80,2|0,0:0|3:0,0:0:0:0:
163,280,47232,1,10,0:0:0:0:
270,142,47385,5,2,0:0:0:0:
255,282,47538,1,0,3:0:0:0:
367,186,47691,1,6,0:0:0:0:
169,92,47844,1,10,0:0:0:0:
169,92,47997,1,0,3:0:0:0:
255,282,48150,1,14,0:0:0:0:
283,65,48303,1,12,0:0:0:0:
367,186,48456,1,2,0:0:0:0:
207,182,48609,1,8,0:0:0:0:
409,270,48762,22,0,P|454:189|414:107,1,191.999994140625,6|8,0:0|0:0,0:0:0:0:
294,106,49221,1,0,3:0:0:0:
278,268,49374,2,0,L|269:374,1,95.9999970703126,2|0,0:0|3:0,0:0:0:0:
166,237,49680,2,0,L|157:131,1,95.9999970703126,10|0,0:0|0:0,0:0:0:0:
22,237,49987,6,0,L|187:236,1,143.999995605469,2|0,3:0|0:0,0:0:0:0:
236,197,50293,1,8,0:0:0:0:
191,313,50446,1,0,3:0:0:0:
335,237,50599,2,0,P|347:199|320:132,1,95.9999970703126,2|0,0:0|3:0,0:0:0:0:
169,134,50905,1,10,0:0:0:0:
298,34,51058,1,2,0:0:0:0:
236,197,51211,22,0,P|207:220|137:212,1,95.9999970703126,2|0,3:0|0:0,0:0:0:0:
106,70,51517,2,0,P|140:83|168:148,1,95.9999970703126,10|0,0:0|3:0,0:0:0:0:
58,243,51823,2,0,P|52:206|94:149,1,95.9999970703126,2|0,0:0|3:0,0:0:0:0:
123,314,52129,1,10,0:0:0:0:
298,265,52283,5,2,0:0:0:0:
298,265,52436,2,0,P|324:226|321:179,1,95.9999970703126,8|0,0:0|0:0,0:0:0:0:
141,213,52742,2,0,L|257:206,1,95.9999970703126,10|0,0:0|3:0,0:0:0:0:
375,110,53048,2,0,L|259:103,1,95.9999970703126,2|0,0:0|3:0,0:0:0:0:
147,7,53354,2,0,L|263:0,1,95.9999970703126,10|0,0:0|0:0,0:0:0:0:
470,119,53660,22,0,L|262:102,1,191.999994140625,2|8,3:0|0:0,0:0:0:0:
159,97,54119,1,0,3:0:0:0:
204,267,54272,2,0,P|262:233|274:190,1,95.9999970703126,2|0,0:0|3:0,0:0:0:0:
111,235,54578,2,0,P|111:302|142:334,1,95.9999970703126,10|0,0:0|0:0,0:0:0:0:
185,169,54885,6,0,P|126:135|83:146,1,95.9999970703126,2|0,3:0|0:0,0:0:0:0:
204,267,55191,2,0,L|325:258,1,95.9999970703126,10|0,0:0|3:0,0:0:0:0:
439,176,55497,2,0,L|318:167,1,95.9999970703126,2|0,0:0|3:0,0:0:0:0:
398,351,55803,2,0,L|389:230,1,95.9999970703126,10|0,0:0|0:0,0:0:0:0:
263,90,56109,22,0,L|248:258,1,143.999995605469,2|0,3:0|0:0,0:0:0:0:
242,307,56415,1,8,0:0:0:0:
157,236,56568,1,0,3:0:0:0:
334,287,56721,2,0,L|454:280,1,95.9999970703126,2|0,0:0|3:0,0:0:0:0:
461,121,57027,1,10,0:0:0:0:
242,307,57180,5,10,0:0:0:0:
242,307,57487,1,8,0:0:0:0:
461,121,57640,1,10,0:0:0:0:
461,121,57946,1,10,0:0:0:0:
462,216,58099,2,0,L|460:114,1,96,10|0,0:0|0:0,0:0:0:0:
394,77,58405,6,0,P|328:157|210:105,1,240.000009155274,6|0,0:0|3:0,0:0:0:0:
116,25,58864,2,0,P|57:5|1:32,1,120.000004577637,8|0,0:0|0:0,0:0:0:0:
47,226,59170,1,2,0:0:0:0:
214,114,59323,1,2,0:0:0:0:
81,125,59476,1,8,0:0:0:0:
306,216,59629,6,0,P|352:138|272:14,1,240.000009155274,2|0,3:0|3:0,0:0:0:0:
190,126,60089,2,0,P|131:146|75:119,1,120.000004577637,8|0,0:0|0:0,0:0:0:0:
177,303,60395,1,2,0:0:0:0:
52,234,60548,1,2,0:0:0:0:
254,208,60701,1,8,0:0:0:0:
75,339,60854,6,0,P|42:295|56:228,1,120.000004577637,2|0,3:0|0:0,0:0:0:0:
136,148,61160,1,0,3:0:0:0:
331,251,61313,2,0,P|341:308|307:356,1,120.000004577637,10|0,0:0|0:0,0:0:0:0:
129,275,61619,1,2,0:0:0:0:
249,282,61772,1,0,0:0:0:0:
55,346,61925,1,10,0:0:0:0:
193,186,62078,6,0,L|201:32,1,120.000004577637,2|0,3:0|0:0,0:0:0:0:
41,197,62385,1,0,3:0:0:0:
129,275,62538,2,0,L|283:283,1,120.000004577637,8|0,0:0|0:0,0:0:0:0:
415,163,62844,1,2,3:0:0:0:
280,162,62997,1,0,3:0:0:0:
483,223,63150,2,0,P|503:160|481:106,1,120,12|0,0:0|0:0,0:0:0:0:
429,60,63456,6,0,B|401:45|401:45|248:49,1,180.000006866455,6|0,0:0|0:0,0:0:0:0:
178,51,63762,1,10,0:0:0:0:
255,181,63915,1,0,3:0:0:0:
51,179,64068,1,2,0:0:0:0:
173,141,64221,1,0,3:0:0:0:
121,338,64374,1,10,0:0:0:0:
315,273,64527,6,0,P|299:213|218:176,1,120.000004577637,2|0,0:0|3:0,0:0:0:0:
229,329,64834,1,0,0:0:0:0:
431,309,64987,2,0,L|462:177,1,120.000004577637,10|0,0:0|3:0,0:0:0:0:
332,31,65293,2,0,L|363:163,1,120.000004577637,2|0,0:0|3:0,0:0:0:0:
229,329,65599,2,0,L|260:197,1,120.000004577637,10|0,0:0|0:0,0:0:0:0:
76,9,65905,6,0,L|128:256,1,240.000009155274,2|8,3:0|0:0,0:0:0:0:
230,141,66364,1,0,3:0:0:0:
331,240,66517,2,0,L|300:372,1,120.000004577637,0|0,3:0|3:0,0:0:0:0:
230,141,66823,1,10,0:0:0:0:
473,207,66976,5,2,0:0:0:0:
303,356,67129,1,0,3:0:0:0:
353,157,67283,1,8,0:0:0:0:
444,358,67436,1,8,0:0:0:0:
473,207,67589,1,0,0:3:0:0:
225,231,67742,1,10,0:0:0:0:
215,117,67895,2,0,P|237:180|210:251,1,120,10|0,0:0|0:0,0:0:0:0:
171,289,68201,6,0,P|114:202|163:68,1,240.000009155274,6|0,0:0|3:0,0:0:0:0:
268,177,68660,2,0,P|327:196|394:162,1,120.000004577637,8|0,0:0|0:0,0:0:0:0:
243,24,68966,1,2,0:0:0:0:
244,262,69119,1,2,0:0:0:0:
327,116,69272,1,8,0:0:0:0:
200,342,69425,6,0,B|398:342|398:342|356:315,1,240.000009155274,2|0,3:0|3:0,0:0:0:0:
244,262,69885,2,0,L|218:126,1,120.000004577637,8|0,0:0|0:0,0:0:0:0:
424,125,70191,1,2,0:0:0:0:
362,319,70344,1,2,0:0:0:0:
337,167,70497,1,8,0:0:0:0:
199,317,70650,6,0,L|52:291,1,120.000004577637,2|0,3:0|0:0,0:0:0:0:
58,155,70956,1,0,3:0:0:0:
258,192,71109,2,0,L|111:218,1,120.000004577637,10|0,0:0|0:0,0:0:0:0:
309,100,71415,1,2,0:0:0:0:
336,235,71568,1,0,0:0:0:0:
201,81,71721,1,8,0:0:0:0:
423,174,71874,6,0,P|452:128|436:58,1,120.000004577637,2|0,3:0|0:0,0:0:0:0:
309,100,72180,1,0,3:0:0:0:
336,235,72334,2,0,P|347:292|317:343,1,120.000004577637,8|0,0:0|0:0,0:0:0:0:
124,275,72640,1,2,3:0:0:0:
250,277,72793,1,0,3:0:0:0:
60,342,72946,2,0,P|30:291|41:233,1,120.000004577637,10|0,0:0|0:0,0:0:0:0:
104,184,73252,6,0,B|135:169|135:169|145:13,1,180.000006866455,6|0,0:0|0:0,0:0:0:0:
70,12,73558,1,10,0:0:0:0:
23,131,73711,1,0,3:0:0:0:
228,141,73864,1,2,0:0:0:0:
104,184,74017,1,0,3:0:0:0:
252,44,74170,1,10,0:0:0:0:
199,257,74323,6,0,L|228:138,1,120.000004577637,2|2,0:0|3:0,0:0:0:0:
144,23,74629,1,0,0:0:0:0:
357,65,74783,2,0,L|386:183,1,120.000004577637,10|0,0:0|3:0,0:0:0:0:
199,257,75089,2,0,L|287:172,1,120.000004577637,2|0,0:0|3:0,0:0:0:0:
450,298,75395,2,0,L|332:263,1,120.000004577637,8|0,0:0|0:0,0:0:0:0:
55,104,75701,6,0,L|296:176,1,240.000009155274,2|8,3:0|0:0,0:0:0:0:
261,307,76160,1,0,3:0:0:0:
399,266,76313,2,0,L|437:141,1,120.000004577637,0|0,3:0|3:0,0:0:0:0:
249,58,76619,2,0,L|287:183,1,120.000004577637,8|0,0:0|0:0,0:0:0:0:
454,62,76925,6,0,P|363:8|239:72,1,240.000009155274,0|8,3:0|0:0,0:0:0:0:
173,162,77385,1,0,3:0:0:0:
362,265,77538,2,0,L|352:120,1,120.000004577637,2|0,0:0|3:0,0:0:0:0:
247,233,77844,2,0,L|237:378,1,120.000004577637,8|0,0:0|0:0,0:0:0:0:
54,268,78150,5,6,0:0:0:0:
135,149,78303,2,0,L|141:229,1,80,2|0,0:0|0:0,0:0:0:0:
39,126,78609,2,0,L|45:46,1,80,2|0,0:0|0:0,0:0:0:0:
198,36,78915,2,0,L|223:115,1,80,2|0,0:0|0:0,0:0:0:0:
148,324,79221,6,0,L|139:214,1,95.9999970703126,10|0,0:0|0:0,0:0:0:0:
305,347,79527,1,10,0:0:0:0:
130,132,79680,1,10,0:0:0:0:
483,93,80599,22,0,L|497:158,2,64,12|0|2,0:0|0:0|0:0,0:0:0:0:
464,19,81058,1,0,3:0:0:0:
406,136,81211,2,0,P|328:154|265:114,1,128,8|2,0:0|0:0,0:0:0:0:
112,69,81670,6,0,P|190:51|253:91,1,128,8|8,0:0|0:0,0:0:0:0:
175,192,82129,1,2,0:0:0:0:
175,192,82283,1,0,3:0:0:0:
111,316,82436,2,0,P|189:334|252:294,1,128,8|2,0:0|0:0,0:0:0:0:
274,255,82895,1,8,0:0:0:0:
374,310,83048,22,0,L|367:378,2,64,8|0|2,0:0|0:0|0:0,0:0:0:0:
382,234,83507,1,0,3:0:0:0:
474,139,83660,2,0,B|488:151|488:151|499:269,1,128,4|0,0:0|0:0,0:0:0:0:
503,338,84119,1,8,0:0:0:0:
503,338,84272,1,0,0:0:0:0:
474,139,84425,5,10,0:0:0:0:
276,208,84578,1,10,0:0:0:0:
494,63,84732,2,0,L|499:-4,1,64,10|8,0:0|0:0,0:0:0:0:
312,127,85038,2,0,L|307:63,1,64,10|0,0:0|0:0,0:0:0:0:
489,182,85344,22,0,L|346:268,1,160,4|0,0:0|3:0,0:0:0:0:
207,264,85803,1,8,0:0:0:0:
276,191,85956,1,0,0:0:0:0:
107,262,86109,2,0,L|53:186,1,80,0|0,3:0|0:0,0:0:0:0:
192,138,86415,1,8,0:0:0:0:
140,341,86568,6,0,P|215:368|288:307,1,160,0|0,3:0|3:0,0:0:0:0:
197,218,87027,1,8,0:0:0:0:
304,227,87180,1,0,0:0:0:0:
192,138,87334,1,0,3:0:0:0:
302,115,87487,1,0,0:0:0:0:
178,57,87640,1,8,0:0:0:0:
364,41,87793,22,0,P|398:118|363:192,1,160,4|0,0:0|3:0,0:0:0:0:
239,219,88252,1,8,0:0:0:0:
337,270,88405,1,0,0:0:0:0:
280,141,88558,2,0,P|244:133|198:141,1,80,0|0,3:0|0:0,0:0:0:0:
68,242,88864,2,0,P|104:250|150:242,1,80,8|0,0:0|3:0,0:0:0:0:
27,138,89170,5,8,0:0:0:0:
107,12,89323,2,0,L|109:116,1,80,8|0,0:0|0:0,0:0:0:0:
251,29,89629,2,0,L|192:115,1,80,8|0,0:0|0:0,0:0:0:0:
444,71,89936,2,0,L|280:134,1,160,8|0,0:0|0:0,0:0:0:0:
126,199,90395,21,8,0:0:0:0:
284,304,90548,1,8,0:0:0:0:
294,129,90701,1,8,0:0:0:0:
202,249,90854,1,10,0:0:0:0:
202,249,91160,2,0,P|189:197|211:133,1,95.9999970703126,10|0,0:0|0:0,0:0:0:0:
370,113,91466,1,8,0:0:0:0:
370,288,91619,6,0,P|403:199|355:98,1,191.999994140625,10|0,0:0|0:0,0:0:0:0:
