osu file format v14

[General]
AudioFilename: audio.mp3
AudioLeadIn: 0
PreviewTime: 3997
Countdown: 0
SampleSet: Normal
StackLeniency: 0.3
Mode: 0
LetterboxInBreaks: 0
WidescreenStoryboard: 0

[Editor]
DistanceSpacing: 1.3
BeatDivisor: 4
GridSize: 32
TimelineZoom: 1

[Metadata]
Title:Battle of Omega (GAME OP size)
TitleUnicode:Battle of Omega (GAME OP size)
Artist:Kageyama Hironobu
ArtistUnicode:影山ヒロノブ
Creator:seselis1
Version:Easy
Source:Dragon Ball: Raging Blast 2
Tags:ドラゴンボール レイジングブラスト 2 dbz J-POP opening
BeatmapID:1743858
BeatmapSetID:759592

[Difficulty]
HPDrainRate:2
CircleSize:2
OverallDifficulty:2
ApproachRate:3
SliderMultiplier:0.8
SliderTickRate:1

[Events]
//Background and Video events
0,0,"bg.jpg",0,0
//Break Periods
//Storyboard Layer 0 (Background)
//Storyboard Layer 1 (Fail)
//Storyboard Layer 2 (Pass)
//Storyboard Layer 3 (Foreground)
//Storyboard Sound Samples

[TimingPoints]
2232,306.122448979592,4,1,2,40,1,0
4221,-100,4,1,2,40,0,0
4451,-100,4,1,3,40,0,0
4527,-100,4,1,2,60,0,1
9272,-100,4,1,2,60,0,1
9502,-100,4,1,3,60,0,1
9578,-100,4,1,2,60,0,1
14017,-100,4,1,2,60,0,0
14247,-100,4,1,3,60,0,0
14323,-100,4,1,2,60,0,1
19068,-100,4,1,2,60,0,1
19374,-100,4,1,2,60,0,1
24272,-100,4,1,2,40,0,0
29170,-100,4,1,2,50,0,0
29476,-100,4,1,2,50,0,0
38660,-100,4,1,2,50,0,0
38966,-100,4,1,2,50,0,0
39272,-100,4,1,2,50,0,0
41109,-100,4,1,2,50,0,0
41415,-100,4,1,2,50,0,0
48762,-100,4,1,2,50,0,0
58099,-100,4,1,2,40,0,0
58328,-100,4,1,3,40,0,0
58405,-100,4,1,2,60,0,1
63150,-100,4,1,2,60,0,1
63379,-100,4,1,3,60,0,1
63456,-100,4,1,2,60,0,1
67895,-100,4,1,2,40,0,0
68124,-100,4,1,3,40,0,0
68201,-100,4,1,2,60,0,1
72946,-100,4,1,2,60,0,1
73175,-100,4,1,3,60,0,1
73252,-100,4,1,2,60,0,1
78150,-100,4,1,2,40,0,0
79221,-100,4,1,2,40,0,0
80599,-100,4,1,2,40,0,0
85344,-100,4,1,2,50,0,0
91160,-100,4,1,2,50,0,0
91925,-100,4,1,3,50,0,0

[Colours]
Combo1 : 49,221,173
Combo2 : 230,230,0
Combo3 : 255,128,64
SliderBorder : 54,169,166
SliderTrackOverride : 255,255,155

[HitObjects]
17,149,2231,22,0,P|76:131|137:163,1,120,0|0,0:0|0:0,0:0:0:0:
159,252,2997,1,0,0:0:0:0:
189,351,3303,2,0,P|248:369|309:337,1,120,10|0,0:0|0:0,0:0:0:0:
360,262,4068,2,0,L|415:267,1,40,10|10,0:0|0:0,0:0:0:0:
482,328,4527,6,0,P|502:276|483:209,1,120,6|8,0:0|0:0,0:0:0:0:
400,156,5293,2,0,L|345:161,1,40,2|2,3:0|0:0,0:0:0:0:
274,219,5752,2,0,P|254:167|273:100,1,120,2|8,3:0|0:0,0:0:0:0:
356,49,6518,2,0,L|411:54,1,40,2|0,3:0|0:0,0:0:0:0:
488,99,6976,6,0,P|508:154|493:211,1,120,2|10,3:0|0:0,0:0:0:0:
401,262,7742,2,0,P|385:319|405:374,2,120,2|2|8,3:0|3:0|0:0,0:0:0:0:
410,158,8966,2,0,L|317:149,1,80,2|12,3:0|0:0,0:0:0:0:
226,142,9578,5,6,0:0:0:0:
237,245,9885,2,0,L|244:324,2,80,10|2|10,0:0|0:0|0:0,0:0:0:0:
140,284,10803,2,0,P|95:294|57:279,1,80,0|10,3:0|0:0,0:0:0:0:
10,194,11415,2,0,P|23:150|55:124,1,80,2|10,0:0|0:0,0:0:0:0:
152,128,12027,6,0,P|183:161|189:202,1,80,2|8,3:0|0:0,0:0:0:0:
140,284,12640,1,0,3:0:0:0:
223,345,12946,1,10,0:0:0:0:
283,260,13252,2,0,L|373:244,1,80,0|8,3:0|0:0,0:0:0:0:
464,228,13864,2,0,L|463:172,1,40,10|10,0:0|0:0,0:0:0:0:
459,84,14323,6,0,L|339:61,1,120,6|8,0:0|0:0,0:0:0:0:
238,45,15089,2,0,L|238:102,1,40,2|2,3:0|0:0,0:0:0:0:
239,188,15548,2,0,L|119:211,1,120,2|8,3:0|0:0,0:0:0:0:
18,227,16314,2,0,L|18:170,1,40,2|0,3:0|0:0,0:0:0:0:
15,83,16772,6,0,L|135:106,1,120,2|10,3:0|0:0,0:0:0:0:
234,84,17538,2,0,L|351:61,2,120,2|2|8,3:0|3:0|0:0,0:0:0:0:
196,181,18762,2,0,L|197:271,1,80,2|10,3:0|0:0,0:0:0:0:
199,364,19374,5,6,0:0:0:0:
106,317,19680,2,0,P|70:309|16:330,2,80,10|2|10,0:0|0:0|0:0,0:0:0:0:
199,364,20599,2,0,P|235:372|289:351,1,80,0|10,3:0|0:0,0:0:0:0:
286,257,21211,2,0,P|323:245|362:253,1,80,2|10,0:0|0:0,0:0:0:0:
393,352,21823,6,0,P|430:363|469:355,1,80,2|8,3:0|0:0,0:0:0:0:
504,256,22436,1,0,3:0:0:0:
439,174,22742,2,0,L|410:138,1,40,8|10,0:0|0:0,0:0:0:0:
309,141,23201,2,0,L|280:177,1,40,8|10,0:0|0:0,0:0:0:0:
31,355,24272,6,0,L|8:195,1,160,12|8,0:0|0:0,0:0:0:0:
121,88,25344,2,0,L|157:295,1,200,8|8,0:0|0:0,0:0:0:0:
285,198,26568,22,0,L|249:-9,1,200,8|8,0:0|0:0,0:0:0:0:
374,96,27793,2,0,P|433:116|492:86,2,120,8|10|10,0:0|0:0|0:0,0:0:0:0:
428,242,29170,5,4,0:0:0:0:
407,343,29476,2,0,L|243:325,1,160,2|10,0:0|0:0,0:0:0:0:
143,326,30395,2,0,L|9:343,2,120,2|2|10,3:0|3:0|0:0,0:0:0:0:
193,235,31619,22,0,L|214:148,1,80,0|10,3:0|0:0,0:0:0:0:
111,127,32232,2,0,L|90:40,1,80,2|10,0:0|0:0,0:0:0:0:
190,16,32844,2,0,P|250:13|304:53,2,120,0|0|8,3:0|3:0|0:0,0:0:0:0:
225,113,34068,5,0,3:0:0:0:
228,216,34374,2,0,L|391:191,1,160,10|10,0:0|0:0,0:0:0:0:
486,218,35293,2,0,P|484:154|437:101,2,120,2|2|10,3:0|3:0|0:0,0:0:0:0:
413,292,36517,22,0,L|326:309,1,80,2|10,3:0|0:0,0:0:0:0:
297,210,37129,2,0,L|210:193,1,80,2|10,0:0|0:0,0:0:0:0:
194,296,37742,2,0,L|65:318,1,120,0|10,3:0|0:0,0:0:0:0:
89,213,38507,2,0,L|89:167,1,40,4|4,0:0|0:0,0:0:0:0:
11,103,38966,5,4,0:0:0:0:
103,55,39272,2,0,L|276:42,1,160,10|10,0:0|0:0,0:0:0:0:
366,45,40191,2,0,L|498:55,2,120,2|2|4,3:0|3:0|0:0,0:0:0:0:
311,133,41415,22,0,P|305:171|327:225,1,80,2|10,3:0|0:0,0:0:0:0:
415,241,42027,2,0,P|420:280|409:318,1,80,2|10,0:0|0:0,0:0:0:0:
317,368,42640,2,0,L|222:380,2,80,0|8|0,3:0|0:0|0:0,0:0:0:0:
408,318,43558,1,8,0:0:0:0:
320,262,43864,5,0,3:0:0:0:
217,280,44170,2,0,L|50:262,1,160,10|10,0:0|0:0,0:0:0:0:
90,163,45089,2,0,L|213:175,2,120,2|2|10,3:0|3:0|0:0,0:0:0:0:
117,62,46313,22,0,L|198:69,1,80,2|10,3:0|0:0,0:0:0:0:
290,113,46925,2,0,L|371:106,1,80,2|10,0:0|0:0,0:0:0:0:
455,46,47538,1,0,3:0:0:0:
469,148,47844,2,0,L|475:239,2,80,10|14|2,0:0|0:0|0:0,0:0:0:0:
375,193,48762,6,0,L|209:210,1,160,6|2,0:0|0:0,0:0:0:0:
203,105,49680,1,10,0:0:0:0:
109,150,49987,2,0,P|89:227|138:302,1,160,2|2,3:0|0:0,0:0:0:0:
225,324,50905,1,10,0:0:0:0:
301,253,51211,22,0,P|340:244|384:258,1,80,2|10,3:0|0:0,0:0:0:0:
408,353,51823,2,0,P|446:363|484:354,1,80,2|10,0:0|0:0,0:0:0:0:
508,252,52436,1,8,0:0:0:0:
443,170,52742,2,0,L|442:78,2,80,10|2|10,0:0|0:0|0:0,0:0:0:0:
377,254,53660,6,0,P|305:286|231:253,1,160,2|2,3:0|0:0,0:0:0:0:
230,152,54578,1,10,0:0:0:0:
229,47,54885,2,0,P|192:38|139:54,2,80,2|10|2,3:0|0:0|0:0,0:0:0:0:
319,97,55803,1,10,0:0:0:0:
230,152,56109,22,0,P|193:161|140:145,1,80,2|8,3:0|0:0,0:0:0:0:
56,112,56721,2,0,L|57:236,2,120,2|10|10,0:0|0:0|0:0,0:0:0:0:
58,7,57946,2,0,L|108:14,1,40,10|10,0:0|0:0,0:0:0:0:
162,93,58405,22,0,L|283:72,1,120,6|8,0:0|0:0,0:0:0:0:
382,55,59170,2,0,L|381:109,1,40,2|2,0:0|0:0,0:0:0:0:
381,198,59629,2,0,L|502:219,1,120,2|8,3:0|0:0,0:0:0:0:
463,316,60395,2,0,L|445:364,1,40,2|2,0:0|0:0,0:0:0:0:
357,304,60854,6,0,P|295:287|235:311,1,120,2|10,3:0|0:0,0:0:0:0:
148,346,61619,2,0,P|86:363|26:339,2,120,2|2|8,0:0|3:0|0:0,0:0:0:0:
93,257,62844,2,0,L|92:168,1,80,2|12,3:0|0:0,0:0:0:0:
92,73,63456,5,6,0:0:0:0:
180,18,63762,2,0,P|216:8|260:21,2,80,10|2|10,0:0|0:0|0:0,0:0:0:0:
218,114,64680,2,0,L|219:203,1,80,0|10,3:0|0:0,0:0:0:0:
265,287,65293,2,0,L|341:241,1,80,2|10,0:0|0:0,0:0:0:0:
394,161,65905,6,0,L|316:117,1,80,2|8,3:0|0:0,0:0:0:0:
283,26,66517,1,0,3:0:0:0:
179,26,66823,1,10,0:0:0:0:
138,121,67129,2,0,L|54:163,1,80,0|8,3:0|0:0,0:0:0:0:
136,234,67742,2,0,L|184:209,1,40,10|10,0:0|0:0,0:0:0:0:
260,162,68201,6,0,P|277:222|255:279,1,120,6|8,0:0|0:0,0:0:0:0:
261,378,68966,2,0,L|318:377,1,40,2|2,0:0|0:0,0:0:0:0:
403,360,69425,2,0,P|420:300|398:243,1,120,2|8,3:0|0:0,0:0:0:0:
404,144,70190,2,0,L|461:145,1,40,2|2,0:0|0:0,0:0:0:0:
479,46,70650,6,0,L|360:46,1,120,2|10,3:0|0:0,0:0:0:0:
280,113,71415,2,0,P|252:65|265:-3,2,120,2|2|8,0:0|3:0|0:0,0:0:0:0:
372,161,72640,2,0,P|383:202|369:253,1,80,2|10,3:0|0:0,0:0:0:0:
307,315,73252,5,6,0:0:0:0:
230,245,73558,2,0,P|193:236|143:249,2,80,10|2|10,0:0|0:0|0:0,0:0:0:0:
192,341,74476,2,0,P|155:350|105:337,1,80,2|10,3:0|0:0,0:0:0:0:
49,260,75089,2,0,L|35:181,1,80,2|8,0:0|0:0,0:0:0:0:
132,145,75701,6,0,L|146:66,1,80,2|8,3:0|0:0,0:0:0:0:
242,104,76313,2,0,P|284:115|331:96,1,80,0|8,3:0|0:0,0:0:0:0:
379,20,76925,2,0,P|421:9|468:28,1,80,0|8,3:0|0:0,0:0:0:0:
422,117,77538,2,0,L|423:209,1,80,2|8,0:0|0:0,0:0:0:0:
441,299,78150,6,0,P|422:302|387:298,1,40,6|2,0:0|0:0,0:0:0:0:
309,251,78609,2,0,P|269:243|225:254,1,80,2|2,0:0|0:0,0:0:0:0:
144,308,79221,2,0,P|83:326|26:304,1,120,10|10,0:0|0:0,0:0:0:0:
158,22,80599,22,0,L|87:180,1,160,12|8,0:0|0:0,0:0:0:0:
245,198,81670,2,0,L|329:12,1,200,8|8,0:0|0:0,0:0:0:0:
482,33,82895,6,0,L|398:219,1,200,8|4,0:0|0:0,0:0:0:0:
333,356,84119,2,0,L|198:357,2,120,8|10|10,0:0|0:0|0:0,0:0:0:0:
436,364,85344,22,0,P|430:303|384:262,1,120,4|8,0:0|0:0,0:0:0:0:
287,240,86109,2,0,L|157:227,2,120,0|0|8,3:0|3:0|0:0,0:0:0:0:
360,165,87334,6,0,L|490:152,2,120,0|4|8,3:0|0:0|0:0,0:0:0:0:
306,75,88558,2,0,L|213:66,1,80,0|8,3:0|0:0,0:0:0:0:
136,14,89170,2,0,P|119:65|149:139,1,120,8|8,0:0|0:0,0:0:0:0:
231,172,89936,22,0,P|164:230|41:161,1,240,8|10,0:0|0:0,0:0:0:0:
14,68,91160,1,10,0:0:0:0:
117,65,91466,2,0,L|170:63,1,40,8|10,0:0|0:0,0:0:0:0:
