osu file format v14

[General]
AudioFilename: audio.mp3
AudioLeadIn: 0
PreviewTime: 70161
Countdown: 0
SampleSet: Soft
StackLeniency: 0.3
Mode: 0
LetterboxInBreaks: 0
WidescreenStoryboard: 1

[Editor]
Bookmarks: 11604,22271,32938,43604,48938,59604,70271,80938,91604,102271,112938
DistanceSpacing: 1.2
BeatDivisor: 12
GridSize: 32
TimelineZoom: 1.1

[Metadata]
Title:Narcissus at Oasis -Kagetora. style-
TitleUnicode:Narcissus at Oasis -影虎。 style-
Artist:Kagetora.
ArtistUnicode:影虎。
Creator:X Light
Version:Pata-Mon's Hard
Source:SOUND VOLTEX IV HEAVENLY HAVEN
Tags:Pata-mon Kobayakawa Sae [Charlie Lam] cubby cubbby shota_on_osu instrumental electronic [charlie_lam] Ryu*
BeatmapID:2399031
BeatmapSetID:1139910

[Difficulty]
HPDrainRate:5
CircleSize:3.7
OverallDifficulty:6
ApproachRate:7.5
SliderMultiplier:1.4
SliderTickRate:1

[Events]
//Background and Video events
0,0,"68074812_p0.png",0,0
//Break Periods
//Storyboard Layer 0 (Background)
//Storyboard Layer 1 (Fail)
//Storyboard Layer 2 (Pass)
//Storyboard Layer 3 (Foreground)
//Storyboard Layer 4 (Overlay)
//Storyboard Sound Samples

[TimingPoints]
-323,333.333333333333,4,2,23,60,1,0
673,-117.647058823529,4,2,23,60,0,0
6340,-100,4,2,23,80,0,0
10673,-100,4,2,23,60,0,0
11423,-100,4,2,23,40,0,0
11673,-100,4,2,23,80,0,0
16757,-100,4,2,23,50,0,0
17007,-100,4,2,23,80,0,0
21340,-100,4,2,23,60,0,0
22340,-100,4,2,23,80,0,0
27507,-100,4,2,23,60,0,0
27673,-100,4,2,23,80,0,0
32840,-100,4,2,23,60,0,0
33007,-100,4,2,23,80,0,0
43090,-100,4,2,23,50,0,0
43340,-100,4,2,23,80,0,0
43423,-100,4,2,23,50,0,0
43673,-117.647058823529,4,2,23,70,0,0
59673,-100,4,2,23,80,0,0
69007,-100,4,2,23,70,0,0
70007,-100,4,2,23,50,0,0
70257,-100,4,2,23,5,0,0
70343,-100,4,2,23,100,0,1
91426,-100,4,2,23,70,0,1
91676,-100,4,2,23,100,0,0
94093,-100,4,2,23,70,0,0
94343,-100,4,2,23,100,0,1
102010,-100,4,2,23,100,0,0
102093,-100,4,2,23,70,0,0
102343,-100,4,2,23,100,0,1
107426,-100,4,2,23,70,0,1
107676,-100,4,2,23,100,0,1
112010,-100,4,2,23,80,0,1
112760,-100,4,2,23,60,0,1
113010,-117.647058823529,4,2,23,50,0,0
118343,-117.647058823529,4,2,23,5,0,0

[Colours]
Combo1 : 163,37,173
Combo2 : 0,86,215
Combo3 : 132,68,68
Combo4 : 182,182,182
Combo5 : 62,217,255

[HitObjects]
128,192,676,5,2,0:2:0:0:
263,117,1010,6,0,B|363:89|339:145|439:117,1,178.500003404617,6|2,0:2|0:2,0:2:0:0:
498,164,1676,2,0,P|508:202|503:248,1,59.5000011348725,2|2,0:2|0:2,0:2:0:0:
451,275,2010,2,0,P|441:313|446:359,1,59.5000011348725,2|2,0:2|0:2,0:2:0:0:
369,364,2343,2,0,B|269:392|293:336|193:364,1,178.500003404617,2|2,0:2|0:2,0:2:0:0:
139,308,3010,2,0,B|167:208|111:232|139:132,1,178.500003404617,2|2,0:2|0:2,0:2:0:0:
212,158,3676,6,0,P|265:219|281:149,2,178.500003404617,2|2|2,0:2|0:2|0:2,0:2:0:0:
250,7,5010,2,0,P|335:7|439:23,1,178.500003404617,2|2,0:2|0:2,0:2:0:0:
490,66,5676,2,0,L|481:204,1,119.000002269745,2|2,0:2|0:2,0:2:0:0:
373,313,6343,5,6,1:2:0:0:
256,192,6676,1,2,1:2:0:0:
302,30,7010,1,2,1:2:0:0:
419,151,7343,1,2,1:2:0:0:
256,192,7676,5,6,1:2:0:0:
139,71,8010,1,2,1:2:0:0:
93,233,8343,1,2,1:2:0:0:
210,354,8676,1,2,1:2:0:0:
256,192,9010,6,0,L|247:90,1,70,6|0,1:2|1:2,0:2:0:0:
340,185,9343,2,0,L|331:83,1,70,2|0,1:2|1:2,0:2:0:0:
415,8,9676,6,0,L|406:110,1,70,6|0,1:2|1:2,0:2:0:0:
499,15,10010,2,0,L|490:117,1,70,2|0,1:2|1:2,0:2:0:0:
451,224,10343,6,0,L|442:122,1,70,2|0,3:2|0:2,0:2:0:0:
361,147,10676,2,0,P|325:87|340:30,2,105,2|0|0,1:2|1:2|0:2,3:2:0:0:
409,78,11343,2,0,L|463:74,3,35,2|0|0|0,1:2|1:2|1:2|1:2,0:2:0:0:
475,103,11676,6,0,P|475:162|464:269,1,140,6|0,3:2|1:2,0:2:0:0:
404,297,12176,2,0,L|296:289,1,70,2|0,3:2|0:2,0:2:0:0:
266,342,12510,1,2,1:2:0:0:
200,291,12676,2,0,L|92:299,1,70,2|0,1:2|0:2,0:2:0:0:
65,242,13010,6,0,P|52:205|58:147,2,70,2|0|0,3:2|0:2|1:2,0:2:0:0:
52,325,13510,2,0,P|26:354|-27:378,2,70,2|0|0,3:2|0:2|3:2,0:2:0:0:
130,296,14010,2,0,P|168:303|215:337,1,70,2|0,1:2|0:2,0:2:0:0:
250,381,14343,6,0,P|344:368|421:327,1,140,2|0,3:2|1:2,0:2:0:0:
449,297,14843,2,0,L|441:189,1,70,2|0,3:2|0:2,0:2:0:0:
437,142,15176,1,2,1:2:0:0:
368,190,15343,2,0,P|337:190|258:162,1,70,2|0,1:2|0:2,0:2:0:0:
230,134,15676,6,0,L|238:26,1,70,2|0,3:2|0:2,0:2:0:0:
166,14,16010,2,0,P|131:6|96:7,1,70,2|0,1:2|0:2,0:2:0:0:
17,29,16343,1,2,3:2:0:0:
39,109,16510,1,2,1:2:0:0:
17,189,16676,2,0,L|21:243,3,35,2|0|0|0,1:2|1:2|1:2|1:2,0:2:0:0:
51,253,17010,6,0,P|120:253|234:212,1,140,6|0,3:2|1:2,0:2:0:0:
253,171,17510,2,0,L|261:63,1,70,2|0,3:2|0:2,0:2:0:0:
317,40,17843,1,2,1:2:0:0:
374,101,18010,2,0,L|382:209,1,70,2|0,1:2|0:2,0:2:0:0:
433,236,18343,6,0,P|470:249|528:243,2,70,2|0|0,3:2|0:2|1:2,0:2:0:0:
350,249,18843,2,0,P|321:275|297:328,2,70,2|0|0,3:2|0:2|3:2,0:2:0:0:
379,171,19343,2,0,P|372:133|338:86,1,70,2|0,1:2|0:2,0:2:0:0:
294,49,19676,6,0,P|234:76|140:81,1,140,6|0,3:2|1:2,0:2:0:0:
79,60,20176,2,0,L|71:168,1,70,2|0,3:2|0:2,0:2:0:0:
123,199,20510,1,2,1:2:0:0:
123,199,20676,1,2,1:2:0:0:
74,268,20843,6,0,L|82:376,2,70,2|0|0,3:2|0:2|0:2,0:2:0:0:
123,199,21343,2,0,L|251:199,2,105,2|0|0,1:2|1:2|3:2,0:2:0:0:
74,130,22010,1,2,1:2:0:0:
123,61,22176,1,2,1:2:0:0:
123,61,22260,1,2,1:2:0:0:
123,61,22343,6,0,P|187:37|300:33,1,140,6|0,3:2|1:2,0:2:0:0:
310,95,22843,2,0,L|418:103,1,70,2|0,3:2|0:2,0:2:0:0:
459,70,23176,1,2,1:2:0:0:
459,70,23343,1,2,1:2:0:0:
512,135,23510,6,0,P|471:152|418:146,1,70,2|0,3:2|0:2,0:2:0:0:
386,212,23843,2,0,P|351:209|319:194,1,70,2|0,3:2|0:2,0:2:0:0:
258,137,24176,1,2,1:2:0:0:
197,194,24343,2,0,P|156:211|103:205,1,70,2|0,3:2|0:2,0:2:0:0:
70,153,24676,2,0,P|36:150|4:135,1,70,2|0,1:2|0:2,0:2:0:0:
57,70,25010,6,0,L|273:54,1,140,2|0,3:2|1:2,0:2:0:0:
258,117,25510,2,0,L|474:101,1,140,2|0,3:2|0:2,0:2:0:0:
459,164,26010,1,2,1:2:0:0:
459,164,26176,1,2,1:2:0:0:
400,224,26343,6,0,P|403:272|436:324,2,70,2|0|0,3:2|0:2|1:2,0:2:0:0:
459,164,26843,2,0,P|456:116|423:64,2,70,2|0|0,3:2|0:2|0:2,0:2:0:0:
400,224,27343,1,2,1:2:0:0:
377,143,27510,1,2,1:2:0:0:
377,143,27593,1,2,1:2:0:0:
377,143,27676,6,0,P|309:133|218:169,1,140,2|0,3:2|1:2,0:2:0:0:
173,201,28176,1,2,3:2:0:0:
224,268,28343,2,0,P|214:317|189:351,1,70,2|0,3:2|0:2,0:2:0:0:
140,278,28676,1,2,1:2:0:0:
173,201,28843,6,0,P|163:152|138:118,1,70,2|0,3:2|0:2,0:2:0:0:
256,142,29176,2,0,P|233:97|200:70,1,70,2|0,3:2|0:2,0:2:0:0:
320,63,29510,2,0,P|286:25|248:8,2,70,2|0|0,1:2|3:2|0:2,0:2:0:0:
340,145,30010,2,0,P|374:183|412:200,1,70,2|0,1:2|0:2,0:2:0:0:
455,139,30343,6,0,P|449:252|376:275,1,140,2|0,3:2|1:2,0:2:0:0:
352,267,30843,1,2,3:2:0:0:
285,215,31010,2,0,P|239:207|178:225,1,70,2|0,3:2|0:2,0:2:0:0:
134,231,31343,1,2,1:2:0:0:
134,231,31510,1,2,1:2:0:0:
193,291,31676,6,0,P|195:337|172:377,2,70,2|0|0,3:2|0:2|1:2,0:2:0:0:
134,231,32176,2,0,P|132:185|155:145,2,70,2|0|0,3:2|0:2|0:2,0:2:0:0:
193,291,32676,1,2,1:2:0:0:
216,210,32843,1,2,1:2:0:0:
216,210,32926,1,2,1:2:0:0:
216,210,33010,6,0,L|318:201,2,70,6|0|0,1:2|0:2|0:2,0:2:0:0:
239,117,33510,2,0,L|341:126,1,70,6|0,1:2|0:2,0:2:0:0:
262,36,33843,2,0,L|364:27,1,70,6|0,1:2|0:2,0:2:0:0:
453,157,34176,6,0,L|351:166,1,70,4|0,1:2|0:2,0:2:0:0:
309,123,34510,2,0,P|257:160|288:270,1,140,2|0,1:2|0:2,0:2:0:0:
310,299,35010,1,2,3:2:0:0:
310,299,35176,1,2,3:2:0:0:
227,312,35343,2,0,L|125:303,1,70,2|0,1:2|0:2,0:2:0:0:
74,293,35676,5,2,3:2:0:0:
74,293,36010,2,0,P|60:340|63:380,2,70,6|0|0,1:2|0:2|0:2,0:2:0:0:
124,226,36510,2,0,L|226:217,1,70,6|0,3:2|0:2,0:2:0:0:
244,152,36843,6,0,P|327:146|408:195,1,140,6|0,3:2|0:2,0:2:0:0:
420,241,37343,1,2,1:2:0:0:
420,241,37510,2,0,P|414:158|463:77,1,140,2|0,3:2|0:2,0:2:0:0:
473,31,38010,2,0,L|371:22,1,70,2|0,1:2|0:2,0:2:0:0:
341,81,38343,6,0,L|239:90,1,70,2|0,3:2|0:2,0:2:0:0:
186,92,38676,1,2,1:2:0:0:
140,163,38843,2,0,P|134:202|142:237,1,70,2|0,3:2|0:2,0:2:0:0:
186,302,39176,1,2,3:2:0:0:
271,307,39343,2,0,L|373:316,1,70,2|0,1:2|0:2,0:2:0:0:
395,248,39676,6,0,L|497:239,2,70,2|0|0,3:2|0:2|1:2,0:2:0:0:
341,313,40176,1,2,0:2:0:0:
395,378,40343,2,0,L|497:387,2,70,2|0|0,3:2|0:2|1:2,0:2:0:0:
341,313,40843,1,2,0:2:0:0:
395,248,41010,6,0,L|404:146,1,70,4|0,3:2|0:2,0:2:0:0:
364,103,41343,2,0,L|373:1,1,70,2|0,1:2|0:2,0:2:0:0:
316,173,41676,6,0,L|214:164,1,70,2|0,1:2|0:2,0:2:0:0:
171,204,42010,2,0,L|69:195,1,70,2|0,1:2|0:2,0:2:0:0:
241,252,42343,6,0,L|230:374,2,105,6|0|0,1:2|1:2|1:2,0:2:0:0:
171,204,43010,2,0,L|167:150,3,35,2|0|0|0,1:2|1:2|1:2|1:2,0:2:0:0:
198,139,43343,2,0,L|202:85,3,35,2|0|0|0,1:2|1:2|1:2|1:2,0:2:0:0:
171,74,43676,6,0,P|89:75|-21:123,1,178.500003404617,2|2,0:2|0:2,0:2:0:0:
171,310,44676,2,0,P|89:309|-21:261,1,178.500003404617,2|2,0:2|0:2,0:2:0:0:
256,133,45676,2,0,L|256:261,1,119.000002269745,2|2,0:2|0:2,0:2:0:0:
341,74,46343,6,0,P|423:75|533:123,1,178.500003404617,2|2,0:2|0:2,0:2:0:0:
341,310,47343,2,0,P|423:309|533:261,1,178.500003404617,2|2,0:2|0:2,0:2:0:0:
256,133,48343,2,0,L|256:224,1,59.5000011348725,10|0,0:2|0:2,0:2:0:0:
256,270,48676,2,0,L|256:361,1,59.5000011348725,2|0,0:2|0:2,0:2:0:0:
325,366,49010,6,0,P|391:377|456:359,1,119.000002269745,6|0,0:2|0:2,0:2:0:0:
510,330,49510,2,0,L|510:239,1,59.5000011348725,2|8,0:2|0:2,0:2:0:0:
510,114,50010,2,0,L|510:23,1,59.5000011348725,2|0,0:2|0:2,0:2:0:0:
441,18,50343,6,0,P|375:7|310:25,1,119.000002269745,2|0,0:2|0:2,0:2:0:0:
272,75,50843,1,0,0:2:0:0:
219,132,51010,2,0,P|153:143|88:125,1,119.000002269745,10|0,0:2|0:2,0:2:0:0:
50,75,51510,1,2,0:2:0:0:
27,149,51676,6,0,L|27:309,1,119.000002269745,2|0,0:2|0:2,0:2:0:0:
86,318,52176,2,0,P|113:329|152:329,1,59.5000011348725,2|8,0:2|0:2,0:2:0:0:
298,330,52676,2,0,P|327:328|355:317,1,59.5000011348725,2|0,0:2|0:2,0:2:0:0:
414,267,53010,6,0,L|414:107,1,119.000002269745,2|0,0:2|0:2,0:2:0:0:
414,70,53510,1,2,0:2:0:0:
347,109,53676,2,0,P|318:107|290:96,1,59.5000011348725,10|0,0:2|0:2,0:2:0:0:
237,39,54010,2,0,P|208:41|180:52,1,59.5000011348725,2|0,0:2|0:2,0:2:0:0:
132,113,54343,6,0,L|132:273,1,119.000002269745,2|0,0:2|0:2,0:2:0:0:
180,293,54843,2,0,P|207:304|246:304,1,59.5000011348725,2|8,0:2|0:2,0:2:0:0:
332,183,55343,2,0,P|359:172|398:172,1,59.5000011348725,2|0,0:2|0:2,0:2:0:0:
467,171,55676,6,0,L|467:331,1,119.000002269745,2|0,0:2|0:2,0:2:0:0:
428,357,56176,1,2,0:2:0:0:
389,290,56343,2,0,L|389:130,1,119.000002269745,10|0,0:2|0:2,0:2:0:0:
428,104,56843,1,2,0:2:0:0:
361,65,57010,6,0,P|295:54|230:72,1,119.000002269745,2|0,0:2|0:2,0:2:0:0:
178,104,57510,2,0,L|87:104,1,59.5000011348725,2|8,0:2|0:2,0:2:0:0:
118,259,58010,2,0,L|209:259,1,59.5000011348725,2|0,0:2|0:2,0:2:0:0:
245,298,58343,6,0,P|311:309|376:291,1,119.000002269745,2|0,0:2|0:2,0:2:0:0:
428,259,58843,1,2,0:2:0:0:
428,259,59010,1,10,0:2:0:0:
428,104,59343,1,2,0:2:0:0:
428,104,59510,1,2,0:2:0:0:
351,138,59676,6,0,P|289:137|195:91,1,140,6|0,3:2|1:2,0:2:0:0:
164,42,60176,1,2,0:2:0:0:
95,90,60343,2,0,L|104:192,1,70,10|0,3:2|3:2,0:2:0:0:
166,212,60676,2,0,L|157:314,1,70,0|0,1:2|0:2,0:2:0:0:
242,262,61010,6,0,P|304:263|398:309,1,140,2|0,3:2|1:2,0:2:0:0:
429,358,61510,1,2,0:2:0:0:
498,310,61676,2,0,L|489:208,1,70,10|0,3:2|3:2,0:2:0:0:
427,188,62010,2,0,L|436:86,1,70,2|0,1:2|0:2,0:2:0:0:
360,77,62343,6,0,P|298:78|204:124,1,140,2|0,3:2|1:2,0:2:0:0:
173,173,62843,1,2,0:2:0:0:
94,143,63010,2,0,L|-8:134,1,70,10|0,3:2|3:2,0:2:0:0:
28,52,63343,2,0,L|130:61,1,70,2|0,1:2|0:2,0:2:0:0:
178,33,63676,6,0,P|220:35|270:82,1,70,2|0,3:2|0:2,0:2:0:0:
294,115,64010,2,0,P|336:113|386:66,1,70,2|0,1:2|0:2,0:2:0:0:
423,44,64343,1,10,3:2:0:0:
423,44,64510,1,2,3:2:0:0:
478,106,64676,2,0,L|469:208,1,70,2|0,1:2|0:2,0:2:0:0:
423,310,65010,6,0,L|414:208,1,70,6|0,1:2|0:2,0:2:0:0:
352,186,65343,2,0,L|250:195,1,70,2|0,1:2|0:2,0:2:0:0:
228,257,65676,2,0,L|237:359,1,70,2|0,1:2|0:2,0:2:0:0:
299,381,66010,2,0,L|401:372,1,70,2|0,1:2|0:2,0:2:0:0:
228,257,66343,6,0,L|126:266,1,70,6|0,1:2|0:2,0:2:0:0:
93,209,66676,2,0,L|84:107,1,70,2|0,1:2|0:2,0:2:0:0:
141,74,67010,2,0,L|243:65,1,70,2|0,1:2|0:2,0:2:0:0:
276,122,67343,2,0,L|285:224,1,70,2|0,1:2|0:2,0:2:0:0:
326,53,67676,5,6,1:2:0:0:
265,3,67843,1,2,1:2:0:0:
330,57,68010,2,0,L|432:48,1,70,2|0,1:2|1:2,0:2:0:0:
337,172,68343,5,6,1:2:0:0:
276,122,68510,1,2,1:2:0:0:
341,176,68676,2,0,L|443:167,1,70,2|0,1:2|1:2,0:2:0:0:
352,295,69010,6,0,L|403:290,2,46.6666666666667,6|2|2,1:2|1:2|1:2,0:2:0:0:
287,241,69343,2,0,L|236:236,2,46.6666666666667,2|2|2,1:2|1:2|1:2,0:2:0:0:
341,176,69676,1,2,1:2:0:0:
341,176,70010,6,0,B|337:155|353:139|353:139|329:139|329:139|345:123|341:102,1,105,2|0,3:2|0:2,0:2:0:0:
310,73,70343,6,0,P|234:49|157:52,1,140,6|0,3:2|1:2,0:2:0:0:
95,78,70843,2,0,L|103:186,1,70,2|0,3:2|0:2,0:2:0:0:
152,216,71176,1,2,3:2:0:0:
101,282,71343,2,0,L|93:390,1,70,2|0,1:2|0:2,0:2:0:0:
175,381,71676,6,0,P|221:380|267:354,1,70,2|0,3:2|0:2,0:2:0:0:
301,310,72010,1,2,1:2:0:0:
256,239,72176,2,0,L|264:131,1,70,2|0,3:2|0:2,0:2:0:0:
267,84,72510,1,2,3:2:0:0:
337,131,72676,2,0,P|378:131|420:109,1,70,2|0,1:2|0:2,0:2:0:0:
475,74,73010,6,0,L|483:-34,2,70,2|0|0,3:2|0:2|1:2,0:2:0:0:
404,120,73510,2,0,L|412:228,1,70,2|0,3:2|0:2,0:2:0:0:
480,236,73843,2,0,L|472:344,1,70,2|0,3:2|1:2,0:2:0:0:
400,345,74176,6,0,P|354:344|308:318,1,70,2|0,3:2|0:2,0:2:0:0:
272,275,74510,1,2,3:2:0:0:
212,334,74676,2,0,P|178:344|144:343,1,70,2|0,1:2|0:2,0:2:0:0:
69,313,75010,1,2,3:2:0:0:
69,313,75176,1,2,3:2:0:0:
134,259,75343,2,0,L|126:151,1,70,2|0,1:2|0:2,0:2:0:0:
30,112,75676,6,0,B|110:132|85:92|169:112,1,140,6|0,3:2|1:2,0:2:0:0:
213,182,76176,2,0,L|221:290,1,70,2|0,3:2|0:2,0:2:0:0:
267,320,76510,1,2,3:2:0:0:
343,285,76676,2,0,P|385:285|418:298,1,70,2|0,1:2|0:2,0:2:0:0:
489,326,77010,6,0,L|497:218,1,70,2|0,3:2|0:2,0:2:0:0:
457,180,77343,2,0,L|465:72,2,70,2|0|0,1:2|0:2|0:2,0:2:0:0:
373,190,77843,1,2,3:2:0:0:
336,114,78010,2,0,L|344:6,1,70,2|0,1:2|0:2,0:2:0:0:
262,14,78343,6,0,P|216:15|170:41,1,70,2|0,3:2|0:2,0:2:0:0:
148,94,78676,2,0,P|102:93|56:67,1,70,2|0,1:2|3:2,0:2:0:0:
16,29,79010,1,2,3:2:0:0:
0,112,79176,1,2,3:2:0:0:
64,168,79343,1,2,1:2:0:0:
48,251,79510,6,0,P|50:292|89:358,1,70,2|0,3:2|0:2,0:2:0:0:
124,371,79843,1,2,3:2:0:0:
189,319,80010,2,0,P|200:285|200:251,1,70,2|0,1:2|0:2,0:2:0:0:
171,172,80343,1,2,3:2:0:0:
254,186,80510,1,2,3:2:0:0:
337,200,80676,2,0,L|445:192,1,70,2|0,1:2|0:2,0:2:0:0:
497,56,81010,6,0,P|417:68|385:148,1,140,6|0,3:2|1:2,0:2:0:0:
407,195,81510,2,0,L|399:303,1,70,2|0,3:2|0:2,0:2:0:0:
396,350,81843,1,2,3:2:0:0:
326,302,82010,2,0,P|288:297|233:313,1,70,2|0,1:2|0:2,0:2:0:0:
188,350,82343,6,0,P|150:355|95:339,1,70,2|0,3:2|0:2,0:2:0:0:
50,302,82676,1,2,1:2:0:0:
83,224,82843,2,0,L|75:116,1,70,2|0,3:2|0:2,0:2:0:0:
72,69,83176,1,2,3:2:0:0:
148,107,83343,2,0,P|188:103|226:83,1,70,2|0,1:2|0:2,0:2:0:0:
273,30,83676,6,0,P|313:34|351:54,2,70,2|0|0,3:2|0:2|1:2,0:2:0:0:
215,91,84176,2,0,L|223:199,1,70,2|0,3:2|0:2,0:2:0:0:
277,223,84510,2,0,L|269:331,1,70,2|0,3:2|1:2,0:2:0:0:
200,337,84843,6,0,P|160:333|122:313,1,70,2|0,3:2|0:2,0:2:0:0:
73,261,85176,1,2,3:2:0:0:
79,177,85343,2,0,L|87:69,1,70,2|0,1:2|0:2,0:2:0:0:
169,88,85676,1,2,3:2:0:0:
169,88,85843,1,2,3:2:0:0:
230,144,86010,2,0,L|238:252,1,70,2|0,1:2|0:2,0:2:0:0:
314,343,86343,6,0,P|281:296|217:278,1,70,6|0,3:2|0:2,0:2:0:0:
187,283,86676,1,2,1:2:0:0:
235,214,86843,2,0,P|202:167|138:149,1,70,2|0,3:2|0:2,0:2:0:0:
108,154,87176,1,2,3:2:0:0:
156,85,87343,2,0,P|123:38|59:20,1,70,2|0,1:2|0:2,0:2:0:0:
33,58,87676,6,0,P|26:115|60:172,1,70,2|0,3:2|0:2,0:2:0:0:
45,210,88010,2,0,P|52:267|18:324,2,70,2|0|0,1:2|0:2|0:2,0:2:0:0:
29,126,88510,1,2,3:2:0:0:
108,154,88676,2,0,L|216:146,1,70,2|0,1:2|0:2,0:2:0:0:
307,84,89010,6,0,L|199:92,1,70,6|0,3:2|0:2,0:2:0:0:
178,149,89343,1,2,1:2:0:0:
238,209,89510,2,0,L|346:217,1,70,2|0,3:2|0:2,0:2:0:0:
393,220,89843,1,2,3:2:0:0:
346,290,90010,1,2,1:2:0:0:
356,144,90176,6,0,P|374:102|413:68,1,70,6|0,3:2|0:2,0:2:0:0:
467,50,90510,1,2,3:2:0:0:
400,0,90676,2,0,L|292:8,1,70,2|0,1:2|0:2,0:2:0:0:
272,66,91010,1,2,3:2:0:0:
188,55,91176,1,2,3:2:0:0:
104,44,91343,2,0,L|100:98,3,35,2|0|0|0,1:2|1:2|1:2|1:2,0:2:0:0:
127,113,91676,6,0,L|119:221,1,70,6|0,1:2|0:2,0:2:0:0:
94,215,91926,1,2,0:3:0:0:
94,215,92010,1,2,0:3:0:0:
167,255,92176,2,0,L|275:247,1,70,6|0,1:2|0:2,0:2:0:0:
275,231,92426,1,2,0:3:0:0:
275,231,92510,2,0,L|383:223,1,70,6|0,1:2|0:2,0:2:0:0:
293,313,92843,6,0,L|401:305,1,70,6|0,1:2|0:2,0:2:0:0:
401,289,93093,1,2,0:3:0:0:
401,289,93176,1,2,3:3:0:0:
345,226,93343,2,0,P|339:184|350:143,2,70,6|0|0,1:2|0:2|0:2,0:2:0:0:
189,289,94010,2,0,L|135:285,3,35,2|0|0|0,1:2|1:2|1:2|1:2,0:2:0:0:
163,245,94343,6,0,P|118:200|31:206,1,140,2|0,3:2|1:2,0:2:0:0:
8,274,94843,2,0,L|16:382,1,70,2|0,3:2|0:2,0:2:0:0:
86,384,95176,1,2,3:2:0:0:
150,329,95343,1,2,1:2:0:0:
223,369,95510,6,0,P|266:367|329:316,1,70,2|0,3:2|0:2,0:2:0:0:
347,295,95843,1,2,3:2:0:0:
285,238,96010,2,0,P|273:205|273:170,1,70,2|0,1:2|0:2,0:2:0:0:
294,92,96343,1,2,3:2:0:0:
294,92,96510,1,2,3:2:0:0:
355,149,96676,2,0,L|463:141,1,70,2|0,1:2|0:2,0:2:0:0:
502,45,97010,6,0,B|482:125|522:100|502:184,1,140,6|0,3:2|1:2,0:2:0:0:
431,228,97510,2,0,L|323:236,1,70,2|0,3:2|0:2,0:2:0:0:
285,197,97843,1,2,3:2:0:0:
209,233,98010,2,0,L|101:225,1,70,2|0,1:2|0:2,0:2:0:0:
76,172,98343,6,0,P|64:130|76:64,1,70,2|0,3:2|0:2,0:2:0:0:
97,26,98676,2,0,P|66:9|32:2,2,70,2|0|0,1:2|0:2|0:2,0:2:0:0:
148,93,99176,1,2,3:2:0:0:
231,98,99343,2,0,P|265:90|295:74,1,70,2|0,1:2|0:2,0:2:0:0:
353,135,99676,6,0,P|377:198|376:294,1,140,2|0,3:2|1:2,0:2:0:0:
333,340,100176,2,0,L|225:332,1,70,2|0,3:2|0:2,0:2:0:0:
189,293,100510,1,2,3:2:0:0:
125,347,100676,1,2,1:2:0:0:
51,305,100843,6,0,P|39:270|42:219,1,70,2|0,3:2|0:2,0:2:0:0:
98,178,101176,1,2,3:2:0:0:
38,119,101343,2,0,P|39:84|51:51,1,70,2|0,1:2|0:2,0:2:0:0:
125,9,101676,1,2,3:2:0:0:
125,9,101843,1,2,3:2:0:0:
198,51,102010,2,0,L|252:47,3,35,2|0|0|0,1:2|1:2|1:2|1:2,0:2:0:0:
256,84,102343,6,0,B|276:164|236:139|256:223,1,140,6|0,3:2|1:2,0:2:0:0:
312,283,102843,2,0,L|420:275,1,70,2|0,3:2|0:2,0:2:0:0:
440,217,103176,1,2,3:2:0:0:
376,161,103343,2,0,P|361:121|371:55,1,70,2|0,1:2|0:2,0:2:0:0:
384,13,103676,6,0,L|276:5,1,70,2|0,3:2|0:2,0:2:0:0:
242,52,104010,2,0,L|134:60,2,70,2|0|0,1:2|0:2|0:2,0:2:0:0:
286,124,104510,1,2,3:2:0:0:
214,168,104676,2,0,L|106:176,1,70,2|0,1:2|0:2,0:2:0:0:
100,245,105010,6,0,P|113:319|179:369,1,140,2|0,3:2|1:2,0:2:0:0:
236,327,105510,2,0,P|282:330|317:347,1,70,2|0,3:2|0:2,0:2:0:0:
375,384,105843,1,2,3:2:0:0:
440,331,106010,1,2,1:2:0:0:
410,253,106176,6,0,L|418:145,1,70,2|0,3:2|0:2,0:2:0:0:
421,98,106510,1,2,3:2:0:0:
347,59,106676,2,0,P|301:62|266:79,1,70,2|0,1:2|0:2,0:2:0:0:
229,140,107010,1,2,3:2:0:0:
229,140,107176,1,2,3:2:0:0:
152,104,107343,2,0,L|98:100,3,35,0|0|0|0,1:2|1:2|1:2|1:2,0:2:0:0:
89,133,107676,6,0,P|68:184|78:235,1,70,6|0,1:2|0:2,0:2:0:0:
217,211,108010,2,0,P|166:190|115:200,1,70,2|0,1:2|0:2,0:2:0:0:
139,339,108343,2,0,P|160:288|150:237,1,70,2|0,1:2|0:2,0:2:0:0:
11,261,108676,2,0,P|62:282|113:272,1,70,2|0,1:2|0:2,0:2:0:0:
152,190,109010,6,0,P|187:194|217:211,1,70,6|0,1:2|0:2,0:2:0:0:
68,198,109343,2,0,P|73:163|90:133,1,70,2|0,1:2|0:2,0:2:0:0:
76,282,109676,2,0,P|41:277|11:260,1,70,2|0,1:2|0:2,0:2:0:0:
160,274,110010,2,0,P|155:309|138:339,1,70,2|0,1:2|0:2,0:2:0:0:
148,186,110343,5,6,1:2:0:0:
68,198,110510,1,2,1:2:0:0:
152,190,110676,2,0,L|260:198,1,70,2|0,1:2|1:2,0:2:0:0:
140,102,111010,5,6,1:2:0:0:
60,114,111176,1,2,1:2:0:0:
144,106,111343,2,0,L|252:114,1,70,2|0,1:2|1:2,0:2:0:0:
368,106,111676,6,0,L|260:114,1,70,6|0,3:2|0:2,0:2:0:0:
256,185,112010,2,0,L|256:313,2,105,0|0|0,1:2|1:2|3:2,0:2:0:0:
214,111,112676,2,0,L|160:107,3,35,0|0|0|0,1:2|1:2|1:2|1:2,0:2:0:0:
153,138,113010,6,0,B|125:238|181:214|153:314,1,178.500003404617,2|0,3:2|3:2,0:2:0:0:
217,355,113676,2,0,P|270:354|360:323,1,119.000002269745,2|0,1:2|0:2,0:2:0:0:
313,261,114176,2,0,P|314:208|345:118,1,119.000002269745,2|0,3:2|0:2,0:2:0:0:
388,92,114676,2,0,L|382:18,1,59.5000011348725,2|0,3:2|0:2,0:2:0:0:
306,18,115010,2,0,P|253:19|163:50,1,119.000002269745,2|0,1:2|0:2,0:2:0:0:
270,169,115676,6,0,B|298:269|242:245|270:345,1,178.500003404617,2|0,3:2|3:2,0:2:0:0:
196,367,116343,2,0,P|143:366|53:335,1,119.000002269745,0|0,1:2|0:2,0:2:0:0:
256,192,117010,12,0,118343,0:2:0:0:
