osu file format v14

[General]
AudioFilename: audio.mp3
AudioLeadIn: 0
PreviewTime: 70161
Countdown: 0
SampleSet: Soft
StackLeniency: 0.2
Mode: 0
LetterboxInBreaks: 0
WidescreenStoryboard: 0

[Editor]
Bookmarks: 70234
DistanceSpacing: 1
BeatDivisor: 4
GridSize: 32
TimelineZoom: 1.7

[Metadata]
Title:Narcissus at Oasis -Kagetora. style-
TitleUnicode:Narcissus at Oasis -影虎。 style-
Artist:Kagetora.
ArtistUnicode:影虎。
Creator:X Light
Version:Extra
Source:SOUND VOLTEX IV HEAVENLY HAVEN
Tags:Pata-mon Kobayakawa Sae [Charlie Lam] cubby cubbby shota_on_osu instrumental electronic [charlie_lam] Ryu*
BeatmapID:2510353
BeatmapSetID:1139910

[Difficulty]
HPDrainRate:6
CircleSize:4.2
OverallDifficulty:8.5
ApproachRate:9.5
SliderMultiplier:1.8
SliderTickRate:1

[Events]
//Background and Video events
0,0,"68074812_p0.png",0,0
//Break Periods
//Storyboard Layer 0 (Background)
//Storyboard Layer 1 (Fail)
//Storyboard Layer 2 (Pass)
//Storyboard Layer 3 (Foreground)
//Storyboard Layer 4 (Overlay)
//Storyboard Sound Samples

[TimingPoints]
-323,333.333333333333,4,2,1,60,1,0
2008,-125,4,2,1,60,0,0
6008,-200,4,2,1,80,0,0
6341,-100,4,2,1,80,0,0
10341,-83.3333333333333,4,2,1,80,0,0
10925,-66.6666666666667,4,2,1,80,0,0
11508,-100,4,2,1,80,0,0
11675,-100,4,2,1,70,0,0
12175,-142.857142857143,4,2,1,70,0,0
16008,-76.923076923077,4,2,1,70,0,0
16175,-90.9090909090909,4,2,1,70,0,0
17508,-142.857142857143,4,2,1,70,0,0
20175,-100,4,2,1,70,0,0
23841,-83.3333333333333,4,2,1,70,0,0
25175,-111.111111111111,4,2,1,70,0,0
26008,-83.3333333333333,4,2,1,70,0,0
26508,-66.6666666666667,4,2,1,70,0,0
27675,-100,4,2,1,70,0,0
30508,-125,4,2,1,70,0,0
31841,-66.6666666666667,4,2,1,70,0,0
32341,-100,4,2,1,70,0,0
33008,-100,4,2,1,80,0,0
34175,-76.9230769230769,4,2,1,80,0,0
36841,-100,4,2,1,80,0,0
37341,-83.3333333333333,4,2,1,80,0,0
37758,-100,4,2,1,80,0,0
39675,-125,4,2,1,80,0,0
41008,-100,4,2,1,80,0,0
42341,-83.3333333333333,4,2,1,80,0,0
43675,-83.3333333333333,4,2,1,50,0,0
49008,-125,4,2,1,50,0,0
59675,-125,4,2,1,60,0,0
66341,-125,4,2,1,80,0,0
67008,-71.4285714285714,4,2,1,80,0,0
69008,-50,4,2,1,80,0,0
69675,-142.857142857143,4,2,1,80,0,0
69841,-142.857142857143,4,2,1,5,0,0
70008,-50,4,2,1,40,0,0
70258,-50,4,2,1,5,0,0
70343,-100,4,2,1,90,0,1
71341,-66.6666666666667,4,2,1,90,0,1
71841,-111.111111111111,4,2,1,90,0,1
72175,-66.6666666666667,4,2,1,90,0,1
74008,-83.3333333333333,4,2,1,90,0,1
75258,-66.6666666666667,4,2,1,90,0,1
75841,-142.857142857143,4,2,1,90,0,1
76508,-100,4,2,1,90,0,1
77508,-125,4,2,1,90,0,1
78341,-100,4,2,1,90,0,1
78675,-66.6666666666667,4,2,1,90,0,1
79008,-90.9090909090909,4,2,1,90,0,1
79675,-66.6666666666667,4,2,1,90,0,1
81008,-166.666666666667,4,2,1,90,0,1
81341,-100,4,2,1,90,0,1
82008,-66.6666666666667,4,2,1,90,0,1
89675,-50,4,2,1,90,0,1
93675,-83.3333333333333,4,2,1,90,0,1
95675,-100,4,2,1,90,0,1
101008,-66.6666666666667,4,2,1,90,0,1
102341,-83.3333333333333,4,2,1,90,0,1
102841,-100,4,2,1,90,0,1
103675,-76.9230769230769,4,2,1,90,0,1
104175,-100,4,2,1,90,0,1
105008,-83.3333333333333,4,2,1,90,0,1
105508,-100,4,2,1,90,0,1
106341,-76.9230769230769,4,2,1,90,0,1
107675,-66.6666666666667,4,2,1,90,0,1
110341,-66.6666666666667,4,2,1,70,0,1
113010,-66.6666666666667,4,2,1,60,0,0
117010,-125,4,2,1,60,0,0
117343,-100,4,2,1,60,0,0
117675,-83.3333333333333,4,2,1,60,0,0

[Colours]
Combo1 : 163,37,173
Combo2 : 0,86,215
Combo3 : 132,68,68
Combo4 : 182,182,182
Combo5 : 62,217,255

[HitObjects]
113,179,676,5,0,2:0:0:0:
111,193,1010,1,6,2:1:0:0:
71,56,1510,5,0,2:0:0:0:
155,50,1676,1,2,2:0:0:0:
229,93,1843,1,0,2:0:0:0:
265,171,2010,2,0,P|266:223|265:253,1,72,2|0,2:0|2:0,2:0:0:0:
226,380,2343,6,0,B|228:292|181:338|185:226,1,144,2|2,2:0|2:0,2:0:0:0:
271,252,2843,1,0,2:0:0:0:
129,355,3010,2,0,P|89:362|55:370,2,72,2|0|2,2:0|2:0|2:0,2:0:0:0:
315,371,3510,5,0,2:0:0:0:
315,371,3676,1,2,2:0:0:0:
398,344,4176,1,2,2:0:0:0:
485,349,4676,1,2,2:0:0:0:
193,219,5010,5,2,2:0:0:0:
192,134,5510,1,2,2:0:0:0:
171,49,6010,2,0,L|169:96,1,45,2|0,2:0|2:0,2:0:0:0:
295,160,6343,6,0,P|351:144|398:150,1,90,6|8,2:1|2:1,2:0:0:0:
173,134,6676,2,0,P|130:118|87:73,1,90,2|8,2:1|2:1,2:0:0:0:
25,52,6926,1,0,2:0:0:0:
14,68,7010,6,0,P|24:126|26:157,1,90,2|8,2:1|2:1,2:0:0:0:
10,358,7343,1,2,2:1:0:0:
72,253,7510,1,8,2:1:0:0:
168,210,7676,6,0,P|103:219|60:209,1,90,6|8,2:1|2:1,2:0:0:0:
316,125,8010,2,0,P|363:80|404:62,1,90,2|8,2:1|2:1,2:0:0:0:
246,280,8343,2,0,P|234:344|211:383,1,90,2|8,2:1|2:1,2:0:0:0:
211,114,8676,2,0,P|183:55|179:10,1,90,2|8,2:1|2:1,2:0:0:0:
337,228,9010,5,6,2:1:0:0:
374,244,9093,1,0,2:0:0:0:
406,270,9176,1,2,2:1:0:0:
424,306,9260,1,0,2:0:0:0:
425,340,9343,5,2,2:1:0:0:
416,301,9426,1,0,2:0:0:0:
428,263,9510,1,2,2:1:0:0:
458,237,9593,1,0,2:0:0:0:
473,199,9676,5,6,2:1:0:0:
475,159,9760,1,0,2:0:0:0:
458,124,9843,1,2,2:1:0:0:
426,98,9926,1,0,2:0:0:0:
385,95,10010,5,2,2:1:0:0:
350,115,10093,1,0,2:0:0:0:
312,100,10176,1,2,2:1:0:0:
297,62,10260,1,0,2:0:0:0:
261,34,10343,6,0,P|232:30|202:28,1,54,6|0,2:1|2:0,2:0:0:0:
44,74,10510,2,0,P|74:62|95:54,1,54,2|0,2:1|2:0,2:0:0:0:
164,96,10676,6,0,P|176:149|178:221,1,108,8|2,2:0|2:0,2:0:0:0:
225,311,10926,6,0,B|314:322|275:341|358:354,2,135,8|8|0,2:0|2:0|2:0,2:0:0:0:
119,289,11343,2,0,P|78:295|43:306,1,67.5,8|0,2:0|2:0,2:0:0:0:
26,225,11510,2,0,P|23:202|18:180,1,45,2|0,2:1|2:0,2:0:0:0:
34,372,11676,5,2,2:1:0:0:
41,305,11843,1,2,2:0:0:0:
41,305,11926,1,0,2:0:0:0:
41,305,12010,1,8,2:0:0:0:
103,344,12176,6,0,L|250:337,1,126,2|8,2:0|2:0,2:0:0:0:
228,338,12676,5,8,2:0:0:0:
396,382,12843,1,8,2:0:0:0:
296,187,13010,5,2,2:0:0:0:
325,383,13176,2,0,B|315:315|356:333|350:241,1,126,2|2,2:1|2:0,2:0:0:0:
443,180,13676,2,0,P|391:184|372:189,1,62.9999999999999,0|2,1:0|2:1,2:0:0:0:
265,91,14010,2,0,P|296:90|327:84,1,62.9999999999999,2|8,2:0|2:0,2:0:0:0:
509,63,14343,5,2,2:1:0:0:
431,46,14510,1,2,2:0:0:0:
431,46,14593,1,0,2:0:0:0:
431,46,14676,1,8,2:0:0:0:
346,24,14843,6,0,L|212:36,1,126,2|8,2:0|2:0,2:0:0:0:
14,49,15343,5,8,2:0:0:0:
220,35,15510,1,8,2:0:0:0:
82,105,15676,6,0,P|104:81|80:42,1,62.9999999999999,2|2,2:0|2:1,2:0:0:0:
188,129,16010,2,0,P|202:165|224:182,1,58.4999999999999,0|0,1:0|2:0,2:0:0:0:
216,192,16176,6,0,P|268:194|297:147,1,99,2|0,2:0|1:0,2:0:0:0:
100,237,16510,2,0,P|69:245|50:249,1,49.5,2|0,2:1|2:0,2:0:0:0:
180,268,16676,1,2,2:0:0:0:
180,268,16760,1,0,2:0:0:0:
180,268,16843,1,8,2:0:0:0:
174,384,17010,5,6,2:1:0:0:
95,323,17176,1,2,2:0:0:0:
95,323,17260,1,0,2:0:0:0:
95,323,17343,1,8,2:0:0:0:
256,328,17510,6,0,L|388:318,1,126,2|8,2:0|2:0,2:0:0:0:
256,328,18010,5,8,2:0:0:0:
471,381,18176,1,8,2:0:0:0:
311,211,18343,5,2,2:0:0:0:
343,380,18510,2,0,B|347:344|347:344|337:316,1,62.9999999999999,2|8,2:1|2:0,2:0:0:0:
322,229,18843,5,2,2:0:0:0:
396,270,19010,2,0,L|478:261,1,62.9999999999999,0|2,1:0|2:1,2:0:0:0:
244,253,19343,5,2,2:0:0:0:
410,198,19510,1,8,2:0:0:0:
268,93,19676,1,6,2:1:0:0:
305,177,19843,5,2,2:0:0:0:
305,177,19926,1,0,2:0:0:0:
305,177,20010,1,8,2:0:0:0:
236,17,20176,2,0,B|246:132|207:78|215:197,1,180,2|8,2:0|2:0,2:0:0:0:
236,17,20676,5,8,2:0:0:0:
256,256,20843,1,2,2:1:0:0:
248,243,21010,5,2,2:1:0:0:
239,262,21093,1,0,2:0:0:0:
258,270,21176,1,2,2:1:0:0:
266,252,21260,1,0,2:0:0:0:
231,225,21343,1,8,2:0:0:0:
262,200,21426,1,0,2:0:0:0:
302,196,21510,1,2,2:0:0:0:
337,216,21593,1,8,2:0:0:0:
355,252,21676,5,0,2:0:0:0:
376,274,21760,1,8,2:0:0:0:
406,281,21843,1,8,2:0:0:0:
441,271,21926,1,0,2:0:0:0:
480,294,22010,1,8,2:0:0:0:
467,250,22093,1,0,2:0:0:0:
465,205,22176,1,8,2:0:0:0:
472,160,22260,1,0,2:0:0:0:
459,118,22343,6,0,P|456:69|450:23,1,90,6|2,2:1|2:0,2:0:0:0:
457,14,22676,1,8,2:0:0:0:
282,139,22843,6,0,P|285:188|291:234,1,90,2|2,2:1|2:0,2:0:0:0:
271,329,23176,1,8,2:0:0:0:
364,370,23343,5,0,1:0:0:0:
212,255,23510,2,0,P|157:273|122:321,1,90,8|2,2:0|2:0,2:0:0:0:
143,304,23843,6,0,P|53:300|26:228,1,162,2|0,2:1|2:0,2:0:0:0:
1,155,24176,2,0,P|5:114|7:87,1,54,2|0,2:0|2:0,2:0:0:0:
99,218,24343,5,8,2:0:0:0:
92,132,24510,1,2,2:1:0:0:
86,45,24676,1,2,2:0:0:0:
96,122,24843,5,8,2:0:0:0:
94,127,24926,1,0,2:0:0:0:
92,132,25010,1,2,2:1:0:0:
161,86,25176,2,0,P|183:84|203:82,1,40.5,2|0,2:0|2:0,2:0:0:0:
158,162,25343,2,0,P|180:160|200:158,1,40.5,8|0,2:0|2:0,2:0:0:0:
229,92,25510,5,2,2:0:0:0:
296,124,25676,2,0,P|316:126|336:127,1,40.5,2|0,2:0|2:0,2:0:0:0:
294,47,25843,2,0,P|314:49|334:50,1,40.5,8|0,2:0|2:0,2:0:0:0:
505,76,26010,6,0,B|453:81|453:81|446:89|446:89|391:92,1,108,0|8,1:0|2:0,2:0:0:0:
375,370,26343,5,2,2:0:0:0:
392,84,26510,2,0,P|377:201|411:294,1,202.5,2|0,2:1|2:0,2:0:0:0:
402,294,26843,2,0,P|431:265|443:228,1,67.5,2|0,2:0|2:0,2:0:0:0:
366,366,27010,5,0,1:0:0:0:
335,366,27093,1,0,2:0:0:0:
299,348,27176,1,2,2:1:0:0:
267,311,27260,1,0,2:0:0:0:
226,283,27343,5,8,2:0:0:0:
169,290,27426,1,8,2:0:0:0:
110,334,27510,1,8,2:0:0:0:
69,354,27593,1,8,2:0:0:0:
38,349,27676,6,0,P|34:300|37:247,1,90,2|2,2:1|2:0,2:0:0:0:
32,241,28010,1,8,2:0:0:0:
195,384,28176,1,2,2:1:0:0:
227,207,28343,5,2,2:0:0:0:
133,305,28510,1,8,2:0:0:0:
20,255,28676,1,2,2:0:0:0:
278,273,28843,6,0,P|329:266|365:225,1,90,8|2,2:0|2:0,2:0:0:0:
370,121,29176,2,0,P|371:144|373:167,2,45,2|0|8,2:1|2:0|2:0,2:0:0:0:
360,340,29510,1,2,2:0:0:0:
423,290,29676,6,0,P|479:293|535:297,1,90,8|2,2:0|2:1,2:0:0:0:
287,189,30010,2,0,P|244:225|181:222,1,90,2|8,2:0|2:0,2:0:0:0:
184,229,30260,1,0,2:0:0:0:
157,225,30343,1,2,2:1:0:0:
169,152,30510,6,0,L|175:117,1,36,2|0,2:0|2:0,2:0:0:0:
139,297,30676,2,0,L|133:332,1,36,8|0,2:0|2:0,2:0:0:0:
157,225,30843,5,2,2:1:0:0:
226,239,31010,6,0,L|261:245,1,36,2|0,2:0|2:0,2:0:0:0:
81,209,31176,2,0,L|46:203,1,36,8|0,2:0|2:0,2:0:0:0:
276,261,31343,5,0,1:0:0:0:
375,247,31510,1,0,1:0:0:0:
475,232,31676,5,2,2:0:0:0:
100,323,31843,6,0,P|215:317|279:255,1,202.5,2|0,2:1|2:0,2:0:0:0:
283,268,32176,2,0,P|273:225|249:187,1,67.5,2|0,2:0|2:0,2:0:0:0:
333,380,32343,6,0,P|336:347|337:320,1,45,8|0,2:0|2:0,2:0:0:0:
360,73,32510,2,0,P|358:95|356:117,1,45,2|0,2:1|2:0,2:0:0:0:
353,211,32676,5,8,2:0:0:0:
394,194,32760,1,8,2:0:0:0:
438,199,32843,1,8,2:0:0:0:
476,223,32926,1,8,2:0:0:0:
498,261,33010,1,6,2:1:0:0:
190,146,33176,5,0,1:0:0:0:
190,146,33260,1,0,1:0:0:0:
190,146,33343,1,0,1:0:0:0:
491,41,33510,5,6,2:1:0:0:
468,369,33676,1,0,2:0:0:0:
387,70,33843,5,6,2:1:0:0:
371,329,34010,1,0,2:0:0:0:
288,103,34176,6,0,P|285:199|285:283,1,175.5,6|0,2:1|2:0,2:0:0:0:
277,356,34510,5,2,2:1:0:0:
288,366,34593,1,0,2:0:0:0:
324,367,34676,1,2,2:0:0:0:
353,342,34760,1,0,2:0:0:0:
367,297,34843,1,2,2:0:0:0:
406,251,34926,1,0,2:0:0:0:
463,261,35010,5,2,2:1:0:0:
499,219,35093,1,0,2:0:0:0:
488,175,35176,1,2,2:1:0:0:
445,149,35260,1,0,2:0:0:0:
396,130,35343,5,0,1:0:0:0:
378,110,35426,1,0,1:0:0:0:
372,83,35510,1,0,1:0:0:0:
381,57,35593,1,0,1:0:0:0:
404,94,35676,5,0,2:0:0:0:
410,90,36010,5,6,2:1:0:0:
157,159,36176,1,0,2:0:0:0:
441,175,36343,5,0,1:0:0:0:
116,257,36510,1,6,2:1:0:0:
473,263,36676,5,0,2:0:0:0:
72,347,36843,6,0,B|60:238|11:301|0:184,1,180,6|2,2:1|2:1,2:0:0:0:
23,55,37343,6,0,P|69:49|141:47,1,108,8|2,2:0|2:0,2:0:0:0:
164,37,37593,1,8,2:0:0:0:
203,192,37760,2,0,P|208:147|165:133,1,90,8|0,2:0|2:0,2:0:0:0:
116,250,38010,5,8,2:0:0:0:
152,276,38093,1,0,2:0:0:0:
195,289,38176,1,8,2:0:0:0:
240,285,38260,1,8,2:0:0:0:
282,271,38343,6,0,P|330:263|381:256,2,90,6|2|8,2:1|2:0|2:0,2:0:0:0:
508,383,38843,2,0,B|429:375|467:335|380:330,1,135,2|0,2:1|2:0,2:0:0:0:
350,342,39176,1,8,2:0:0:0:
494,192,39343,2,0,P|510:232|491:272,1,90,0|8,1:0|2:0,2:0:0:0:
362,208,39676,6,0,P|352:163|350:124,1,72,2|2,2:0|2:1,2:0:0:0:
442,0,40010,2,0,P|448:45|446:84,1,72,8|2,2:0|2:0,2:0:0:0:
390,290,40343,5,8,2:0:0:0:
199,183,40510,1,2,2:1:0:0:
251,328,40676,5,2,2:0:0:0:
317,101,40843,1,8,2:0:0:0:
23,271,41010,6,0,P|68:264|111:251,1,90,6|2,2:1|2:0,2:0:0:0:
239,74,41343,2,0,P|238:122|233:164,1,90,2|2,2:1|2:0,2:0:0:0:
107,383,41676,6,0,P|113:350|117:328,1,45,2|0,2:1|2:0,2:0:0:0:
234,322,41843,1,0,2:0:0:0:
197,308,41926,1,0,2:0:0:0:
165,281,42010,1,2,2:1:0:0:
146,239,42093,1,0,1:0:0:0:
111,239,42176,1,0,1:0:0:0:
87,253,42260,1,0,1:0:0:0:
33,313,42343,6,0,B|5:289|6:245|6:245|14:235|14:235|20:191|6:154,2,162,6|6|6,2:1|2:1|2:1,2:0:0:0:
15,69,43010,6,0,B|142:48|85:102|186:86|186:86|235:75|240:32|240:32|199:37|184:73,1,324,6|0,2:1|0:0,2:0:0:0:
191,157,43676,5,6,2:1:0:0:
223,215,43843,1,0,2:0:0:0:
207,280,44010,1,0,2:0:0:0:
191,157,44176,5,2,2:0:0:0:
230,209,44343,1,0,2:0:0:0:
295,222,44510,1,0,2:0:0:0:
352,186,44676,5,2,2:0:0:0:
395,133,44843,1,0,2:0:0:0:
461,144,45010,1,0,2:0:0:0:
372,70,45176,5,2,2:0:0:0:
395,133,45343,1,0,2:0:0:0:
358,191,45510,1,0,2:0:0:0:
350,258,45676,5,2,2:0:0:0:
376,320,45843,1,0,2:0:0:0:
430,359,46010,1,2,2:0:0:0:
274,373,46176,5,0,2:0:0:0:
284,370,46260,1,0,2:0:0:0:
295,367,46343,1,2,2:0:0:0:
211,353,46510,1,0,2:0:0:0:
302,366,46676,1,0,2:0:0:0:
137,353,46843,5,2,2:0:0:0:
82,305,47010,1,0,2:0:0:0:
84,233,47176,1,0,2:0:0:0:
114,167,47343,5,2,2:0:0:0:
97,97,47510,1,0,2:0:0:0:
119,174,47676,1,0,2:0:0:0:
82,30,47843,5,2,2:0:0:0:
145,63,48010,1,0,2:0:0:0:
213,39,48176,1,2,2:0:0:0:
275,82,48343,5,4,2:3:0:0:
431,63,48510,1,4,2:3:0:0:
360,181,48676,5,2,2:3:0:0:
343,1,48843,1,0,2:3:0:0:
359,173,49010,6,0,B|374:255|330:235|351:326,1,144,2|2,2:3|2:0,2:0:0:0:
272,370,49510,1,0,2:0:0:0:
503,318,49676,6,0,P|474:301|417:292,1,72,4|0,2:3|2:0,2:0:0:0:
234,178,50010,2,0,P|257:155|309:130,1,72,2|0,2:0|2:0,2:0:0:0:
506,26,50343,6,0,P|482:72|388:66,1,144,2|2,2:0|2:3,2:0:0:0:
350,3,50843,1,0,2:0:0:0:
208,42,51010,2,0,P|243:37|284:50,1,72,4|0,2:3|2:0,2:0:0:0:
406,193,51343,5,2,2:0:0:0:
258,136,51510,1,0,2:0:0:0:
338,92,51676,6,0,P|331:162|328:249,1,144,2|2,2:3|2:0,2:0:0:0:
342,342,52176,1,0,2:0:0:0:
191,331,52343,6,0,P|240:305|272:298,1,72,4|0,2:3|2:0,2:0:0:0:
468,313,52676,2,0,P|414:296|387:279,1,72,2|0,2:0|2:0,2:0:0:0:
209,170,53010,6,0,P|143:164|56:210,1,144,2|2,2:0|2:3,2:0:0:0:
265,293,53510,2,0,B|262:207|300:240|299:148,1,144,0|0,2:0|2:0,2:0:0:0:
267,2,54010,2,0,P|250:48|249:94,1,72,2|0,2:0|2:0,2:0:0:0:
351,106,54343,6,0,P|391:96|426:89,1,72,2|0,2:3|2:0,2:0:0:0:
467,287,54676,1,2,2:0:0:0:
386,333,54843,1,0,2:0:0:0:
310,255,55010,6,0,P|308:210|297:173,1,72,4|0,2:3|2:0,2:0:0:0:
249,384,55343,2,0,P|234:331|219:306,1,72,2|0,2:0|2:0,2:0:0:0:
30,213,55676,6,0,P|59:273|129:302,1,144,2|2,2:0|2:3,2:0:0:0:
227,289,56176,1,0,2:0:0:0:
177,214,56343,6,0,P|183:168|190:130,1,72,4|0,2:3|2:0,2:0:0:0:
224,12,56676,1,2,2:0:0:0:
122,44,56843,1,0,2:0:0:0:
280,166,57010,6,0,B|380:150|299:126|431:95,1,144,2|2,2:3|2:0,2:0:0:0:
495,113,57510,1,0,2:0:0:0:
419,260,57676,6,0,P|410:214|410:180,1,72,4|0,2:3|2:0,2:0:0:0:
335,35,58010,2,0,P|337:89|332:124,1,72,2|0,2:0|2:0,2:0:0:0:
321,377,58343,6,0,B|327:306|290:314|301:235,1,144,2|2,2:0|2:3,2:0:0:0:
231,153,58843,1,0,2:0:0:0:
222,56,59010,6,0,P|154:44|125:41,1,72,4|0,2:3|2:0,2:0:0:0:
50,182,59343,2,0,P|87:176|125:174,1,72,2|0,2:0|2:0,2:0:0:0:
391,233,59676,6,0,P|307:223|243:284,1,144,6|8,2:1|2:1,2:0:0:0:
233,384,60176,1,2,2:1:0:0:
132,329,60343,6,0,P|126:263|122:225,1,72,4|2,2:3|2:1,2:0:0:0:
238,22,60676,2,0,P|241:61|235:94,1,72,8|0,2:1|2:0,2:0:0:0:
0,137,61010,6,0,P|84:147|148:86,1,144,2|8,2:1|2:1,2:0:0:0:
260,203,61510,1,0,2:0:0:0:
337,33,61676,6,0,P|385:36|431:46,1,72,4|2,2:3|2:1,2:0:0:0:
501,184,62010,2,0,P|452:181|422:171,1,72,8|0,2:1|2:0,2:0:0:0:
443,374,62343,6,0,P|427:337|500:273,1,144,2|8,2:1|2:1,2:0:0:0:
315,65,62843,2,0,B|302:165|336:120|327:212,1,144,2|2,2:1|2:1,2:0:0:0:
295,384,63343,5,8,2:1:0:0:
280,278,63510,1,2,2:1:0:0:
145,360,63676,6,0,P|101:365|71:367,1,72,2|2,2:0|2:1,2:0:0:0:
7,185,64010,2,0,P|51:180|81:178,1,72,8|0,2:1|2:0,2:0:0:0:
397,289,64343,5,2,2:1:0:0:
280,278,64510,1,2,2:1:0:0:
264,162,64676,2,0,P|264:102|261:33,1,108,8|0,2:1|2:0,2:0:0:0:
254,25,65010,5,2,2:1:0:0:
365,149,65176,1,8,2:1:0:0:
507,62,65343,1,2,2:1:0:0:
385,19,65510,1,8,2:1:0:0:
335,288,65676,5,2,2:1:0:0:
506,365,65843,1,8,2:1:0:0:
506,365,65926,1,8,2:1:0:0:
506,365,66010,1,2,2:1:0:0:
197,229,66176,1,8,2:1:0:0:
379,157,66343,5,2,2:1:0:0:
249,372,66510,1,8,2:1:0:0:
3,269,66676,5,2,2:1:0:0:
145,62,66843,1,8,2:1:0:0:
167,382,67010,6,0,P|167:302|162:241,1,126,2|8,2:1|2:1,2:0:0:0:
334,15,67343,2,0,P|334:95|339:156,1,126,2|8,2:1|2:1,2:0:0:0:
386,378,67676,5,2,2:1:0:0:
370,358,67760,1,2,2:1:0:0:
364,333,67843,1,2,2:1:0:0:
365,307,67926,1,2,2:1:0:0:
397,284,68010,5,2,2:1:0:0:
418,252,68093,1,2,2:1:0:0:
417,214,68176,1,2,2:1:0:0:
395,182,68260,1,2,2:1:0:0:
356,153,68343,5,2,2:1:0:0:
304,176,68426,1,2,2:1:0:0:
269,220,68510,1,2,2:1:0:0:
219,222,68593,1,2,2:1:0:0:
181,187,68676,1,2,2:1:0:0:
175,137,68760,1,2,2:1:0:0:
205,96,68843,1,2,2:1:0:0:
198,46,68926,1,2,2:1:0:0:
150,29,69010,6,0,P|89:39|16:54,2,120,2|2|2,2:1|2:1|2:1,2:0:0:0:
205,96,69343,2,0,P|215:157|230:230,2,120,2|2|2,2:1|2:1|2:1,2:0:0:0:
270,41,69676,6,0,P|315:46|343:48,1,62.9999999999999,2|0,2:1|2:0,2:0:0:0:
204,85,70010,6,0,B|157:145|211:211|211:211|256:266|218:333,1,270,2|0,2:0|2:0,2:0:0:0:
122,361,70343,6,0,P|173:351|230:345,1,90,6|2,2:1|2:0,2:0:0:0:
29,257,70676,6,0,P|60:269|82:281,1,45,8|0,2:1|2:0,2:0:0:0:
224,361,70843,1,2,2:1:0:0:
185,242,71010,5,2,2:0:0:0:
178,200,71093,1,0,2:0:0:0:
194,158,71176,1,2,2:1:0:0:
231,136,71260,1,0,2:0:0:0:
256,94,71343,6,0,P|253:55|248:20,1,67.5,8|0,2:1|2:0,2:0:0:0:
259,211,71510,2,0,P|257:263|256:290,1,67.5,2|0,2:0|2:0,2:0:0:0:
149,59,71676,5,2,2:1:0:0:
366,64,71843,2,0,P|400:67|426:68,2,40.5,2|0|8,2:0|2:0|2:1,2:0:0:0:
140,51,72176,6,0,B|221:49|178:91|270:87,1,135,2|2,2:0|2:0,2:0:0:0:
505,120,72510,2,0,B|424:123|469:162|377:164,1,135,2|8,2:1|2:1,2:0:0:0:
168,244,72843,6,0,P|199:244|251:251,1,67.5,2|0,2:0|2:0,2:0:0:0:
346,383,73010,1,2,2:1:0:0:
322,230,73176,5,2,2:2:0:0:
319,277,73260,1,0,2:0:0:0:
292,317,73343,1,8,2:1:0:0:
248,338,73426,1,0,2:0:0:0:
201,333,73510,1,2,2:1:0:0:
277,75,73676,5,2,2:2:0:0:
298,127,73760,1,0,2:0:0:0:
346,159,73843,1,2,2:1:0:0:
403,159,73926,1,0,2:0:0:0:
445,128,74010,6,0,P|469:108|491:91,1,54,8|0,2:1|2:0,2:0:0:0:
347,232,74176,1,2,2:1:0:0:
376,54,74343,5,2,2:0:0:0:
512,221,74510,1,2,2:1:0:0:
227,54,74676,5,8,2:1:0:0:
227,54,74760,2,0,P|239:138|242:186,1,108,0|0,2:0|2:0,2:0:0:0:
259,332,75010,5,2,2:1:0:0:
413,254,75176,1,2,2:1:0:0:
413,254,75260,2,0,P|361:244|337:240,1,67.5,0|8,2:0|2:1,2:0:0:0:
88,279,75510,2,0,P|136:270|166:267,1,67.5,2|0,2:0|2:0,2:0:0:0:
324,248,75676,5,2,2:1:0:0:
359,339,75843,2,0,L|369:377,1,31.5,2|0,2:0|2:0,2:0:0:0:
316,241,76010,5,8,2:1:0:0:
413,8,76176,1,2,2:1:0:0:
508,165,76343,5,2,2:0:0:0:
360,107,76510,2,0,B|237:123|310:144|185:161,1,180,2|2,2:1|2:0,2:0:0:0:
33,60,77010,6,0,P|65:60|83:63,1,45,2|0,2:1|2:0,2:0:0:0:
116,128,77176,1,2,2:0:0:0:
143,19,77343,1,8,2:1:0:0:
140,243,77510,2,0,P|147:297|151:351,1,108,2|0,2:0|2:0,2:0:0:0:
148,366,77843,6,0,L|101:374,1,36,2|0,2:1|2:0,2:0:0:0:
234,381,78010,2,0,P|234:355|234:335,1,36,8|0,2:1|2:0,2:0:0:0:
96,365,78176,1,2,2:0:0:0:
332,334,78343,6,0,P|383:330|436:326,1,90,2|2,2:1|2:0,2:0:0:0:
200,192,78676,6,0,P|232:190|269:187,1,67.5,8|0,2:1|2:0,2:0:0:0:
300,198,78843,1,2,2:1:0:0:
355,103,79010,6,0,P|319:108|304:126,1,49.5,2|0,2:0|2:0,2:0:0:0:
339,314,79176,2,0,P|352:280|344:258,1,49.5,2|0,2:1|2:0,2:0:0:0:
190,201,79343,5,8,2:1:0:0:
395,163,79510,1,2,2:1:0:0:
197,15,79676,6,0,P|206:49|213:92,1,67.5,2|0,2:0|2:0,2:0:0:0:
210,345,79843,2,0,P|218:303|223:256,1,67.5,2|0,2:1|2:0,2:0:0:0:
165,161,80010,6,0,P|195:165|247:168,1,67.5,8|0,2:1|2:0,2:0:0:0:
469,126,80176,1,2,2:0:0:0:
312,202,80343,5,2,2:1:0:0:
317,163,80426,1,0,2:0:0:0:
305,125,80510,1,2,2:1:0:0:
274,98,80593,1,0,2:0:0:0:
271,155,80676,5,8,1:0:0:0:
227,192,80760,1,0,1:0:0:0:
166,209,80843,1,2,1:2:0:0:
109,181,80926,1,0,1:0:0:0:
77,122,81010,6,0,P|72:66|69:42,1,80.9999999999998,6|2,2:1|2:0,2:0:0:0:
11,258,81343,6,0,P|46:258|76:233,1,45,8|0,2:1|2:0,2:0:0:0:
164,49,81510,1,2,2:1:0:0:
153,175,81676,5,2,2:2:0:0:
197,177,81760,1,0,2:0:0:0:
236,199,81843,1,2,2:1:0:0:
260,236,81926,1,0,2:0:0:0:
305,218,82010,6,0,P|340:223|378:227,1,67.5,8|0,2:1|2:0,2:0:0:0:
171,274,82176,2,0,P|149:301|126:332,1,67.5,2|0,2:0|2:0,2:0:0:0:
196,129,82343,6,0,P|176:71|170:57,1,67.5,2|0,2:1|2:0,2:0:0:0:
269,14,82510,1,2,2:0:0:0:
74,90,82676,1,8,2:1:0:0:
238,213,82843,6,0,B|326:183|281:167|355:137,1,135,2|2,2:0|2:0,2:0:0:0:
145,383,83176,2,0,B|59:345|106:333|35:297,1,135,2|8,2:1|2:1,2:0:0:0:
298,298,83510,6,0,P|338:287|383:281,1,67.5,2|0,2:0|2:0,2:0:0:0:
510,262,83676,1,2,2:1:0:0:
398,188,83843,5,2,2:2:0:0:
425,226,83926,1,0,2:0:0:0:
438,271,84010,1,8,2:1:0:0:
434,317,84093,1,0,2:0:0:0:
411,359,84176,1,2,2:1:0:0:
269,227,84343,5,2,2:2:0:0:
267,173,84426,1,0,2:0:0:0:
289,124,84510,1,2,2:1:0:0:
330,90,84593,1,0,2:0:0:0:
382,77,84676,6,0,P|420:84|460:98,1,67.5,8|0,2:1|2:0,2:0:0:0:
262,18,84843,1,2,2:1:0:0:
438,6,85010,5,2,2:0:0:0:
211,99,85176,1,2,2:1:0:0:
460,156,85343,1,8,2:1:0:0:
460,156,85426,2,0,B|387:172|429:197|324:208,1,135,0|0,2:0|2:0,2:0:0:0:
128,241,85676,5,2,2:1:0:0:
213,58,85843,1,2,2:1:0:0:
213,58,85926,2,0,P|221:111|226:141,1,67.5,0|8,1:0|2:1,2:0:0:0:
250,384,86176,2,0,P|245:330|242:300,1,67.5,2|0,2:0|2:0,2:0:0:0:
236,210,86343,5,2,2:1:0:0:
267,253,86426,1,0,2:0:0:0:
312,282,86510,1,2,2:2:0:0:
365,292,86593,1,0,2:0:0:0:
396,250,86676,6,0,P|356:258|307:262,1,67.5,8|0,2:1|2:0,2:0:0:0:
116,256,86843,2,0,P|155:267|203:275,1,67.5,2|0,2:1|2:0,2:0:0:0:
255,134,87010,2,0,L|250:63,1,67.5,2|0,2:0|2:0,2:0:0:0:
260,218,87176,5,2,2:1:0:0:
172,26,87343,5,8,2:1:0:0:
164,72,87426,1,0,2:0:0:0:
133,106,87510,1,2,2:2:0:0:
88,118,87593,1,0,2:0:0:0:
44,104,87676,6,0,P|88:90|114:87,1,67.5,2|0,2:1|2:0,2:0:0:0:
316,12,87843,1,2,2:2:0:0:
331,55,87926,1,0,2:0:0:0:
369,83,88010,1,8,2:1:0:0:
415,87,88093,1,0,2:0:0:0:
456,64,88176,6,0,P|410:58|384:61,1,67.5,2|0,2:0|2:0,2:0:0:0:
260,195,88343,2,0,P|229:208|203:230,1,67.5,2|0,2:0|2:0,2:0:0:0:
418,298,88510,2,0,P|387:281|359:238,1,67.5,2|0,2:1|2:0,2:0:0:0:
243,50,88676,5,8,2:1:0:0:
237,364,88843,1,2,2:0:0:0:
28,186,89010,6,0,P|94:177|181:170,1,135,6|2,2:1|2:0,2:0:0:0:
495,153,89343,5,8,2:1:0:0:
139,82,89510,1,2,2:1:0:0:
365,6,89676,6,0,B|379:118|329:65|348:190,1,180,2|2,2:0|2:1,2:0:0:0:
380,266,89926,1,0,2:0:0:0:
370,341,90010,1,8,2:1:0:0:
477,59,90176,6,0,P|356:96|240:24,1,270,6|0,2:1|2:0,2:0:0:0:
240,14,90510,6,0,P|250:107|259:202,1,180,2|8,2:1|2:1,2:0:0:0:
241,374,90760,1,0,2:0:0:0:
241,374,90843,2,0,P|244:325|252:274,1,90,2|0,2:0|2:0,2:0:0:0:
324,248,91010,6,0,B|442:257|365:290|500:302,1,180,2|2,2:1|2:1,2:0:0:0:
195,199,91260,2,0,B|79:226|161:246|29:279,1,180,2|0,2:1|2:1,2:0:0:0:
10,80,91510,6,0,P|52:99|89:133,1,90,8|8,2:1|2:1,2:0:0:0:
245,307,91676,5,6,2:1:0:0:
257,15,91843,5,8,2:1:0:0:
257,15,91926,1,8,2:1:0:0:
257,15,92010,1,8,2:1:0:0:
249,317,92176,5,6,2:1:0:0:
43,258,92343,5,8,2:1:0:0:
43,258,92426,1,8,2:1:0:0:
43,258,92510,1,6,2:1:0:0:
454,250,92676,5,8,2:1:0:0:
454,250,92760,1,8,2:1:0:0:
454,250,92843,1,6,2:1:0:0:
250,153,93010,6,0,P|253:207|252:259,1,90,12|8,2:1|2:1,2:0:0:0:
251,384,93176,1,2,2:1:0:0:
130,229,93343,5,2,2:1:0:0:
363,214,93510,1,2,2:0:0:0:
124,225,93676,6,0,L|81:233,6,27,2|0|0|0|0|0|0,2:0|2:0|2:0|2:0|2:0|2:0|2:0,2:0:0:0:
176,239,94010,1,8,2:1:0:0:
222,223,94093,1,8,2:1:0:0:
246,175,94176,1,8,2:1:0:0:
296,156,94260,1,8,2:1:0:0:
346,175,94343,6,0,P|397:169|461:159,1,108,6|2,2:1|2:0,2:0:0:0:
166,152,94676,1,8,2:1:0:0:
452,160,94843,5,2,2:1:0:0:
401,143,94926,1,0,2:0:0:0:
348,151,95010,1,2,2:0:0:0:
303,181,95093,1,0,2:0:0:0:
276,227,95176,2,0,P|244:246|220:253,1,54,2|0,2:1|2:0,2:0:0:0:
17,283,95343,1,8,2:1:0:0:
209,384,95510,1,2,2:1:0:0:
59,204,95676,6,0,P|49:157|27:106,1,90,2|2,2:0|2:1,2:0:0:0:
56,367,96010,1,8,2:1:0:0:
142,245,96176,1,2,2:0:0:0:
186,244,96260,1,0,2:0:0:0:
228,261,96343,1,2,2:1:0:0:
259,293,96426,1,0,2:0:0:0:
275,335,96510,1,2,2:1:0:0:
424,263,96676,2,0,P|478:247|515:243,1,90,8|2,2:1|2:0,2:0:0:0:
346,160,97010,6,0,P|336:113|314:62,1,90,2|2,2:1|2:0,2:0:0:0:
402,12,97343,1,8,2:1:0:0:
189,198,97510,5,2,2:1:0:0:
236,189,97593,1,0,2:0:0:0:
278,211,97676,1,2,2:0:0:0:
310,248,97760,1,0,2:0:0:0:
357,259,97843,1,2,2:1:0:0:
173,115,98010,1,8,2:1:0:0:
326,71,98176,1,2,2:0:0:0:
216,27,98343,5,2,2:1:0:0:
347,174,98510,1,2,2:0:0:0:
400,0,98676,1,8,2:1:0:0:
258,118,98843,5,2,2:0:0:0:
272,155,98926,1,0,2:0:0:0:
278,195,99010,1,2,2:0:0:0:
276,235,99093,1,0,2:0:0:0:
265,274,99176,1,2,2:1:0:0:
88,363,99343,2,0,P|131:335|181:327,1,90,8|2,2:1|2:0,2:0:0:0:
436,334,99676,5,2,2:1:0:0:
260,243,99843,1,2,2:0:0:0:
469,219,100010,1,8,2:1:0:0:
346,373,100176,1,2,2:1:0:0:
342,328,100260,1,0,2:0:0:0:
352,284,100343,1,2,2:0:0:0:
360,240,100426,1,0,2:0:0:0:
359,195,100510,1,2,2:1:0:0:
368,44,100676,5,8,2:1:0:0:
359,195,100843,1,2,2:1:0:0:
443,126,101010,6,0,P|469:105|498:65,1,67.5,2|0,2:0|2:0,2:0:0:0:
282,260,101176,2,0,P|268:222|257:167,1,67.5,2|0,2:1|2:0,2:0:0:0:
233,74,101343,5,8,2:1:0:0:
413,233,101510,1,2,2:0:0:0:
321,14,101676,6,0,P|316:72|311:100,1,67.5,2|0,2:1|2:0,2:0:0:0:
187,340,101843,2,0,P|193:298|201:254,1,67.5,2|0,2:1|2:0,2:0:0:0:
251,157,102010,1,8,2:1:0:0:
289,184,102093,1,8,2:1:0:0:
262,222,102176,1,8,2:1:0:0:
223,195,102260,1,8,2:1:0:0:
256,192,102343,6,0,P|330:211|406:256,1,162,6|0,2:1|2:0,2:0:0:0:
398,371,102676,5,8,2:1:0:0:
421,108,102843,2,0,L|418:155,1,45,2|0,2:1|2:0,2:0:0:0:
475,319,103010,5,2,2:0:0:0:
475,292,103093,1,0,2:0:0:0:
481,265,103176,1,2,2:1:0:0:
328,319,103343,2,0,L|230:330,1,90,8|2,2:1|2:0,2:0:0:0:
14,276,103676,6,0,B|121:297|38:332|162:363,1,175.5,2|0,2:1|2:0,2:0:0:0:
183,245,104010,5,8,2:1:0:0:
163,377,104176,2,0,L|160:331,1,45,2|0,2:0|2:0,2:0:0:0:
101,181,104343,5,2,2:0:0:0:
80,173,104426,1,0,2:0:0:0:
58,174,104510,1,2,2:1:0:0:
249,307,104676,2,0,P|298:304|341:267,1,90,8|2,2:1|2:0,2:0:0:0:
160,2,105010,6,0,P|197:83|191:182,1,162,2|0,2:1|2:0,2:0:0:0:
183,244,105343,5,8,2:1:0:0:
317,154,105510,2,0,B|432:138|390:182|497:168,1,180,2|2,2:1|2:1,2:0:0:0:
99,266,106010,2,0,P|45:245|25:213,1,90,8|2,2:1|2:1,2:0:0:0:
206,371,106343,6,0,P|212:310|212:238,1,117,2|2,2:0|2:1,2:0:0:0:
195,21,106676,1,8,2:1:0:0:
321,242,106843,1,2,2:0:0:0:
46,116,107010,5,2,2:1:0:0:
348,88,107176,1,2,2:1:0:0:
99,266,107343,5,8,2:1:0:0:
111,214,107426,1,8,2:1:0:0:
146,174,107510,1,8,2:1:0:0:
197,155,107593,1,8,2:1:0:0:
250,163,107676,6,0,P|247:119|245:88,1,67.5,6|0,2:1|2:0,2:0:0:0:
333,22,107843,1,2,2:0:0:0:
326,68,107926,1,0,2:0:0:0:
338,114,108010,2,0,P|338:148|340:185,1,67.5,8|0,2:1|2:0,2:0:0:0:
427,342,108176,5,2,2:0:0:0:
408,292,108260,1,0,2:0:0:0:
366,259,108343,1,2,2:1:0:0:
313,253,108426,1,0,2:0:0:0:
267,281,108510,6,0,P|232:290|196:298,1,67.5,2|0,2:0|2:0,2:0:0:0:
491,203,108676,1,8,2:1:0:0:
448,180,108760,1,0,2:0:0:0:
423,131,108843,1,2,2:0:0:0:
419,77,108926,1,0,2:0:0:0:
438,33,109010,6,0,P|401:98|349:153,1,135,6|2,2:1|2:0,2:0:0:0:
74,351,109343,2,0,P|111:286|163:231,1,135,8|2,2:1|2:0,2:0:0:0:
415,374,109676,6,0,P|350:337|295:285,1,135,2|2,2:1|2:0,2:0:0:0:
97,10,110010,2,0,P|162:47|217:99,1,135,8|2,2:1|2:0,2:0:0:0:
255,190,110343,5,6,2:1:0:0:
275,157,110426,1,2,2:1:0:0:
312,143,110510,1,2,2:1:0:0:
349,157,110593,1,2,2:1:0:0:
393,137,110676,5,8,2:1:0:0:
387,83,110760,1,2,2:1:0:0:
357,39,110843,1,2,2:1:0:0:
309,16,110926,1,2,2:1:0:0:
255,19,111010,5,6,2:1:0:0:
213,52,111093,1,2,2:1:0:0:
193,101,111176,1,2,2:1:0:0:
144,126,111260,1,2,2:1:0:0:
93,106,111343,5,2,2:1:0:0:
50,146,111426,1,2,2:1:0:0:
54,204,111510,1,2,2:1:0:0:
103,238,111593,1,2,2:1:0:0:
159,221,111676,6,0,P|225:212|247:210,1,67.5,2|0,2:1|2:0,2:0:0:0:
285,374,111843,2,0,P|251:378|218:383,1,67.5,2|0,2:1|2:0,2:0:0:0:
284,282,112010,6,0,B|370:270|330:303|421:291,1,135,8|2,2:0|2:0,2:0:0:0:
196,270,112260,6,0,B|156:347|152:295|112:373,2,135,8|8|0,2:0|2:0|2:0,2:0:0:0:
220,130,112676,6,0,P|233:159|243:193,1,67.5,8|8,2:1|2:1,2:0:0:0:
235,384,112843,2,0,P|235:334|241:300,1,67.5,8|8,2:1|2:1,2:0:0:0:
252,182,113010,5,6,2:1:0:0:
256,192,113176,12,0,116843,2:0:0:0:
128,321,117010,6,0,P|115:341|104:362,2,48,2|0|0,2:0|2:0|2:0,2:0:0:0:
138,230,117343,6,0,P|111:244|86:260,2,60,2|0|0,2:0|2:0|2:0,2:0:0:0:
174,148,117676,6,0,P|142:150|101:161,3,53.9999983520508,2|0|0|0,2:0|2:0|2:0|2:0,2:0:0:0:
218,169,118010,5,2,2:0:0:0:
265,175,118093,1,0,2:0:0:0:
302,146,118176,1,0,2:0:0:0:
312,104,118260,1,0,2:0:0:0:
