osu file format v14

[General]
AudioFilename: Kappa Bento.mp3
AudioLeadIn: 0
PreviewTime: 544
Countdown: 0
SampleSet: Normal
StackLeniency: 0.7
Mode: 0
LetterboxInBreaks: 1
WidescreenStoryboard: 1

[Editor]
DistanceSpacing: 1.2
BeatDivisor: 4
GridSize: 4
TimelineZoom: 1

[Metadata]
Title:Kappa Bento
TitleUnicode:かっぱ弁当
Artist:Kagerio
ArtistUnicode:影莉央
Creator:HICCA
Version:Maguro
Source:Nico Nico Douga
Tags:hicari
BeatmapID:1296935
BeatmapSetID:614822

[Difficulty]
HPDrainRate:7
CircleSize:3.9
OverallDifficulty:8.8
ApproachRate:9.5
SliderMultiplier:1.4
SliderTickRate:1

[Events]
//Background and Video events
0,0,"BG.jpg",0,0
Video,0,"KB.avi"
//Break Periods
//Storyboard Layer 0 (Background)
//Storyboard Layer 1 (Fail)
//Storyboard Layer 2 (Pass)
//Storyboard Layer 3 (Foreground)
//Storyboard Sound Samples

[TimingPoints]
544,250,4,1,1,60,1,0
544,-100,4,1,1,60,0,1
3544,-100,4,1,1,60,0,0
4544,-100,4,1,1,60,0,1
7544,-100,4,1,1,60,0,0
8544,-100,4,1,1,60,0,1
11544,-100,4,1,1,60,0,0
12544,-100,4,1,1,60,0,1
15544,-100,4,1,1,60,0,0

[HitObjects]
417,308,544,6,0,P|340:317|286:284,1,140,6|0,0:0|0:0,0:0:0:0:
241,128,919,1,2,0:0:0:0:
365,229,1044,2,0,L|441:224,1,70,8|0,0:0|0:0,0:0:0:0:
231,353,1294,2,0,L|162:349,1,70,2|0,0:0|0:0,0:0:0:0:
260,202,1544,5,0,0:0:0:0:
160,252,1669,1,0,0:0:0:0:
167,141,1794,1,2,0:0:0:0:
233,273,1919,1,0,0:0:0:0:
112,193,2044,2,0,P|114:158|135:131,1,70,10|0,0:0|0:0,0:0:0:0:
241,128,2231,1,0,0:0:0:0:
241,128,2294,2,0,P|280:110|296:61,1,70
103,50,2544,6,0,P|62:105|106:180,1,140,2|0,0:0|0:0,0:0:0:0:
260,202,2919,1,2,0:0:0:0:
148,310,3044,1,8,0:0:0:0:
458,230,3294,1,2,0:0:0:0:
157,115,3544,6,0,L|265:106,1,105,6|0,0:0|0:0,0:0:0:0:
286,106,3794,1,8,0:0:0:0:
258,279,3919,1,0,0:0:0:0:
245,57,4044,2,0,P|275:55|319:31,1,70
433,87,4231,1,0,0:0:0:0:
433,87,4294,2,0,L|451:193,1,105,8|0,0:0|0:0,0:0:0:0:
458,230,4544,6,0,P|403:180|319:201,1,140,6|0,0:0|0:0,0:0:0:0:
377,45,4919,1,2,0:0:0:0:
375,272,5044,2,0,P|356:242|327:223,1,70,8|0,0:0|0:0,0:0:0:0:
144,344,5294,2,0,P|178:342|209:326,1,70,2|0,0:0|0:0,0:0:0:0:
197,107,5544,5,0,0:0:0:0:
12,212,5669,1,0,0:0:0:0:
177,180,5794,1,2,0:0:0:0:
52,67,5919,1,0,0:0:0:0:
157,252,6044,2,0,L|75:233,1,70,10|0,0:0|0:0,0:0:0:0:
32,139,6231,1,0,0:0:0:0:
32,139,6294,2,0,L|100:123,1,70
269,53,6544,6,0,B|378:27|378:27|382:51|362:63,1,140,2|0,0:0|0:0,0:0:0:0:
324,203,6919,1,2,0:0:0:0:
197,107,7044,1,8,0:0:0:0:
269,361,7294,1,2,0:0:0:0:
51,240,7544,6,0,P|96:269|143:269,1,70,2|0,0:0|0:0,0:0:0:0:
285,203,7794,1,8,0:0:0:0:
149,105,7919,1,0,0:0:0:0:
186,339,8044,2,0,P|192:306|179:255,1,70
71,152,8294,1,8,0:0:0:0:
98,319,8419,1,0,0:0:0:0:
238,126,8544,6,0,P|316:125|366:162,1,140,6|0,0:0|0:0,0:0:0:0:
427,299,8919,1,2,0:0:0:0:
269,361,9044,2,0,P|268:325|285:288,1,70,8|0,0:0|0:0,0:0:0:0:
434,174,9294,2,0,P|399:178|370:197,1,70,2|0,0:0|0:0,0:0:0:0:
351,335,9544,5,0,0:0:0:0:
289,197,9669,1,0,0:0:0:0:
427,299,9794,1,2,0:0:0:0:
213,233,9919,1,0,0:0:0:0:
472,230,10044,2,0,P|457:198|432:172,1,70,10|0,0:0|0:0,0:0:0:0:
334,128,10231,1,0,0:0:0:0:
334,128,10294,2,0,P|279:135|248:164,1,70
229,282,10544,5,2,0:0:0:0:
254,24,10794,1,2,0:0:0:0:
83,146,11044,1,10,0:0:0:0:
455,94,11294,1,2,0:0:0:0:
284,350,11544,6,0,L|266:217,1,105,6|0,0:0|0:0,0:0:0:0:
263,200,11794,1,8,0:0:0:0:
86,262,11919,1,0,0:0:0:0:
192,108,12044,1,0,0:0:0:0:
192,108,12106,1,0,0:0:0:0:
192,108,12169,1,0,0:0:0:0:
197,296,12294,2,0,B|176:240|176:240|136:198,1,105,8|0,0:0|0:0,0:0:0:0:
83,146,12544,6,0,P|135:177|228:141,1,140,6|0,0:0|0:0,0:0:0:0:
363,68,12919,1,2,0:0:0:0:
152,81,13044,1,8,0:0:0:0:
263,200,13169,1,0,0:0:0:0:
222,27,13294,1,2,0:0:0:0:
191,245,13419,1,0,0:0:0:0:
345,147,13544,5,0,0:0:0:0:
116,163,13669,1,0,0:0:0:0:
345,147,13794,1,2,0:0:0:0:
116,163,13919,1,0,0:0:0:0:
286,312,14044,2,0,L|283:234,1,70,10|0,0:0|0:0,0:0:0:0:
140,191,14231,1,0,0:0:0:0:
140,191,14294,2,0,L|143:261,1,70
91,365,14544,6,0,P|184:323|236:349,1,140,2|0,0:0|0:0,0:0:0:0:
342,362,14919,1,2,0:0:0:0:
130,240,15044,1,8,0:0:0:0:
305,34,15294,1,2,0:0:0:0:
426,290,15544,6,0,P|378:302|336:284,1,70,2|0,0:0|0:0,0:0:0:0:
364,134,15794,1,8,0:0:0:0:
240,220,15919,1,0,0:0:0:0:
472,206,16044,2,0,P|485:251|478:286,1,70
267,128,16294,2,0,P|265:93|277:60,1,70,8|0,0:0|0:0,0:0:0:0:
