osu file format v14

[General]
AudioFilename: audio.mp3
AudioLeadIn: 0
PreviewTime: 46527
Countdown: 0
SampleSet: Soft
StackLeniency: 0.3
Mode: 0
LetterboxInBreaks: 0
WidescreenStoryboard: 1

[Editor]
Bookmarks: 13976,27037,46629,59180
DistanceSpacing: 1
BeatDivisor: 4
GridSize: 32
TimelineZoom: 2.5

[Metadata]
Title:Ready to (TV Size)
TitleUnicode:Ready to (TV Size)
Artist:Kagemori Michiru (CV: Morohoshi Sumire)
ArtistUnicode:影森みちる (CV:諸星すみれ)
Creator:bite you death
Version:Normal
Source:BNA ビー・エヌ・エー
Tags:byd anime jpop japanese pop brand new animal character voice netflix furry studio trigger opening op
BeatmapID:2979336
BeatmapSetID:1317288

[Difficulty]
HPDrainRate:4
CircleSize:3
OverallDifficulty:4
ApproachRate:5
SliderMultiplier:1.1
SliderTickRate:1

[Events]
//Background and Video events
0,0,"bna.jpg",0,0
Video,0,"bna.mp4"
//Break Periods
//Storyboard Layer 0 (Background)
//Storyboard Layer 1 (Fail)
//Storyboard Layer 2 (Pass)
//Storyboard Layer 3 (Foreground)
//Storyboard Layer 4 (Overlay)
//Storyboard Sound Samples

[TimingPoints]
915,408.163265306122,4,2,2,79,1,0
27037,-100,4,2,2,59,0,0
40098,-100,4,2,2,49,0,0
41731,-100,4,2,2,54,0,0
43363,-100,4,2,2,59,0,0
44996,-100,4,2,2,69,0,0
46221,-100,4,2,2,59,0,0
46629,-100,4,2,2,79,0,1
59180,-100,4,2,2,79,0,0

[Colours]
Combo1 : 255,164,209
Combo2 : 215,242,255
Combo3 : 255,209,187
Combo4 : 132,255,193

[HitObjects]
107,84,13976,6,0,L|233:60,1,110,6|10,3:2|0:0,0:0:0:0:
256,26,14588,1,0,0:0:0:0:
256,26,14792,2,0,L|356:45,1,82.5,2|2,3:2|0:0,0:0:0:0:
409,0,15404,2,0,P|442:21|438:107,1,110,2|2,3:1|3:2,0:0:0:0:
415,128,16017,1,10,0:0:0:0:
495,202,16425,2,0,L|483:268,1,55,2|2,3:2|3:2,0:0:0:0:
475,310,16833,1,10,0:0:0:0:
381,368,17241,6,0,P|323:349|271:301,1,110,2|14,3:2|1:2,0:0:0:0:
254,280,17853,1,0,0:0:0:0:
254,280,18057,2,0,P|206:293|167:324,1,82.5,2|2,3:2|0:0,0:0:0:0:
117,366,18670,2,0,P|58:343|39:294,1,110,2|2,3:1|3:2,0:0:0:0:
70,258,19282,1,10,0:0:0:0:
6,168,19690,2,0,P|15:139|26:100,1,55,2|2,3:2|0:0,0:0:0:0:
61,76,20098,2,0,P|87:83|113:92,1,55,10|10,0:0|0:0,0:0:0:0:
156,126,20506,6,0,P|193:86|266:89,1,110,6|10,3:2|0:0,0:0:0:0:
298,112,21119,1,0,0:0:0:0:
298,112,21323,2,0,P|340:107|369:75,1,82.5,2|2,3:2|0:0,0:0:0:0:
439,118,21935,2,0,P|427:173|414:245,1,110,2|2,3:1|3:2,0:0:0:0:
447,272,22547,1,10,0:0:0:0:
381,360,22955,2,0,L|318:373,1,55,2|2,3:2|3:2,0:0:0:0:
273,382,23363,1,10,0:0:0:0:
201,298,23772,6,0,P|150:306|112:364,1,110,2|10,3:2|0:0,0:0:0:0:
67,372,24384,1,0,0:0:0:0:
67,372,24588,2,0,P|81:333|56:283,1,82.5,2|2,3:2|0:0,0:0:0:0:
96,220,25200,1,2,0:0:0:0:
96,220,25404,2,0,P|170:201|271:179,1,165,10|0,0:0|0:0,0:0:0:0:
295,142,26221,1,10,0:0:0:0:
351,156,26425,1,8,0:3:0:0:
366,211,26629,2,0,P|397:217|434:225,1,55,0|0,3:0|3:0,0:0:0:0:
472,232,27037,6,0,P|484:284|502:358,2,110,6|10|2,3:2|1:2|0:0,0:0:0:0:
511,129,28261,1,10,1:2:0:0:
420,66,28670,2,0,L|347:82,1,55,2|2,3:2|0:0,0:0:0:0:
335,123,29078,2,0,L|262:107,1,55,10|2,1:2|0:0,0:0:0:0:
250,66,29486,2,0,P|205:67|163:124,1,110,2|10,3:2|1:2,0:0:0:0:
101,203,30302,6,0,P|120:259|128:320,2,110,2|10|2,3:2|1:2|0:0,0:0:0:0:
16,132,31527,1,10,1:2:0:0:
99,60,31935,2,0,P|137:66|163:74,1,55,2|2,3:2|0:0,0:0:0:0:
190,110,32343,2,0,P|228:104|254:96,1,55,10|2,1:2|0:0,0:0:0:0:
276,55,32751,1,2,3:2:0:0:
308,11,32955,2,0,P|339:12|377:34,1,55,2|10,3:2|1:2,0:0:0:0:
419,114,33568,6,0,P|406:168|394:237,1,110,6|10,3:2|1:2,0:0:0:0:
316,296,34384,2,0,P|305:241|293:188,1,110,2|10,0:0|1:2,0:0:0:0:
213,113,35200,2,0,P|182:118|148:138,1,55,2|2,3:2|0:0,0:0:0:0:
123,169,35608,2,0,P|92:163|58:144,1,55,10|2,1:2|0:0,0:0:0:0:
38,108,36017,1,2,0:0:0:0:
3,212,36425,2,0,L|18:277,1,55,10|2,1:2|0:0,0:0:0:0:
49,308,36833,6,0,P|91:316|150:349,1,110,2|10,3:2|1:2,0:0:0:0:
249,304,37649,2,0,P|295:332|349:344,1,110,2|10,3:2|1:2,0:0:0:0:
438,280,38466,1,6,3:2:0:0:
206,197,40098,6,0,P|230:243|215:303,1,110,2|2,3:2|3:2,0:0:0:0:
109,312,40914,2,0,P|84:265|99:205,1,110,2|2,3:2|3:2,0:0:0:0:
162,124,41731,2,0,L|294:147,1,110,2|2,3:2|3:2,0:0:0:0:
328,49,42547,2,0,L|460:26,1,110,2|2,3:2|3:2,0:0:0:0:
494,124,43363,5,14,0:0:0:0:
460,228,43772,1,10,0:0:0:0:
352,250,44180,1,10,0:0:0:0:
318,354,44588,1,10,0:0:0:0:
210,376,44996,2,0,P|184:368|146:359,1,55,12|0,1:2|3:0,0:0:0:0:
106,382,45404,2,0,P|80:374|42:365,1,55,8|0,1:2|3:0,0:0:0:0:
10,332,45812,2,0,P|-2:280|28:236,1,110,8|4,1:2|0:3,0:0:0:0:
102,154,46629,6,0,P|92:100|81:33,1,110,6|10,3:2|1:2,0:0:0:0:
186,7,47445,2,0,P|195:61|204:115,1,110,2|10,3:2|1:2,0:0:0:0:
255,148,48057,1,0,0:0:0:0:
255,148,48261,2,0,P|299:108|368:119,1,110,2|10,3:2|1:2,0:0:0:0:
389,152,48874,1,0,0:0:0:0:
389,152,49078,2,0,L|378:224,1,55,2|2,3:2|0:0,0:0:0:0:
428,233,49486,2,0,L|439:305,1,55,10|2,1:2|0:0,0:0:0:0:
411,341,49894,6,0,P|363:342|303:379,1,110,6|10,3:2|1:2,0:0:0:0:
226,300,50710,2,0,P|178:299|118:262,1,110,2|10,3:2|1:2,0:0:0:0:
75,293,51323,1,0,0:0:0:0:
75,293,51527,2,0,P|64:241|50:176,1,110,2|10,3:2|1:2,0:0:0:0:
73,137,52139,1,0,0:0:0:0:
73,137,52343,2,0,P|102:120|145:114,1,55,2|2,3:2|0:0,0:0:0:0:
163,78,52751,2,0,P|192:95|235:101,1,55,10|2,1:2|0:0,0:0:0:0:
257,68,53159,6,0,P|298:76|333:145,1,110,6|10,3:2|1:2,0:0:0:0:
421,196,53976,2,0,P|380:204|345:273,1,110,2|10,3:2|1:2,0:0:0:0:
372,312,54588,1,0,0:0:0:0:
372,312,54792,2,0,P|316:324|253:346,1,110,2|10,3:2|1:2,0:0:0:0:
232,384,55404,1,0,0:0:0:0:
232,384,55608,2,0,P|200:378|173:369,1,55,2|2,3:2|0:0,0:0:0:0:
147,326,56016,2,0,P|115:331|88:341,1,55,10|2,1:2|0:0,0:0:0:0:
49,371,56425,6,0,P|34:317|5:254,1,110,6|10,3:2|1:2,0:0:0:0:
100,201,57241,2,0,P|114:147|144:84,1,110,2|14,3:2|1:2,0:0:0:0:
182,67,57853,1,0,0:0:0:0:
182,67,58057,2,0,P|208:58|245:51,1,55,8|0,0:0|3:0,0:0:0:0:
276,88,58466,2,0,P|302:96|339:104,1,55,8|0,0:0|3:0,0:0:0:0:
374,71,58874,2,0,P|417:83|441:115,1,82.5,12|6,0:0|3:2,0:0:0:0:
