osu file format v14

[General]
AudioFilename: audio.mp3
AudioLeadIn: 0
PreviewTime: 46527
Countdown: 0
SampleSet: Soft
StackLeniency: 0.6
Mode: 0
LetterboxInBreaks: 0
WidescreenStoryboard: 1

[Editor]
Bookmarks: 13976,27037,46629,59180
DistanceSpacing: 1.2
BeatDivisor: 4
GridSize: 32
TimelineZoom: 2.5

[Metadata]
Title:Ready to (TV Size)
TitleUnicode:Ready to (TV Size)
Artist:Kagemori Michiru (CV: Morohoshi Sumire)
ArtistUnicode:影森みちる (CV:諸星すみれ)
Creator:bite you death
Version:Hard
Source:BNA ビー・エヌ・エー
Tags:byd anime jpop japanese pop brand new animal character voice netflix furry studio trigger opening op
BeatmapID:2979335
BeatmapSetID:1317288

[Difficulty]
HPDrainRate:4.6
CircleSize:3.6
OverallDifficulty:6.1
ApproachRate:7.6
SliderMultiplier:1.55
SliderTickRate:1

[Events]
//Background and Video events
0,0,"bna.jpg",0,0
Video,0,"bna.mp4"
//Break Periods
//Storyboard Layer 0 (Background)
//Storyboard Layer 1 (Fail)
//Storyboard Layer 2 (Pass)
//Storyboard Layer 3 (Foreground)
//Storyboard Layer 4 (Overlay)
//Storyboard Sound Samples

[TimingPoints]
915,408.163265306122,4,2,2,79,1,0
27037,-125,4,2,2,59,0,0
40098,-125,4,2,2,49,0,0
41731,-125,4,2,2,54,0,0
43363,-125,4,2,2,59,0,0
44996,-125,4,2,2,69,0,0
46221,-100,4,2,2,59,0,0
46629,-83.3333333333333,4,2,2,79,0,1
59180,-100,4,2,2,79,0,0

[Colours]
Combo1 : 255,164,209
Combo2 : 215,242,255
Combo3 : 255,209,187
Combo4 : 132,255,193

[HitObjects]
12,69,13976,6,0,P|68:81|124:96,1,116.25,6|0,3:2|0:0,0:0:0:0:
157,76,14384,2,0,P|199:73|247:129,1,116.25,10|0,0:0|0:0,0:0:0:0:
246,124,14792,1,2,3:2:0:0:
246,124,14894,2,0,L|264:225,1,77.5,2|2,0:0|0:0,0:0:0:0:
343,281,15404,6,0,P|415:273|445:200,1,155,2|2,3:1|3:2,0:0:0:0:
392,146,16017,2,0,P|386:104|406:63,1,77.5,10|2,0:0|0:0,0:0:0:0:
468,35,16425,1,2,3:2:0:0:
468,35,16629,1,2,3:2:0:0:
398,72,16833,2,0,P|358:64|288:53,1,77.5,10|0,0:0|0:0,0:0:0:0:
270,0,17241,6,0,P|228:4|194:50,1,77.5,2|0,3:2|3:0,0:0:0:0:
176,54,17547,1,0,3:0:0:0:
176,54,17649,2,0,P|124:63|34:77,1,116.25,14|0,1:2|0:0,0:0:0:0:
61,73,18057,1,2,3:2:0:0:
61,73,18159,2,0,P|45:97|73:78,1,77.5,2|2,0:0|0:0,0:0:0:0:
155,179,18670,6,0,P|144:234|132:308,1,116.25,2|0,3:1|0:0,0:0:0:0:
151,328,19078,2,0,P|191:306|231:307,1,77.5,2|10,3:2|0:0,0:0:0:0:
281,255,19486,1,2,0:0:0:0:
336,341,19690,5,2,3:2:0:0:
355,337,19792,1,2,0:0:0:0:
374,333,19894,1,2,0:0:0:0:
393,329,19996,1,2,3:2:0:0:
412,326,20098,2,0,L|403:372,3,38.75,10|2|10|10,0:0|0:0|0:0|0:0,0:0:0:0:
489,359,20506,6,0,P|526:300|490:242,1,116.25,6|0,3:2|3:0,0:0:0:0:
475,246,20914,2,0,P|485:187|500:130,1,116.25,10|0,0:0|0:0,0:0:0:0:
499,132,21323,1,2,3:2:0:0:
499,132,21425,2,0,P|459:116|406:93,1,77.5,2|2,0:0|0:0,0:0:0:0:
345,20,21935,6,0,P|295:20|246:112,1,155,2|2,3:1|3:2,0:0:0:0:
189,156,22547,2,0,P|211:194|205:248,1,77.5,10|2,0:0|0:0,0:0:0:0:
154,277,22955,1,2,3:2:0:0:
154,277,23159,1,2,3:2:0:0:
212,227,23363,2,0,P|254:236|305:247,1,77.5,10|0,0:0|0:0,0:0:0:0:
342,187,23772,6,0,P|393:196|432:259,1,116.25,2|0,3:2|0:0,0:0:0:0:
430,246,24180,2,0,P|418:299|406:359,1,116.25,10|0,0:0|0:0,0:0:0:0:
406,359,24588,1,2,3:2:0:0:
406,359,24690,2,0,P|362:367|323:384,1,77.5,2|2,0:0|0:0,0:0:0:0:
245,318,25200,5,2,0:0:0:0:
245,318,25302,1,2,0:0:0:0:
245,318,25404,2,0,L|192:303,1,38.75,10|2,0:0|3:2,0:0:0:0:
186,281,25608,1,10,0:0:0:0:
186,281,25710,2,0,P|146:290|119:323,1,77.5,10|10,0:0|0:0,0:0:0:0:
51,272,26119,1,10,0:0:0:0:
51,272,26221,2,0,P|39:232|22:181,3,77.5,10|8|0|0,0:0|0:3|3:0|3:0,0:0:0:0:
58,126,27037,6,0,B|96:126|117:108|114:103|128:78|177:81,1,124,6|10,3:2|1:2,0:0:0:0:
272,196,27853,1,2,0:0:0:0:
222,256,28057,1,0,3:0:0:0:
272,196,28261,2,0,P|332:209|406:232,1,124,10|2,1:2|3:2,0:0:0:0:
453,178,28874,5,2,0:0:0:0:
453,178,29078,2,0,P|472:168|454:186,1,62,10|2,1:2|0:0,0:0:0:0:
391,226,29486,2,0,B|387:264|409:285|414:282|439:296|436:345,1,124,2|10,3:2|1:2,0:0:0:0:
436,336,30098,1,2,0:0:0:0:
342,384,30302,6,0,P|282:373|204:359,1,124,2|10,3:2|1:2,0:0:0:0:
134,232,31119,2,0,P|80:236|40:290,1,124,2|10,0:0|1:2,0:0:0:0:
144,350,31833,5,2,0:0:0:0:
144,350,31935,2,0,P|178:341|211:333,1,62,2|2,3:2|0:0,0:0:0:0:
239,265,32343,2,0,P|273:273|306:282,1,62,10|2,1:2|0:0,0:0:0:0:
324,363,32751,1,2,3:2:0:0:
331,358,32853,1,8,0:0:0:0:
338,353,32955,2,0,P|361:357|406:388,2,62,2|10|0,3:2|1:2|0:0,0:0:0:0:
299,281,33568,6,0,P|284:217|267:148,1,124,6|10,3:2|1:2,0:0:0:0:
305,9,34384,2,0,P|364:12|392:64,1,124,2|10,0:0|1:2,0:0:0:0:
270,160,35200,6,0,P|235:168|193:184,1,62,2|2,3:2|0:0,0:0:0:0:
152,125,35608,2,0,P|117:116|75:101,1,62,10|2,1:2|0:0,0:0:0:0:
28,153,36017,2,0,P|55:209|69:281,1,124,2|10,0:0|1:2,0:0:0:0:
12,322,36629,1,2,0:0:0:0:
69,269,36833,6,0,B|104:266|128:296|123:300|136:330|197:326,1,124,2|10,3:2|1:2,0:0:0:0:
298,233,37649,2,0,P|354:246|419:289,1,124,2|10,3:2|1:2,0:0:0:0:
483,191,38364,5,2,0:0:0:0:
483,191,38466,2,0,P|473:159|461:121,1,62,6|0,3:2|0:0,0:0:0:0:
387,133,38874,2,0,P|387:93|407:75,1,62,0|0,0:0|0:0,0:0:0:0:
467,38,39282,2,0,P|487:30|469:44,1,62,0|0,0:0|0:0,0:0:0:0:
400,78,39690,2,0,P|355:69|291:58,1,93,0|0,0:0|0:0,0:0:0:0:
289,57,40098,5,2,3:2:0:0:
311,202,40506,1,2,3:2:0:0:
270,53,40914,5,2,3:2:0:0:
292,206,41323,1,2,3:2:0:0:
126,293,41731,5,2,3:2:0:0:
148,148,42139,1,2,3:2:0:0:
107,297,42547,5,2,3:2:0:0:
129,144,42956,1,2,3:2:0:0:
245,287,43363,6,0,P|276:291|312:320,1,62,14|8,0:0|0:0,0:0:0:0:
352,366,43772,2,0,P|385:359|427:349,1,62,10|8,0:0|0:0,0:0:0:0:
452,286,44180,1,10,0:0:0:0:
456,267,44384,1,8,0:0:0:0:
403,210,44588,1,10,0:0:0:0:
399,191,44792,1,8,0:0:0:0:
452,134,44996,5,12,1:2:0:0:
456,115,45098,1,8,0:3:0:0:
460,96,45200,1,0,3:0:0:0:
464,77,45302,1,0,3:0:0:0:
467,58,45404,2,0,L|421:67,3,31,8|8|0|0,1:2|0:3|3:0|3:0,0:0:0:0:
373,18,45812,6,0,L|267:-2,1,93,8|0,1:2|0:0,0:0:0:0:
281,0,46221,1,4,0:3:0:0:
99,214,46629,6,0,P|22:204|0:150,1,139.499995742798,6|0,3:2|0:0,0:0:0:0:
0,153,47037,2,0,P|40:166|65:223,1,92.9999971618653,10|0,1:2|0:0,0:0:0:0:
94,315,47445,6,0,L|240:343,1,139.499995742798,2|0,3:2|0:0,0:0:0:0:
210,318,47853,2,0,L|100:339,1,92.9999971618653,10|0,1:2|0:0,0:0:0:0:
118,335,48159,1,2,0:0:0:0:
118,335,48261,1,2,3:2:0:0:
147,226,48466,1,2,0:0:0:0:
176,117,48670,2,0,L|210:-9,2,92.9999971618653,10|2|2,1:2|0:0|3:2,0:0:0:0:
88,48,49282,5,2,0:0:0:0:
288,96,49486,1,10,1:2:0:0:
88,48,49690,1,2,0:0:0:0:
288,96,49894,2,0,P|335:157|312:211,1,139.499995742798,6|0,3:2|0:0,0:0:0:0:
315,208,50302,2,0,P|295:170|318:112,1,92.9999971618653,10|0,1:2|0:0,0:0:0:0:
375,34,50710,6,0,L|521:62,1,139.499995742798,2|0,3:2|0:0,0:0:0:0:
491,37,51118,2,0,L|381:58,1,92.9999971618653,10|0,1:2|0:0,0:0:0:0:
399,54,51425,1,2,0:0:0:0:
399,54,51527,1,2,3:2:0:0:
428,163,51731,1,2,0:0:0:0:
457,272,51935,2,0,L|491:398,2,92.9999971618653,10|2|2,1:2|0:0|3:2,0:0:0:0:
441,261,52445,1,0,0:0:0:0:
424,251,52547,2,0,P|373:246|325:280,1,92.9999971618653,2|10,0:0|1:2,0:0:0:0:
285,364,52955,1,2,0:0:0:0:
141,237,53159,6,0,L|-12:267,1,139.499995742798,6|0,3:2|0:0,0:0:0:0:
4,263,53568,2,0,L|118:285,1,92.9999971618653,10|0,1:2|0:0,0:0:0:0:
202,165,53976,6,0,P|223:105|157:33,1,139.499995742798,2|0,3:2|0:0,0:0:0:0:
186,44,54384,2,0,P|190:108|217:140,1,92.9999971618653,10|0,1:2|0:0,0:0:0:0:
205,130,54690,1,2,0:0:0:0:
205,130,54792,1,2,3:2:0:0:
314,159,54996,1,2,0:0:0:0:
422,187,55200,2,0,L|519:213,2,92.9999971618653,10|2|2,1:2|0:0|3:2,0:0:0:0:
491,99,55812,5,2,0:0:0:0:
443,299,56016,1,10,1:2:0:0:
491,99,56221,1,2,0:0:0:0:
443,299,56425,6,0,P|363:316|301:363,1,139.499995742798,6|0,3:2|0:0,0:0:0:0:
316,347,56833,2,0,P|360:374|411:383,1,92.9999971618653,10|0,1:2|0:0,0:0:0:0:
256,231,57241,6,0,L|110:259,1,139.499995742798,2|0,3:2|0:0,0:0:0:0:
118,257,57649,2,0,L|228:278,1,92.9999971618653,14|0,1:2|0:0,0:0:0:0:
209,274,57955,1,0,3:0:0:0:
209,274,58057,2,0,P|221:294|220:345,3,46.4999985809327,8|8|0|0,0:0|0:0|3:0|3:0,0:0:0:0:
156,364,58466,5,8,0:0:0:0:
133,368,58568,1,8,0:3:0:0:
110,372,58670,1,0,3:0:0:0:
87,377,58772,1,0,3:0:0:0:
64,381,58874,1,12,0:0:0:0:
9,189,59078,1,8,0:0:0:0:
9,189,59180,1,6,3:2:0:0:
