osu file format v14

[General]
AudioFilename: audio.mp3
AudioLeadIn: 0
PreviewTime: 46527
Countdown: 0
SampleSet: Soft
StackLeniency: 0.3
Mode: 0
LetterboxInBreaks: 0
WidescreenStoryboard: 1

[Editor]
Bookmarks: 13976,27037,46629,59180
DistanceSpacing: 1
BeatDivisor: 4
GridSize: 32
TimelineZoom: 2.5

[Metadata]
Title:Ready to (TV Size)
TitleUnicode:Ready to (TV Size)
Artist:Kagemori Michiru (CV: Morohoshi Sumire)
ArtistUnicode:影森みちる (CV:諸星すみれ)
Creator:bite you death
Version:Brand New Map
Source:BNA ビー・エヌ・エー
Tags:byd anime jpop japanese pop brand new animal character voice netflix furry studio trigger opening op
BeatmapID:2729421
BeatmapSetID:1317288

[Difficulty]
HPDrainRate:5.2
CircleSize:4.2
OverallDifficulty:8.2
ApproachRate:9.2
SliderMultiplier:2.62
SliderTickRate:1

[Events]
//Background and Video events
0,0,"bna.jpg",0,0
Video,0,"bna.mp4"
//Break Periods
//Storyboard Layer 0 (Background)
//Storyboard Layer 1 (Fail)
//Storyboard Layer 2 (Pass)
//Storyboard Layer 3 (Foreground)
//Storyboard Layer 4 (Overlay)
//Storyboard Sound Samples

[TimingPoints]
915,408.163265306122,4,2,2,79,1,0
13976,-66.6666666666667,4,2,2,79,0,0
14384,-75.187969924812,4,2,2,79,0,0
15200,-100,4,2,2,79,0,0
15404,-66.6666666666667,4,2,2,79,0,0
15812,-100,4,2,2,79,0,0
16629,-133.333333333333,4,2,2,79,0,0
17241,-66.6666666666667,4,2,2,79,0,0
18466,-100,4,2,2,79,0,0
18670,-83.3333333333333,4,2,2,79,0,0
19078,-90.9090909090909,4,2,2,79,0,0
20506,-66.6666666666667,4,2,2,79,0,0
20914,-71.4285714285714,4,2,2,79,0,0
21221,-75.187969924812,4,2,2,79,0,0
21731,-100,4,2,2,79,0,0
21935,-66.6666666666667,4,2,2,79,0,0
22343,-100,4,2,2,79,0,0
23159,-75.187969924812,4,2,2,79,0,0
23772,-66.6666666666667,4,2,2,79,0,0
24180,-75.187969924812,4,2,2,79,0,0
24996,-100,4,2,2,79,0,0
25200,-57.1428571428571,4,2,2,79,0,0
27037,-125,4,2,2,59,0,0
33159,-83.3333333333333,4,2,2,59,0,0
33568,-125,4,2,2,59,0,0
36833,-93.4579439252336,4,2,2,59,0,0
37241,-188.679245283019,4,2,2,59,0,0
37649,-93.4579439252336,4,2,2,59,0,0
38057,-188.679245283019,4,2,2,59,0,0
38466,-454.545454545455,4,2,2,59,0,0
40098,-250,4,2,2,49,0,0
41731,-166.666666666667,4,2,2,54,0,0
43363,-166.666666666667,4,2,2,59,0,0
44996,-149.253731343284,4,2,2,69,0,0
46221,-149.253731343284,4,2,2,59,0,0
46629,-75.187969924812,4,2,2,79,0,1
47037,-100,4,2,2,79,0,1
47445,-149.253731343284,4,2,2,79,0,1
47853,-100,4,2,2,79,0,1
48670,-66.6666666666667,4,2,2,79,0,1
48874,-200,4,2,2,79,0,1
49078,-100,4,2,2,79,0,1
49894,-75.187969924812,4,2,2,79,0,1
50302,-100,4,2,2,79,0,1
50710,-149.253731343284,4,2,2,79,0,1
51119,-100,4,2,2,79,0,1
51935,-66.6666666666667,4,2,2,79,0,1
52139,-200,4,2,2,79,0,1
52343,-66.6666666666667,4,2,2,79,0,1
53159,-75.187969924812,4,2,2,79,0,1
53568,-100,4,2,2,79,0,1
53976,-149.253731343284,4,2,2,79,0,1
54792,-66.6666666666667,4,2,2,79,0,1
55608,-75.187969924812,4,2,2,79,0,1
56833,-100,4,2,2,79,0,1
57241,-75.187969924812,4,2,2,79,0,1
57649,-100,4,2,2,79,0,1
58874,-75.187969924812,4,2,2,79,0,1
59180,-166.666666666667,4,2,2,79,0,0
59690,-166.666666666667,4,2,2,5,0,0

[Colours]
Combo1 : 255,164,209
Combo2 : 215,242,255
Combo3 : 255,209,187
Combo4 : 132,255,193

[HitObjects]
0,297,13976,6,0,B|112:289|95:201|90:198|127:103|253:141,1,294.750011243821,6|0,3:2|0:0,0:0:0:0:
186,223,14384,6,0,B|251:233|251:233|258:238|258:238|362:254,1,174.229992821945,10|0,0:0|0:0,0:0:0:0:
398,355,14690,5,0,0:0:0:0:
378,355,14792,1,2,3:2:0:0:
362,343,14894,2,0,B|342:291|385:263|387:266|433:243|409:146,1,174.229992821945,2|2,0:0|0:0,0:0:0:0:
388,115,15200,6,0,B|377:103|357:102|357:102|354:125|365:143,1,65.5,8|0,0:0|0:0,0:0:0:0:
512,183,15404,6,0,P|364:156|167:127,1,294.750011243821,2|0,3:1|0:0,0:0:0:0:
78,110,15812,6,0,B|101:120|117:147|117:147|108:89|171:42,2,131,2|10|2,3:2|0:0|0:0,0:0:0:0:
146,217,16425,1,2,3:2:0:0:
69,30,16629,6,0,P|42:25|9:21,1,49.1250018739701,2|0,3:2|0:0,0:0:0:0:
148,77,16833,6,0,B|191:75|209:37|205:33|220:-6|278:1,1,147.37500562191,10|0,0:0|0:0,0:0:0:0:
265,0,17241,6,0,B|313:9|313:9|319:12|319:12|403:27,1,98.2500037479402,2|0,3:2|0:0,0:0:0:0:
465,129,17445,5,0,3:0:0:0:
389,98,17547,1,0,3:0:0:0:
453,47,17649,2,0,B|465:102|423:131|421:128|374:154|388:229,1,196.50000749588,14|0,1:2|0:0,0:0:0:0:
461,321,17955,5,0,0:0:0:0:
471,297,18057,1,2,3:2:0:0:
459,274,18159,2,0,B|331:253|331:253|313:301|242:322,1,196.50000749588,2|2,0:0|0:0,0:0:0:0:
225,258,18466,6,0,B|190:258|190:258|222:287,1,65.5,8|0,0:0|0:0,0:0:0:0:
272,384,18670,6,0,P|249:230|232:117,1,235.799992803955,2|0,3:1|0:0,0:0:0:0:
236,12,19078,6,0,B|259:35|257:72|257:72|278:27|335:20,2,144.100004397583,2|10|2,3:2|0:0|0:0,0:0:0:0:
37,119,19690,5,2,3:2:0:0:
40,105,19792,1,2,0:0:0:0:
95,48,19894,1,2,0:0:0:0:
171,67,19996,1,2,3:2:0:0:
192,142,20098,5,10,0:0:0:0:
137,197,20200,1,2,0:0:0:0:
203,142,20302,1,10,0:0:0:0:
142,206,20404,1,10,0:0:0:0:
228,227,20506,6,0,B|295:217|313:272|310:275|350:329|401:320|417:289|414:260|386:227|349:234|314:271,1,294.750011243821,6|0,3:2|3:0,0:0:0:0:
226,324,20914,6,0,B|188:329|111:377|111:377|127:346|155:323,1,183.399994403076,10|0,0:0|0:0,0:0:0:0:
320,174,21221,5,0,0:0:0:0:
320,174,21323,1,2,3:2:0:0:
320,174,21425,2,0,B|328:137|328:137|326:129|326:129|341:49,1,87.1149964109727,2|0,0:0|0:0,0:0:0:0:
365,23,21629,5,2,0:0:0:0:
365,23,21731,2,0,P|378:15|387:54,1,65.5,8|0,0:0|0:0,0:0:0:0:
167,123,21935,6,0,B|250:89|288:177|283:179|302:294|414:245,1,294.750011243821,2|0,3:1|0:0,0:0:0:0:
512,165,22343,6,0,B|482:185|472:229|472:229|463:195|425:180,2,131,2|10|2,3:2|0:0|0:0,0:0:0:0:
482,304,22955,1,2,3:2:0:0:
452,109,23159,6,0,P|398:82|281:64,2,174.229992821945,2|10|0,3:2|0:0|0:0,0:0:0:0:
170,62,23772,6,0,B|146:46|141:21|154:1|195:7|221:51|215:88|209:95|193:113|189:119|187:158|215:205|255:192|266:140|221:115,1,294.750011243821,2|0,3:2|0:0,0:0:0:0:
124,195,24180,6,0,P|194:181|263:250,1,174.229992821945,10|0,0:0|0:0,0:0:0:0:
358,339,24486,5,0,0:0:0:0:
372,300,24588,1,2,3:2:0:0:
354,264,24690,2,0,B|271:276|271:276|265:281|265:281|138:300,1,174.229992821945,2|2,0:0|0:0,0:0:0:0:
129,358,24996,6,0,B|116:357|95:364|95:364|106:349|117:324,1,65.5,8|0,0:0|0:0,0:0:0:0:
44,146,25200,5,2,0:0:0:0:
30,223,25302,1,2,0:0:0:0:
57,140,25404,5,10,0:0:0:0:
41,231,25506,1,2,3:2:0:0:
128,199,25608,5,10,0:0:0:0:
128,199,25710,2,0,B|191:207|228:164|228:160|246:75|373:106,1,229.250002186298,10|10,0:0|0:0,0:0:0:0:
492,0,26119,5,10,0:0:0:0:
400,15,26221,2,0,P|350:113|335:273,3,229.250002186298,10|8|0|0,0:0|0:3|3:0|3:0,0:0:0:0:
383,304,27037,6,0,P|328:258|216:295,1,157.2,6|0,3:2|0:0,0:0:0:0:
206,332,27445,2,0,L|96:350,1,104.8,10|0,1:2|0:0,0:0:0:0:
93,116,27853,5,2,0:0:0:0:
93,116,28057,1,0,3:0:0:0:
146,264,28261,2,0,P|167:203|142:152,1,104.8,10|0,1:2|0:0,0:0:0:0:
20,34,28670,6,0,L|130:16,1,104.8,2|2,3:2|0:0,0:0:0:0:
185,70,28976,1,2,0:3:0:0:
185,70,29078,2,0,L|295:88,1,104.8,10|2,1:2|0:0,0:0:0:0:
463,46,29486,6,0,P|415:5|319:43,1,157.2,2|0,3:2|0:0,0:0:0:0:
330,27,29894,2,0,L|348:137,1,104.8,10|2,1:2|0:0,0:0:0:0:
408,301,30302,6,0,B|420:228|432:161|432:161|413:207|354:232,2,209.6,2|10|2,3:2|1:2|0:0,0:0:0:0:
347,130,31323,1,0,3:0:0:0:
435,369,31527,6,0,P|377:336|310:358,1,104.8,10|0,1:2|0:0,0:0:0:0:
275,288,31833,5,2,0:0:0:0:
270,299,31935,2,0,L|160:317,1,104.8,2|2,3:2|0:0,0:0:0:0:
311,209,32343,5,10,1:2:0:0:
236,384,32547,1,2,0:0:0:0:
121,231,32751,5,2,3:2:0:0:
191,198,32853,1,8,0:0:0:0:
185,275,32955,1,2,3:2:0:0:
185,275,33159,6,0,B|180:228|218:201|219:204|268:187|256:88,1,157.199995202637,10|0,1:2|0:0,0:0:0:0:
229,63,33466,5,8,0:0:0:0:
229,63,33568,2,0,P|261:118|364:108,1,157.2,6|0,3:2|0:0,0:0:0:0:
391,59,33976,2,0,P|422:41|497:66,1,104.8,10|0,1:2|0:0,0:0:0:0:
470,294,34384,5,2,0:0:0:0:
470,294,34588,1,0,3:0:0:0:
441,114,34792,2,0,L|423:224,1,104.8,10|0,1:2|0:0,0:0:0:0:
300,370,35200,6,0,P|345:339|412:349,1,104.8,2|2,3:2|0:0,0:0:0:0:
472,384,35608,1,10,1:2:0:0:
472,384,35812,1,2,0:0:0:0:
313,266,36017,6,0,L|203:248,1,104.8,2|0,0:0|3:0,0:0:0:0:
371,187,36425,5,10,1:2:0:0:
252,361,36629,1,2,0:0:0:0:
161,170,36833,6,0,B|90:176|40:222|40:222|51:177|111:138,1,210.254993583527,2|0,3:2|0:0,0:0:0:0:
124,96,37241,2,0,B|128:84|128:63|128:63|105:74|94:99,1,69.4300001059418,10|0,1:2|0:0,0:0:0:0:
169,256,37649,6,0,B|225:258|255:196|250:192|255:125|351:128,1,210.254993583527,2|0,3:2|0:0,0:0:0:0:
377,78,38057,2,0,P|412:86|452:95,1,69.4300001059418,10|0,1:2|0:0,0:0:0:0:
506,34,38363,5,2,0:0:0:0:
506,34,38466,2,0,B|514:85|471:115|464:113|427:131|429:190,1,172.9200052771,6|0,3:2|0:0,0:0:0:0:
419,274,40098,6,0,L|350:262,1,52.4,2|0,3:2|0:0,0:0:0:0:
325,198,40506,2,0,L|280:251,1,52.4,2|0,3:2|0:0,0:0:0:0:
212,241,40914,2,0,L|236:306,1,52.4,2|0,3:2|0:0,0:0:0:0:
192,360,41323,2,0,L|261:372,1,52.4,2|0,3:2|0:0,0:0:0:0:
185,167,41731,6,0,P|151:147|112:144,1,78.5999976013184,2|0,3:2|0:0,0:0:0:0:
273,138,42139,2,0,P|253:104|221:81,1,78.5999976013184,2|0,3:2|0:0,0:0:0:0:
362,156,42547,2,0,P|363:117|346:81,1,78.5999976013184,2|0,3:2|0:0,0:0:0:0:
430,216,42955,2,0,P|450:182|453:143,1,78.5999976013184,2|0,3:2|0:0,0:0:0:0:
369,291,43363,5,14,0:0:0:0:
397,372,43568,1,8,0:0:0:0:
301,255,43772,5,10,0:0:0:0:
275,380,43977,1,8,0:0:0:0:
260,189,44180,5,10,0:0:0:0:
146,317,44385,1,8,0:0:0:0:
257,111,44588,5,10,0:0:0:0:
54,181,44793,1,8,0:0:0:0:
297,33,44996,5,12,1:2:0:0:
327,31,45098,1,8,0:3:0:0:
353,43,45200,1,0,3:0:0:0:
373,65,45302,1,0,3:0:0:0:
381,93,45404,1,8,1:2:0:0:
390,119,45506,1,8,0:3:0:0:
409,141,45608,1,0,3:0:0:0:
436,153,45710,1,0,3:0:0:0:
466,152,45812,1,8,1:2:0:0:
466,152,46221,6,0,B|426:155|405:129|406:122|385:94|332:100,1,131.654993772423,4|0,0:3|0:0,0:0:0:0:
239,96,46629,6,0,B|328:81|328:81|339:75|339:75|415:61|415:61|421:11|475:-2,1,261.344989232918,6|0,3:2|0:0,0:0:0:0:
248,179,47037,6,0,B|204:202|154:155|156:147|163:94|89:88,1,196.5,10|0,1:2|0:0,0:0:0:0:
40,31,47445,6,0,P|50:96|61:179,1,131.654993772423,2|0,3:2|0:0,0:0:0:0:
4,223,47853,6,0,B|24:246|17:289|17:289|33:251|82:237,1,131,10|0,1:2|0:0,0:0:0:0:
113,309,48159,5,2,0:0:0:0:
122,307,48261,2,0,P|153:312|190:323,1,65.5,2|0,3:2|0:0,0:0:0:0:
358,190,48466,1,2,0:0:0:0:
358,190,48670,6,0,P|334:163|265:170,1,98.2500037479402,10|0,1:2|0:0,0:0:0:0:
223,218,48874,2,0,P|226:236|230:257,1,32.75,2|0,0:0|0:0,0:0:0:0:
256,365,49078,6,0,B|254:328|285:306|290:311|318:285|301:232,2,131,2|2|10,3:2|0:0|1:2,0:0:0:0:
132,182,49690,6,0,B|140:203|140:203|143:178|163:158,1,65.5,2|0,0:0|0:0,0:0:0:0:
223,218,49894,6,0,B|170:216|113:243|81:303|81:303|84:250|43:221,1,261.344989232918,6|0,3:2|0:0,0:0:0:0:
17,364,50302,6,0,B|88:316|151:328|151:328|163:360|197:370,1,196.5,10|0,1:2|0:0,0:0:0:0:
257,318,50710,6,0,B|316:326|316:326|321:331|321:331|396:342,1,131.654993772423,2|0,3:2|0:0,0:0:0:0:
476,147,51119,6,0,B|412:122|412:122|365:171,1,131,10|0,1:2|0:0,0:0:0:0:
448,285,51425,5,2,0:0:0:0:
448,285,51527,2,0,P|439:244|426:205,1,65.5,2|0,3:2|0:0,0:0:0:0:
511,72,51731,1,2,0:0:0:0:
336,243,51935,6,0,B|308:241|295:211|299:208|278:186|223:190,1,98.2500037479402,10|0,1:2|0:0,0:0:0:0:
183,219,52139,2,0,P|162:223|141:229,1,32.75,2|0,0:0|0:0,0:0:0:0:
211,301,52343,6,0,P|228:210|254:92,2,196.50000749588,2|2|10,3:2|0:0|1:2,0:0:0:0:
190,53,52955,6,0,B|194:31|185:2|185:2|205:25|242:36,1,98.2500037479402,2|0,0:0|0:0,0:0:0:0:
429,176,53159,6,0,B|377:190|348:141|353:138|318:93|250:108|250:108|290:105|314:136,1,261.344989232918,6|0,3:2|0:0,0:0:0:0:
257,186,53568,6,0,B|197:205|156:248|156:248|179:202|231:184,1,196.5,10|0,1:2|0:0,0:0:0:0:
357,270,53976,6,0,B|418:285|418:285|424:289|424:289|498:305,1,131.654993772423,2|0,3:2|0:0,0:0:0:0:
227,384,54384,6,0,P|197:359|215:318,1,87.7699958482821,10|0,1:2|0:0,0:0:0:0:
312,349,54690,5,2,0:0:0:0:
303,342,54792,2,0,P|224:351|105:386,2,196.50000749588,2|2|10,3:2|0:0|1:2,0:0:0:0:
26,241,55404,6,0,B|57:222|87:229|87:229|66:213|61:194,1,98.2500037479402,2|0,0:0|0:0,0:0:0:0:
142,156,55608,6,0,B|152:195|124:234|120:231|62:253|72:328,2,174.229992821945,2|2|10,3:2|0:0|1:2,0:0:0:0:
74,36,56221,6,0,B|67:47|64:59|64:59|91:30|140:28,1,87.1149964109727,2|0,0:0|0:0,0:0:0:0:
192,82,56425,6,0,B|250:97|268:42|265:39|309:-12|351:6|372:25|358:50|334:83|284:51|271:2,1,261.344989232918,6|0,3:2|0:0,0:0:0:0:
281,25,56833,6,0,P|259:120|241:224,1,196.5,10|0,1:2|0:0,0:0:0:0:
244,319,57241,6,0,B|231:331|208:344|184:345|179:303|223:277|260:283|267:289|285:305|291:309|331:311|371:284|353:259|320:238|279:293,1,261.344989232918,2|0,3:2|0:0,0:0:0:0:
136,379,57649,6,0,B|114:350|120:302|120:302|104:333|81:342,1,131,14|0,1:2|0:0,0:0:0:0:
43,266,57955,5,0,3:0:0:0:
39,271,58058,1,8,0:0:0:0:
43,277,58160,1,8,0:0:0:0:
49,275,58262,1,0,3:0:0:0:
49,268,58364,1,0,3:0:0:0:
40,191,58466,5,8,0:0:0:0:
111,221,58568,1,8,0:3:0:0:
37,183,58670,5,0,3:0:0:0:
117,214,58772,1,0,3:0:0:0:
106,130,58874,6,0,B|115:103|136:80|136:80|119:92|98:96,1,87.1149964109727,12|0,0:0|3:0,0:0:0:0:
62,13,59078,5,8,0:0:0:0:
67,22,59180,2,0,B|128:14|152:55|149:59|170:110|253:91,1,196.499994003296,6|0,3:2|0:0,0:0:0:0:
