osu file format v14

[General]
AudioFilename: audio.mp3
AudioLeadIn: 0
PreviewTime: 86513
Countdown: 0
SampleSet: Normal
StackLeniency: 0.7
Mode: 1
LetterboxInBreaks: 0
WidescreenStoryboard: 1

[Editor]
DistanceSpacing: 0.4
BeatDivisor: 4
GridSize: 32
TimelineZoom: 1.8

[Metadata]
Title:Ready to (Mokelmbe Bootleg)
TitleUnicode:Ready to (Mokelmbe Bootleg)
Artist:Kagemori Michiru (CV: Morohoshi Sumire)
ArtistUnicode:影森みちる(CV:諸星すみれ)
Creator:-Koppe-
Version:hz404's Oni
Source:BNA ビー・エヌ・エー
Tags:Electronic Anime Animation アニメ BNA: Brand New Animal Jacotanu Studio TRIGGER rihoco Jin Tanaka R・O・N フジテレビ Fuji TV +Ultra NETFLIX mokele mbembe japanese instrumental remix pop jpop j-pop op opening Jacotanuboot furry GunzoTamamura hz404
BeatmapID:4372667
BeatmapSetID:2085520

[Difficulty]
HPDrainRate:5
CircleSize:5
OverallDifficulty:6
ApproachRate:10
SliderMultiplier:1.4
SliderTickRate:1

[Events]
//Background and Video events
0,0,"ginrou.jpg",0,50
//Break Periods
//Storyboard Layer 0 (Background)
//Storyboard Layer 1 (Fail)
//Storyboard Layer 2 (Pass)
//Storyboard Layer 3 (Foreground)
//Storyboard Layer 4 (Overlay)
//Storyboard Sound Samples

[TimingPoints]
445,413.793103448276,4,1,0,70,1,0
13582,-100,4,1,0,80,0,0
26824,-100,4,1,0,85,0,0
33341,-100,4,1,0,90,0,0
36848,-100,4,1,0,90,0,0
36952,-99.6422920822728,4,1,0,90,0,0
37055,-99.2905370668677,4,1,0,90,0,0
37262,-98.5910699700517,4,1,0,90,0,0
37366,-98.2433532284319,4,1,0,90,0,0
37469,-97.9013889358251,4,1,0,90,0,0
37676,-97.2212900194644,4,1,0,90,0,0
37779,-96.8863917594729,4,1,0,90,0,0
37883,-96.5505749041826,4,1,0,90,0,0
37986,-96.2202736814136,4,1,0,90,0,0
38090,-95.8890507083278,4,1,0,90,0,0
38297,-95.2365298004537,4,1,0,90,0,0
38503,-94.5959183673469,4,1,0,90,0,0
38607,-94.2757655634742,4,1,0,90,0,0
38710,-93.9608199273482,4,1,0,90,0,0
38917,-93.3341924675408,4,1,0,90,0,0
39021,-93.0225090710593,4,1,0,90,0,0
39124,-92.7158676310568,4,1,0,90,0,0
39331,-92.1056814930213,4,1,0,90,0,0
39435,-91.8021358177267,4,1,0,90,0,0
39538,-91.5034744156665,4,1,0,90,0,0
39641,-91.2067499921292,4,1,0,90,0,0
39745,-90.9090909090909,4,1,0,90,0,0
40065,-95.2380952380952,4,1,0,90,0,0
40479,-100,4,1,0,90,0,0
59824,-111.111111111111,4,1,0,70,0,0
72755,-111.111111111111,4,1,0,80,0,0
73169,-100,4,1,0,80,0,0
79686,-100,4,1,0,85,0,0
83100,-100,4,1,0,90,0,0
83193,-100,4,1,0,90,0,0
83297,-99.5828988529718,4,1,0,90,0,0
83400,-99.173223629029,4,1,0,90,0,0
83503,-98.7669053301512,4,1,0,90,0,0
83607,-98.3600063381398,4,1,0,90,0,0
83814,-97.5600172881223,4,1,0,90,0,0
84021,-96.7729363161587,4,1,0,90,0,0
84124,-96.3860098598657,4,1,0,90,0,0
84228,-95.9984535086024,4,1,0,90,0,0
84331,-95.6176833025262,4,1,0,90,0,0
84435,-95.2362687941086,4,1,0,90,0,0
84641,-94.489687190806,4,1,0,90,0,0
84848,-93.7511799131584,4,1,0,90,0,0
84952,-93.3844823047125,4,1,0,90,0,0
85055,-93.0241270792747,4,1,0,90,0,0
85262,-92.3082642477415,4,1,0,90,0,0
85366,-91.9527459911861,4,1,0,90,0,0
85469,-91.6033350549694,4,1,0,90,0,0
85676,-90.9090909090909,4,1,0,90,0,0
86090,-93.4579439252336,4,1,0,90,0,0
86193,-95.0080515297907,4,1,0,90,0,0
86297,-96.6262692433672,4,1,0,90,0,0
86503,-100,4,1,0,90,0,0
86720,-90.9090909090909,4,1,0,100,0,0
86927,-90.9090909090909,4,1,0,100,0,1
90134,-95.2380952380952,4,1,0,100,0,1
93445,-90.9090909090909,4,1,0,100,0,1
96755,-95.2380952380952,4,1,0,100,0,1
100065,-90.9090909090909,4,1,0,100,0,1
103376,-95.2380952380952,4,1,0,100,0,1
106686,-90.9090909090909,4,1,0,100,0,1
109996,-95.2380952380952,4,1,0,100,0,1
112893,-105.263157894737,4,1,0,100,0,1
112996,-105.263157894737,4,1,0,100,0,0
113400,-100,4,1,0,100,0,0
113607,-99.6439444759792,4,1,0,100,0,0
113710,-99.4677197802198,4,1,0,100,0,0
113917,-99.1154379181138,4,1,0,100,0,0
114021,-98.9393861761541,4,1,0,100,0,0
114228,-98.5908301848259,4,1,0,100,0,0
114331,-98.4183075380982,4,1,0,100,0,0
114435,-98.244721444925,4,1,0,100,0,0
114641,-97.9026888171571,4,1,0,100,0,0
114848,-97.561386372057,4,1,0,100,0,0
114952,-97.3908073030497,4,1,0,100,0,0
115055,-97.2224553159352,4,1,0,100,0,0
115262,-96.8858710195344,4,1,0,100,0,0
115366,-96.7176439161213,4,1,0,100,0,0
115572,-96.3861435559549,4,1,0,100,0,0
115676,-96.2196458824702,4,1,0,100,0,0
115883,-95.8899574594872,4,1,0,100,0,0
115986,-95.7267499504263,4,1,0,100,0,0
116090,-95.5625206202573,4,1,0,100,0,0
116297,-95.237312377727,4,1,0,100,0,0
116503,-94.9158651876854,4,1,0,100,0,0
116710,-94.5950359242325,4,1,0,100,0,0
116917,-94.276368252315,4,1,0,100,0,0
117021,-94.1170736462446,4,1,0,100,0,0
117228,-93.8016127465268,4,1,0,100,0,0
117331,-93.645430885372,4,1,0,100,0,0
117538,-93.3331185151769,4,1,0,100,0,0
117641,-93.1784915796754,4,1,0,100,0,0
117745,-93.0228823765556,4,1,0,100,0,0
117952,-92.7147018341282,4,1,0,100,0,0
118159,-92.4085565250682,4,1,0,100,0,0
118262,-92.2569754108804,4,1,0,100,0,0
118366,-92.1044263546171,4,1,0,100,0,0
118572,-91.8037463154892,4,1,0,100,0,0
118676,-91.6526912002025,4,1,0,100,0,0
118883,-91.3535079557819,4,1,0,100,0,0
118986,-91.2053655771774,4,1,0,100,0,0
119090,-91.0562716127004,4,1,0,100,0,0
119193,-90.9090909090909,4,1,0,100,0,0
120021,-90.9090909090909,4,1,0,100,0,0
120228,-91.2001732432056,4,1,0,100,0,0
120331,-91.3457069376879,4,1,0,100,0,0
120538,-91.6395965122243,4,1,0,100,0,0
120641,-91.7865371442805,4,1,0,100,0,0
120848,-92.0832747661216,4,1,0,100,0,0
120952,-92.2330856472429,4,1,0,100,0,0
121055,-92.3819372630127,4,1,0,100,0,0
121262,-92.6825434252928,4,1,0,100,0,0
121469,-92.9851122886702,4,1,0,100,0,0
121676,-93.2896631382415,4,1,0,100,0,0
121779,-93.4419474468287,4,1,0,100,0,0
121883,-93.5962155125885,4,1,0,100,0,0
121986,-93.7495031085529,4,1,0,100,0,0
122193,-94.0590900389254,4,1,0,100,0,0
122297,-94.2154042825184,4,1,0,100,0,0
122503,-94.5265655561612,4,1,0,100,0,0
122607,-94.6844387345431,4,1,0,100,0,0
122710,-94.8413145237827,4,1,0,100,0,0
122917,-95.1581665590704,4,1,0,100,0,0
123331,-95.7982647125727,4,1,0,100,0,0
123538,-96.1215539868599,4,1,0,100,0,0
123641,-96.2832320857012,4,1,0,100,0,0
123848,-96.6098084517197,4,1,0,100,0,0
123952,-96.7747230201067,4,1,0,100,0,0
124159,-97.1046477156692,4,1,0,100,0,0
124262,-97.2696527262229,4,1,0,100,0,0
124366,-97.4368296673332,4,1,0,100,0,0
124572,-97.7696708398972,4,1,0,100,0,0
124779,-98.106426170588,4,1,0,100,0,0
124986,-98.4455093419712,4,1,0,100,0,0
125193,-98.7869445747604,4,1,0,100,0,0
125297,-98.9593823430682,4,1,0,100,0,0
125503,-99.302725098528,4,1,0,100,0,0
125607,-99.4769697992239,4,1,0,100,0,0
125710,-99.6501428160968,4,1,0,100,0,0
125814,-99.8256099419264,4,1,0,100,0,0
125917,-100,4,1,0,100,0,0
126641,-100,4,1,0,100,0,0
126848,-99.6439444759792,4,1,0,100,0,0
126951,-99.4677197802198,4,1,0,100,0,0
127158,-99.1154379181138,4,1,0,100,0,0
127262,-98.9393861761541,4,1,0,100,0,0
127469,-98.5908301848259,4,1,0,100,0,0
127572,-98.4183075380982,4,1,0,100,0,0
127676,-98.244721444925,4,1,0,100,0,0
127882,-97.9026888171571,4,1,0,100,0,0
128089,-97.561386372057,4,1,0,100,0,0
128193,-97.3908073030497,4,1,0,100,0,0
128296,-97.2224553159352,4,1,0,100,0,0
128503,-96.8858710195344,4,1,0,100,0,0
128607,-96.7176439161213,4,1,0,100,0,0
128813,-96.3861435559549,4,1,0,100,0,0
128917,-96.2196458824702,4,1,0,100,0,0
129124,-95.8899574594872,4,1,0,100,0,0
129227,-95.7267499504263,4,1,0,100,0,0
129331,-95.5625206202573,4,1,0,100,0,0
129538,-95.237312377727,4,1,0,100,0,0
129744,-94.9158651876854,4,1,0,100,0,0
129951,-94.5950359242325,4,1,0,100,0,0
130158,-94.276368252315,4,1,0,100,0,0
130262,-94.1170736462446,4,1,0,100,0,0
130469,-93.8016127465268,4,1,0,100,0,0
130572,-93.645430885372,4,1,0,100,0,0
130779,-93.3331185151769,4,1,0,100,0,0
130882,-93.1784915796754,4,1,0,100,0,0
130986,-93.0228823765556,4,1,0,100,0,0
131193,-92.7147018341282,4,1,0,100,0,0
131400,-92.4085565250682,4,1,0,100,0,0
131503,-92.2569754108804,4,1,0,100,0,0
131607,-92.1044263546171,4,1,0,100,0,0
131813,-91.8037463154892,4,1,0,100,0,0
131917,-91.6526912002025,4,1,0,100,0,0
132124,-91.3535079557819,4,1,0,100,0,0
132227,-91.2053655771774,4,1,0,100,0,0
132331,-91.0562716127004,4,1,0,100,0,0
132434,-90.9090909090909,4,1,0,100,0,0
133262,-90.9090909090909,4,1,0,100,0,0
133469,-91.2053655771774,4,1,0,100,0,0
133572,-91.3535079557819,4,1,0,100,0,0
133779,-91.6526912002025,4,1,0,100,0,0
133882,-91.8022914916882,4,1,0,100,0,0
134089,-92.1044263546171,4,1,0,100,0,0
134193,-92.2569754108804,4,1,0,100,0,0
134296,-92.4085565250682,4,1,0,100,0,0
134503,-92.7147018341282,4,1,0,100,0,0
134710,-93.0228823765556,4,1,0,100,0,0
134917,-93.3331185151769,4,1,0,100,0,0
135020,-93.4882595013314,4,1,0,100,0,0
135124,-93.645430885372,4,1,0,100,0,0
135227,-93.8016127465268,4,1,0,100,0,0
135434,-94.1170736462446,4,1,0,100,0,0
135538,-94.276368252315,4,1,0,100,0,0
135744,-94.5934912885158,4,1,0,100,0,0
135848,-94.754404043378,4,1,0,100,0,0
135951,-94.9143100566897,4,1,0,100,0,0
136158,-95.237312377727,4,1,0,100,0,0
136572,-95.8899574594872,4,1,0,100,0,0
136779,-96.2196458824702,4,1,0,100,0,0
136882,-96.3845398732176,4,1,0,100,0,0
137089,-96.7176439161213,4,1,0,100,0,0
137193,-96.8858710195344,4,1,0,100,0,0
137400,-97.2224553159352,4,1,0,100,0,0
137503,-97.3908073030497,4,1,0,100,0,0
137607,-97.561386372057,4,1,0,100,0,0
137813,-97.901034272967,4,1,0,100,0,0
138020,-98.244721444925,4,1,0,100,0,0
138227,-98.5908301848259,4,1,0,100,0,0
138435,-98.9410760034159,4,1,0,100,0,0
138538,-99.1154379181138,4,1,0,100,0,0
138848,-99.6439444759792,4,1,0,100,0,0
138951,-99.8207947065513,4,1,0,100,0,0
139055,-100,4,1,0,100,0,0
139272,-111.111111111111,4,1,0,70,0,0
150858,-105.263157894737,4,1,0,80,0,0
152927,-100,4,1,0,90,0,0
166169,-111.111111111111,4,1,0,70,0,0
178582,-111.111111111111,4,1,0,80,0,0
179100,-100,4,1,0,80,0,0
185617,-100,4,1,0,85,0,0
189031,-100,4,1,0,90,0,0
189124,-100,4,1,0,90,0,0
189228,-99.5828988529718,4,1,0,90,0,0
189331,-99.173223629029,4,1,0,90,0,0
189434,-98.7669053301512,4,1,0,90,0,0
189538,-98.3600063381398,4,1,0,90,0,0
189745,-97.5600172881223,4,1,0,90,0,0
189952,-96.7729363161587,4,1,0,90,0,0
190055,-96.3860098598657,4,1,0,90,0,0
190159,-95.9984535086024,4,1,0,90,0,0
190262,-95.6176833025262,4,1,0,90,0,0
190366,-95.2362687941086,4,1,0,90,0,0
190572,-94.489687190806,4,1,0,90,0,0
190779,-93.7511799131584,4,1,0,90,0,0
190883,-93.3844823047125,4,1,0,90,0,0
190986,-93.0241270792747,4,1,0,90,0,0
191193,-92.3082642477415,4,1,0,90,0,0
191297,-91.9527459911861,4,1,0,90,0,0
191400,-91.6033350549694,4,1,0,90,0,0
191607,-90.9090909090909,4,1,0,90,0,0
192021,-93.4579439252336,4,1,0,90,0,0
192124,-95.0042453587902,4,1,0,90,0,0
192228,-96.6183574879227,4,1,0,90,0,0
192435,-100,4,1,0,90,0,0
192848,-93.4579439252336,4,1,0,90,0,0
192952,-93.8812096051328,4,1,0,90,0,0
193262,-95.1659241983365,4,1,0,90,0,0
193366,-95.6048382626306,4,1,0,90,0,0
193676,-96.9374946135428,4,1,0,90,0,0
193779,-97.3885415058896,4,1,0,90,0,0
194090,-98.776273839751,4,1,0,90,0,0
194193,-99.2446359175813,4,1,0,90,0,0
194503,-100.681458188201,4,1,0,90,0,0
194607,-101.172854232091,4,1,0,90,0,0
194917,-102.66647088471,4,1,0,90,0,0
195021,-103.177483618032,4,1,0,90,0,0
195331,-104.731329930004,4,1,0,90,0,0
195435,-105.263157894737,4,1,0,90,0,0
195651,-90.9090909090909,4,1,0,90,0,0
195755,-90.9090909090909,4,1,0,90,0,1
195962,-95.2380952380952,4,1,0,100,0,1
199376,-90.9090909090909,4,1,0,100,0,1
202686,-95.2380952380952,4,1,0,100,0,1
205996,-90.9090909090909,4,1,0,100,0,1
209307,-95.2380952380952,4,1,0,100,0,1
212617,-90.9090909090909,4,1,0,100,0,1
215927,-95.2380952380952,4,1,0,100,0,1
218824,-105.263157894737,4,1,0,100,0,1
218927,-105.263157894737,4,1,0,100,0,0
219331,-100,4,1,0,100,0,0
219538,-99.6439444759792,4,1,0,100,0,0
219641,-99.4677197802198,4,1,0,100,0,0
219848,-99.1154379181138,4,1,0,100,0,0
219952,-98.9393861761541,4,1,0,100,0,0
220159,-98.5908301848259,4,1,0,100,0,0
220262,-98.4183075380982,4,1,0,100,0,0
220366,-98.244721444925,4,1,0,100,0,0
220572,-97.9026888171571,4,1,0,100,0,0
220676,-97.7309152256432,4,1,0,100,0,0
220779,-97.561386372057,4,1,0,100,0,0
220986,-97.2224553159352,4,1,0,100,0,0
221193,-96.8858710195344,4,1,0,100,0,0
221297,-96.7176439161213,4,1,0,100,0,0
221503,-96.3861435559549,4,1,0,100,0,0
221607,-96.2196458824702,4,1,0,100,0,0
221814,-95.8899574594872,4,1,0,100,0,0
221917,-95.7267499504263,4,1,0,100,0,0
222021,-95.5625206202573,4,1,0,100,0,0
222228,-95.237312377727,4,1,0,100,0,0
222435,-94.9143100566897,4,1,0,100,0,0
222641,-94.5950359242325,4,1,0,100,0,0
222848,-94.276368252315,4,1,0,100,0,0
222952,-94.1170736462446,4,1,0,100,0,0
223159,-93.8016127465268,4,1,0,100,0,0
223262,-93.645430885372,4,1,0,100,0,0
223469,-93.3331185151769,4,1,0,100,0,0
223572,-93.1784915796754,4,1,0,100,0,0
223676,-93.0228823765556,4,1,0,100,0,0
223883,-92.7147018341282,4,1,0,100,0,0
224090,-92.4085565250682,4,1,0,100,0,0
224193,-92.2569754108804,4,1,0,100,0,0
224297,-92.1044263546171,4,1,0,100,0,0
224503,-91.8037463154892,4,1,0,100,0,0
224607,-91.6526912002025,4,1,0,100,0,0
224814,-91.3535079557819,4,1,0,100,0,0
224917,-91.2053655771774,4,1,0,100,0,0
225021,-91.0562716127004,4,1,0,100,0,0
225124,-90.9090909090909,4,1,0,100,0,0
225952,-90.9090909090909,4,1,0,100,0,0
226159,-91.2001732432056,4,1,0,100,0,0
226262,-91.3457069376879,4,1,0,100,0,0
226469,-91.6395965122243,4,1,0,100,0,0
226572,-91.7865371442805,4,1,0,100,0,0
226779,-92.0832747661216,4,1,0,100,0,0
226883,-92.2330856472429,4,1,0,100,0,0
226986,-92.3819372630127,4,1,0,100,0,0
227193,-92.6825434252928,4,1,0,100,0,0
227400,-92.9851122886702,4,1,0,100,0,0
227607,-93.2896631382415,4,1,0,100,0,0
227710,-93.4419474468287,4,1,0,100,0,0
227814,-93.5962155125885,4,1,0,100,0,0
227917,-93.7495031085529,4,1,0,100,0,0
228124,-94.0590900389254,4,1,0,100,0,0
228228,-94.2154042825184,4,1,0,100,0,0
228435,-94.5280810607154,4,1,0,100,0,0
228538,-94.6844387345431,4,1,0,100,0,0
228641,-94.8413145237827,4,1,0,100,0,0
228848,-95.1581665590704,4,1,0,100,0,0
229262,-95.7982647125727,4,1,0,100,0,0
229469,-96.1215539868599,4,1,0,100,0,0
229572,-96.2832320857012,4,1,0,100,0,0
229779,-96.6098084517197,4,1,0,100,0,0
229883,-96.7747230201067,4,1,0,100,0,0
230090,-97.1046477156692,4,1,0,100,0,0
230193,-97.2696527262229,4,1,0,100,0,0
230297,-97.4368296673332,4,1,0,100,0,0
230503,-97.7696708398972,4,1,0,100,0,0
230710,-98.106426170588,4,1,0,100,0,0
230917,-98.4455093419712,4,1,0,100,0,0
231124,-98.7869445747604,4,1,0,100,0,0
231228,-98.9593823430682,4,1,0,100,0,0
231435,-99.3043976218146,4,1,0,100,0,0
231538,-99.4769697992239,4,1,0,100,0,0
231641,-99.6501428160968,4,1,0,100,0,0
231745,-99.8256099419264,4,1,0,100,0,0
231848,-100,4,1,0,100,0,0
232572,-100,4,1,0,100,0,0
232779,-99.6439444759792,4,1,0,100,0,0
232882,-99.4677197802198,4,1,0,100,0,0
233089,-99.1154379181138,4,1,0,100,0,0
233193,-98.9393861761541,4,1,0,100,0,0
233400,-98.5908301848259,4,1,0,100,0,0
233503,-98.4183075380982,4,1,0,100,0,0
233607,-98.244721444925,4,1,0,100,0,0
233813,-97.9026888171571,4,1,0,100,0,0
233917,-97.7309152256432,4,1,0,100,0,0
234020,-97.561386372057,4,1,0,100,0,0
234227,-97.2224553159352,4,1,0,100,0,0
234434,-96.8858710195344,4,1,0,100,0,0
234538,-96.7176439161213,4,1,0,100,0,0
234744,-96.3861435559549,4,1,0,100,0,0
234848,-96.2196458824702,4,1,0,100,0,0
235055,-95.8899574594872,4,1,0,100,0,0
235158,-95.7267499504263,4,1,0,100,0,0
235262,-95.5625206202573,4,1,0,100,0,0
235469,-95.237312377727,4,1,0,100,0,0
235676,-94.9143100566897,4,1,0,100,0,0
235882,-94.5950359242325,4,1,0,100,0,0
236089,-94.276368252315,4,1,0,100,0,0
236193,-94.1170736462446,4,1,0,100,0,0
236400,-93.8016127465268,4,1,0,100,0,0
236503,-93.645430885372,4,1,0,100,0,0
236710,-93.3331185151769,4,1,0,100,0,0
236813,-93.1784915796754,4,1,0,100,0,0
236917,-93.0228823765556,4,1,0,100,0,0
237124,-92.7147018341282,4,1,0,100,0,0
237331,-92.4085565250682,4,1,0,100,0,0
237435,-92.2555061869954,4,1,0,100,0,0
237538,-92.1044263546171,4,1,0,100,0,0
237744,-91.8037463154892,4,1,0,100,0,0
237848,-91.6526912002025,4,1,0,100,0,0
238055,-91.3535079557819,4,1,0,100,0,0
238158,-91.2053655771774,4,1,0,100,0,0
238262,-91.0562716127004,4,1,0,100,0,0
238365,-90.9090909090909,4,1,0,100,0,0
239193,-90.9090909090909,4,1,0,100,0,0
239400,-91.2053655771774,4,1,0,100,0,0
239503,-91.3535079557819,4,1,0,100,0,0
239710,-91.6526912002025,4,1,0,100,0,0
239813,-91.8022914916882,4,1,0,100,0,0
240020,-92.1044263546171,4,1,0,100,0,0
240124,-92.2569754108804,4,1,0,100,0,0
240227,-92.4085565250682,4,1,0,100,0,0
240434,-92.7147018341282,4,1,0,100,0,0
240641,-93.0228823765556,4,1,0,100,0,0
240848,-93.3331185151769,4,1,0,100,0,0
240952,-93.4897682525337,4,1,0,100,0,0
241055,-93.645430885372,4,1,0,100,0,0
241158,-93.8016127465268,4,1,0,100,0,0
241365,-94.1170736462446,4,1,0,100,0,0
241469,-94.276368252315,4,1,0,100,0,0
241676,-94.5950359242325,4,1,0,100,0,0
241779,-94.754404043378,4,1,0,100,0,0
241883,-94.9158651876853,4,1,0,100,0,0
242089,-95.237312377727,4,1,0,100,0,0
242503,-95.8899574594872,4,1,0,100,0,0
242710,-96.2196458824702,4,1,0,100,0,0
242813,-96.3845398732176,4,1,0,100,0,0
243020,-96.7176439161213,4,1,0,100,0,0
243124,-96.8858710195344,4,1,0,100,0,0
243331,-97.2224553159352,4,1,0,100,0,0
243434,-97.3908073030497,4,1,0,100,0,0
243538,-97.561386372057,4,1,0,100,0,0
243744,-97.901034272967,4,1,0,100,0,0
243951,-98.244721444925,4,1,0,100,0,0
244158,-98.5908301848259,4,1,0,100,0,0
244365,-98.9393861761541,4,1,0,100,0,0
244469,-99.1154379181138,4,1,0,100,0,0
244779,-99.6439444759792,4,1,0,100,0,0
244883,-99.8225147760757,4,1,0,100,0,0
244986,-100,4,1,0,100,0,0
245203,-100,4,1,0,85,0,0
258445,-100,4,1,0,80,0,0

[HitObjects]
256,128,445,5,4,0:0:0:0:
256,192,858,1,8,0:0:0:0:
256,192,1065,1,0,0:0:0:0:
256,192,1272,1,0,0:0:0:0:
256,192,1686,1,8,0:0:0:0:
256,192,2100,1,0,0:0:0:0:
256,192,2513,1,8,0:0:0:0:
256,192,2720,1,8,0:0:0:0:
256,192,2927,1,0,0:0:0:0:
256,192,3134,1,8,0:0:0:0:
256,192,3341,1,8,0:0:0:0:
256,192,3548,1,8,0:0:0:0:
256,192,3755,1,0,0:0:0:0:
256,192,4169,1,8,0:0:0:0:
256,192,4376,1,0,0:0:0:0:
256,192,4582,1,0,0:0:0:0:
256,192,4996,1,8,0:0:0:0:
256,192,5410,1,0,0:0:0:0:
256,192,5824,1,8,0:0:0:0:
256,192,6031,1,8,0:0:0:0:
256,192,6238,1,0,0:0:0:0:
256,192,6445,1,8,0:0:0:0:
256,192,6651,1,8,0:0:0:0:
256,192,6858,1,8,0:0:0:0:
256,192,7065,1,0,0:0:0:0:
256,192,7479,1,8,0:0:0:0:
256,192,7686,1,0,0:0:0:0:
256,192,7893,1,0,0:0:0:0:
256,192,8307,1,8,0:0:0:0:
256,192,8720,1,0,0:0:0:0:
256,192,9134,1,8,0:0:0:0:
256,192,9341,1,8,0:0:0:0:
256,192,9548,1,0,0:0:0:0:
256,192,9755,1,8,0:0:0:0:
256,192,9962,1,8,0:0:0:0:
256,192,10169,1,8,0:0:0:0:
256,192,10376,1,0,0:0:0:0:
256,192,10789,1,8,0:0:0:0:
256,192,10996,1,0,0:0:0:0:
256,192,11203,1,0,0:0:0:0:
256,192,11617,1,8,0:0:0:0:
256,192,12031,1,0,0:0:0:0:
256,192,12445,1,8,0:0:0:0:
256,192,12651,1,8,0:0:0:0:
256,192,12858,1,0,0:0:0:0:
256,192,13065,1,8,0:0:0:0:
256,192,13272,1,0,0:0:0:0:
256,192,13376,1,0,0:0:0:0:
256,192,13479,1,8,0:0:0:0:
256,128,13686,1,4,0:0:0:0:
256,192,14100,1,8,0:0:0:0:
256,192,14307,1,8,0:0:0:0:
256,192,14513,1,0,0:0:0:0:
256,192,14720,1,0,0:0:0:0:
256,192,14927,1,8,0:0:0:0:
256,192,15134,1,8,0:0:0:0:
256,192,15341,1,0,0:0:0:0:
256,192,15755,1,8,0:0:0:0:
256,192,15962,1,8,0:0:0:0:
256,192,16169,1,0,0:0:0:0:
256,192,16376,1,8,0:0:0:0:
256,192,16582,1,8,0:0:0:0:
256,192,16789,1,8,0:0:0:0:
256,192,16996,1,0,0:0:0:0:
256,192,17410,1,8,0:0:0:0:
256,192,17617,1,0,0:0:0:0:
256,192,17824,1,0,0:0:0:0:
256,192,18031,1,0,0:0:0:0:
256,192,18238,1,8,0:0:0:0:
256,192,18445,1,8,0:0:0:0:
256,192,18651,1,0,0:0:0:0:
256,192,19065,1,8,0:0:0:0:
256,192,19272,1,0,0:0:0:0:
256,192,19479,1,0,0:0:0:0:
256,192,19686,1,8,0:0:0:0:
256,192,19893,1,8,0:0:0:0:
256,192,20100,1,8,0:0:0:0:
256,192,20307,1,0,0:0:0:0:
256,192,20720,1,8,0:0:0:0:
256,192,20927,1,8,0:0:0:0:
256,192,21134,1,0,0:0:0:0:
256,192,21341,1,0,0:0:0:0:
256,192,21548,1,8,0:0:0:0:
256,192,21755,1,8,0:0:0:0:
256,192,21962,1,0,0:0:0:0:
256,192,22376,1,8,0:0:0:0:
256,192,22582,1,8,0:0:0:0:
256,192,22789,1,0,0:0:0:0:
256,192,22996,1,8,0:0:0:0:
256,192,23203,1,8,0:0:0:0:
256,192,23410,1,8,0:0:0:0:
256,192,23617,1,0,0:0:0:0:
256,192,24031,1,8,0:0:0:0:
256,192,24238,1,0,0:0:0:0:
256,192,24445,1,0,0:0:0:0:
256,192,24651,1,0,0:0:0:0:
256,192,24858,1,8,0:0:0:0:
256,192,25065,1,8,0:0:0:0:
256,192,25272,1,0,0:0:0:0:
256,192,25686,1,8,0:0:0:0:
256,192,25893,1,0,0:0:0:0:
256,192,26100,1,0,0:0:0:0:
256,192,26307,1,8,0:0:0:0:
256,192,26513,1,8,0:0:0:0:
256,192,26720,1,8,0:0:0:0:
256,128,26927,1,4,0:0:0:0:
256,192,27341,1,8,0:0:0:0:
256,192,27548,1,0,0:0:0:0:
256,192,27651,1,0,0:0:0:0:
256,192,27755,1,8,0:0:0:0:
256,192,27858,1,8,0:0:0:0:
256,192,27962,1,0,0:0:0:0:
256,192,28169,1,8,0:0:0:0:
256,192,28582,1,0,0:0:0:0:
256,192,28789,1,0,0:0:0:0:
256,192,28996,1,8,0:0:0:0:
256,192,29203,1,8,0:0:0:0:
256,192,29307,1,8,0:0:0:0:
256,192,29410,1,0,0:0:0:0:
256,192,29617,1,0,0:0:0:0:
256,192,29720,1,0,0:0:0:0:
256,192,29824,1,8,0:0:0:0:
256,192,30238,1,0,0:0:0:0:
256,192,30445,1,0,0:0:0:0:
256,192,30651,1,8,0:0:0:0:
256,192,30858,1,0,0:0:0:0:
256,192,30962,1,8,0:0:0:0:
256,192,31065,1,0,0:0:0:0:
256,192,31169,1,8,0:0:0:0:
256,192,31272,1,0,0:0:0:0:
256,192,31479,1,8,0:0:0:0:
256,192,31893,1,0,0:0:0:0:
256,192,32100,1,0,0:0:0:0:
256,192,32307,1,8,0:0:0:0:
256,192,32513,1,0,0:0:0:0:
256,192,32617,1,0,0:0:0:0:
256,192,32720,1,8,0:0:0:0:
256,192,32927,1,8,0:0:0:0:
256,192,33031,1,0,0:0:0:0:
256,192,33134,1,8,0:0:0:0:
256,192,33548,1,0,0:0:0:0:
256,192,33755,1,0,0:0:0:0:
256,192,33962,1,8,0:0:0:0:
256,192,34169,1,0,0:0:0:0:
256,192,34272,1,0,0:0:0:0:
256,192,34376,1,8,0:0:0:0:
256,192,34582,1,0,0:0:0:0:
256,192,34789,1,8,0:0:0:0:
256,192,34996,1,8,0:0:0:0:
256,192,35203,1,0,0:0:0:0:
256,192,35410,1,0,0:0:0:0:
256,192,35617,1,8,0:0:0:0:
256,192,35824,1,0,0:0:0:0:
256,192,35927,1,0,0:0:0:0:
256,192,36031,1,8,0:0:0:0:
256,192,36238,1,8,0:0:0:0:
256,192,36341,1,0,0:0:0:0:
256,192,36445,1,8,0:0:0:0:
256,192,36858,1,0,0:0:0:0:
256,192,36962,1,0,0:0:0:0:
256,192,37065,1,0,0:0:0:0:
256,192,37272,1,8,0:0:0:0:
256,192,37376,1,8,0:0:0:0:
256,192,37479,1,8,0:0:0:0:
256,192,37686,1,0,0:0:0:0:
256,192,37789,1,0,0:0:0:0:
256,192,37893,1,0,0:0:0:0:
256,192,37996,1,0,0:0:0:0:
256,192,38100,1,8,0:0:0:0:
256,192,38307,1,0,0:0:0:0:
256,192,38513,1,8,0:0:0:0:
256,192,38617,1,8,0:0:0:0:
256,192,38720,1,0,0:0:0:0:
256,192,38927,1,8,0:0:0:0:
256,192,39031,1,0,0:0:0:0:
256,192,39134,1,0,0:0:0:0:
256,192,39341,1,8,0:0:0:0:
256,192,39445,1,8,0:0:0:0:
256,192,39548,1,0,0:0:0:0:
256,192,39651,1,0,0:0:0:0:
256,192,39755,1,8,0:0:0:0:
256,192,40169,1,0,0:0:0:0:
256,128,40582,1,12,0:0:0:0:
256,192,40789,1,0,0:0:0:0:
256,192,40893,1,0,0:0:0:0:
256,192,40996,1,8,0:0:0:0:
256,192,41100,1,8,0:0:0:0:
256,192,41203,1,0,0:0:0:0:
256,192,41410,1,8,0:0:0:0:
256,192,41617,1,8,0:0:0:0:
256,192,41824,1,0,0:0:0:0:
256,192,42031,1,0,0:0:0:0:
256,192,42238,1,8,0:0:0:0:
256,192,42445,1,0,0:0:0:0:
256,192,42548,1,0,0:0:0:0:
256,192,42651,1,8,0:0:0:0:
256,192,42858,1,8,0:0:0:0:
256,192,42962,1,8,0:0:0:0:
256,192,43065,1,0,0:0:0:0:
256,192,43272,1,8,0:0:0:0:
256,192,43479,1,0,0:0:0:0:
256,192,43893,1,8,0:0:0:0:
256,192,44100,1,0,0:0:0:0:
256,192,44203,1,0,0:0:0:0:
256,192,44307,1,8,0:0:0:0:
256,192,44410,1,0,0:0:0:0:
256,192,44513,1,8,0:0:0:0:
256,192,44720,1,0,0:0:0:0:
256,192,44927,1,8,0:0:0:0:
256,192,45031,1,8,0:0:0:0:
256,192,45134,1,0,0:0:0:0:
256,192,45341,1,0,0:0:0:0:
256,192,45548,1,8,0:0:0:0:
256,192,45755,1,0,0:0:0:0:
256,192,45858,1,0,0:0:0:0:
256,192,45962,1,8,0:0:0:0:
256,192,46169,1,8,0:0:0:0:
256,192,46272,1,0,0:0:0:0:
256,192,46376,1,8,0:0:0:0:
256,192,46582,1,8,0:0:0:0:
256,192,46789,1,0,0:0:0:0:
256,192,47203,1,8,0:0:0:0:
256,192,47410,1,8,0:0:0:0:
256,192,47513,1,8,0:0:0:0:
256,192,47617,1,0,0:0:0:0:
256,192,47720,1,8,0:0:0:0:
256,192,47824,1,0,0:0:0:0:
256,192,48031,1,8,0:0:0:0:
256,192,48238,1,0,0:0:0:0:
256,192,48445,1,0,0:0:0:0:
256,192,48651,1,0,0:0:0:0:
256,192,48858,1,8,0:0:0:0:
256,192,49065,1,0,0:0:0:0:
256,192,49169,1,0,0:0:0:0:
256,192,49272,1,8,0:0:0:0:
256,192,49479,1,0,0:0:0:0:
256,192,49582,1,8,0:0:0:0:
256,192,49686,1,0,0:0:0:0:
256,192,49893,1,8,0:0:0:0:
256,192,50100,1,0,0:0:0:0:
256,192,50513,1,8,0:0:0:0:
256,192,50720,1,0,0:0:0:0:
256,192,50824,1,0,0:0:0:0:
256,192,50927,1,0,0:0:0:0:
256,192,51134,1,0,0:0:0:0:
256,192,51341,1,8,0:0:0:0:
256,192,51548,1,8,0:0:0:0:
256,192,51651,1,0,0:0:0:0:
256,192,51755,1,0,0:0:0:0:
256,192,51962,1,0,0:0:0:0:
256,192,52169,1,8,0:0:0:0:
256,192,52376,1,8,0:0:0:0:
256,192,52582,1,0,0:0:0:0:
256,192,52686,1,0,0:0:0:0:
256,192,52789,1,0,0:0:0:0:
256,192,52996,1,8,0:0:0:0:
256,192,53100,1,0,0:0:0:0:
256,192,53203,1,8,0:0:0:0:
256,128,53410,1,4,0:0:0:0:
256,192,53617,1,0,0:0:0:0:
256,192,53720,1,8,0:0:0:0:
256,192,54031,1,8,0:0:0:0:
256,192,54238,1,0,0:0:0:0:
256,192,54341,1,0,0:0:0:0:
256,192,54445,1,0,0:0:0:0:
256,192,54651,1,8,0:0:0:0:
256,192,55065,1,0,0:0:0:0:
256,192,55272,1,0,0:0:0:0:
256,192,55376,1,8,0:0:0:0:
256,192,55686,1,8,0:0:0:0:
256,192,55893,1,0,0:0:0:0:
256,192,55996,1,8,0:0:0:0:
256,192,56100,1,0,0:0:0:0:
256,192,56203,1,0,0:0:0:0:
256,192,56307,1,8,0:0:0:0:
256,192,56513,1,8,0:0:0:0:
256,192,56617,1,8,0:0:0:0:
256,192,56720,1,0,0:0:0:0:
256,192,56927,1,0,0:0:0:0:
256,192,57031,1,8,0:0:0:0:
256,192,57341,1,8,0:0:0:0:
256,192,57548,1,0,0:0:0:0:
256,192,57651,1,0,0:0:0:0:
256,192,57755,1,0,0:0:0:0:
256,192,57962,1,8,0:0:0:0:
256,192,58376,1,0,0:0:0:0:
256,192,58582,1,0,0:0:0:0:
256,192,58686,1,0,0:0:0:0:
256,192,58789,1,8,0:0:0:0:
256,192,58996,1,8,0:0:0:0:
256,192,59203,1,0,0:0:0:0:
256,192,59307,1,0,0:0:0:0:
256,192,59410,1,0,0:0:0:0:
256,192,59513,1,0,0:0:0:0:
256,192,59617,1,8,0:0:0:0:
256,128,60031,1,4,0:0:0:0:
256,192,61686,1,8,0:0:0:0:
256,192,63341,1,0,0:0:0:0:
256,192,64996,1,8,0:0:0:0:
256,192,66651,1,0,0:0:0:0:
256,192,68307,1,8,0:0:0:0:
256,192,69962,1,0,0:0:0:0:
256,192,71617,1,8,0:0:0:0:
256,192,72858,1,8,0:0:0:0:
256,192,72962,1,8,0:0:0:0:
256,192,73065,1,8,0:0:0:0:
256,128,73272,1,4,0:0:0:0:
256,192,73686,1,8,0:0:0:0:
256,192,74100,1,8,0:0:0:0:
256,192,74513,1,8,0:0:0:0:
256,128,74927,1,4,0:0:0:0:
256,192,75341,1,8,0:0:0:0:
256,192,75755,1,8,0:0:0:0:
256,192,76169,1,8,0:0:0:0:
256,128,76582,1,4,0:0:0:0:
256,192,76996,1,8,0:0:0:0:
256,192,77410,1,8,0:0:0:0:
256,192,77824,1,8,0:0:0:0:
256,128,78238,1,4,0:0:0:0:
256,192,78651,1,8,0:0:0:0:
256,192,79065,1,8,0:0:0:0:
256,192,79479,1,8,0:0:0:0:
256,192,79893,1,0,0:0:0:0:
256,192,80100,1,0,0:0:0:0:
256,192,80307,1,8,0:0:0:0:
256,192,80513,1,0,0:0:0:0:
256,192,80720,1,8,0:0:0:0:
256,192,80927,1,8,0:0:0:0:
256,192,81134,1,0,0:0:0:0:
256,192,81341,1,0,0:0:0:0:
256,192,81548,1,8,0:0:0:0:
256,192,81755,1,0,0:0:0:0:
256,192,81962,1,8,0:0:0:0:
256,192,82169,1,8,0:0:0:0:
256,192,82376,1,0,0:0:0:0:
256,192,82582,1,0,0:0:0:0:
256,192,82789,1,8,0:0:0:0:
256,192,82996,1,8,0:0:0:0:
256,192,83203,1,0,0:0:0:0:
256,192,83307,1,0,0:0:0:0:
256,192,83410,1,0,0:0:0:0:
256,192,83513,1,0,0:0:0:0:
256,192,83617,1,8,0:0:0:0:
256,192,83824,1,0,0:0:0:0:
256,192,84031,1,8,0:0:0:0:
256,192,84134,1,8,0:0:0:0:
256,192,84238,1,0,0:0:0:0:
256,192,84341,1,0,0:0:0:0:
256,192,84445,1,8,0:0:0:0:
256,192,84651,1,8,0:0:0:0:
256,192,84858,1,0,0:0:0:0:
256,192,84962,1,0,0:0:0:0:
256,192,85065,1,8,0:0:0:0:
256,192,85272,1,8,0:0:0:0:
256,192,85376,1,8,0:0:0:0:
256,192,85479,1,0,0:0:0:0:
256,192,85686,1,8,0:0:0:0:
256,192,86100,1,8,0:0:0:0:
256,192,86203,1,8,0:0:0:0:
256,192,86307,1,8,0:0:0:0:
256,192,86513,1,0,0:0:0:0:
256,192,86927,1,8,0:0:0:0:
256,192,87031,1,8,0:0:0:0:
256,192,87134,1,0,0:0:0:0:
256,192,87341,1,8,0:0:0:0:
256,192,87445,1,0,0:0:0:0:
256,192,87548,1,0,0:0:0:0:
256,192,87755,1,8,0:0:0:0:
256,192,87858,1,8,0:0:0:0:
256,192,87962,1,0,0:0:0:0:
256,192,88169,1,0,0:0:0:0:
256,192,88272,1,0,0:0:0:0:
256,192,88376,1,0,0:0:0:0:
256,192,88582,1,8,0:0:0:0:
256,192,88686,1,8,0:0:0:0:
256,192,88789,1,0,0:0:0:0:
256,192,88996,1,8,0:0:0:0:
256,192,89100,1,8,0:0:0:0:
256,192,89203,1,8,0:0:0:0:
256,192,89410,1,0,0:0:0:0:
256,192,89513,1,0,0:0:0:0:
256,192,89617,1,8,0:0:0:0:
256,192,89824,1,0,0:0:0:0:
256,192,90238,1,0,0:0:0:0:
256,192,90341,1,8,0:0:0:0:
256,192,90548,1,8,0:0:0:0:
256,192,90755,1,8,0:0:0:0:
256,192,90858,1,0,0:0:0:0:
256,192,91065,1,8,0:0:0:0:
256,192,91169,1,0,0:0:0:0:
256,192,91479,1,0,0:0:0:0:
256,192,91582,1,0,0:0:0:0:
256,192,91686,1,8,0:0:0:0:
256,192,91893,1,0,0:0:0:0:
256,192,91996,1,8,0:0:0:0:
256,192,92203,1,8,0:0:0:0:
256,192,92410,1,0,0:0:0:0:
256,192,92513,1,8,0:0:0:0:
256,192,92720,1,8,0:0:0:0:
256,192,92824,1,0,0:0:0:0:
256,192,93134,1,0,0:0:0:0:
256,192,93548,1,8,0:0:0:0:
256,192,93651,1,8,0:0:0:0:
256,192,93755,1,0,0:0:0:0:
256,192,93962,1,8,0:0:0:0:
256,192,94065,1,0,0:0:0:0:
256,192,94169,1,0,0:0:0:0:
256,192,94376,1,8,0:0:0:0:
256,192,94479,1,8,0:0:0:0:
256,192,94582,1,8,0:0:0:0:
256,192,94789,1,0,0:0:0:0:
256,192,94893,1,0,0:0:0:0:
256,192,94996,1,8,0:0:0:0:
256,192,95203,1,0,0:0:0:0:
256,192,95307,1,0,0:0:0:0:
256,192,95410,1,0,0:0:0:0:
256,192,95617,1,8,0:0:0:0:
256,192,95720,1,8,0:0:0:0:
256,192,95824,1,0,0:0:0:0:
256,192,96031,1,8,0:0:0:0:
256,192,96134,1,8,0:0:0:0:
256,192,96238,1,8,0:0:0:0:
256,192,96445,1,0,0:0:0:0:
256,192,96858,1,0,0:0:0:0:
256,192,96962,1,8,0:0:0:0:
256,192,97169,1,8,0:0:0:0:
256,192,97376,1,8,0:0:0:0:
256,192,97479,1,0,0:0:0:0:
256,192,97686,1,8,0:0:0:0:
256,192,97789,1,0,0:0:0:0:
256,192,98100,1,0,0:0:0:0:
256,192,98203,1,0,0:0:0:0:
256,192,98307,1,8,0:0:0:0:
256,192,98513,1,0,0:0:0:0:
256,192,98617,1,8,0:0:0:0:
256,192,98824,1,8,0:0:0:0:
256,192,99031,1,0,0:0:0:0:
256,192,99134,1,8,0:0:0:0:
256,192,99341,1,8,0:0:0:0:
256,192,99445,1,8,0:0:0:0:
256,192,99548,1,0,0:0:0:0:
256,192,99651,1,8,0:0:0:0:
256,192,99755,1,0,0:0:0:0:
256,192,100169,1,8,0:0:0:0:
256,192,100272,1,8,0:0:0:0:
256,192,100376,1,0,0:0:0:0:
256,192,100582,1,8,0:0:0:0:
256,192,100686,1,8,0:0:0:0:
256,192,100789,1,8,0:0:0:0:
256,192,100996,1,0,0:0:0:0:
256,192,101100,1,0,0:0:0:0:
256,192,101203,1,8,0:0:0:0:
256,192,101410,1,0,0:0:0:0:
256,192,101513,1,0,0:0:0:0:
256,192,101617,1,0,0:0:0:0:
256,192,101824,1,8,0:0:0:0:
256,192,101927,1,8,0:0:0:0:
256,192,102031,1,8,0:0:0:0:
256,192,102238,1,0,0:0:0:0:
256,192,102341,1,0,0:0:0:0:
256,192,102445,1,8,0:0:0:0:
256,192,102651,1,0,0:0:0:0:
256,192,102755,1,8,0:0:0:0:
256,192,102858,1,8,0:0:0:0:
256,192,103065,1,0,0:0:0:0:
256,192,103479,1,0,0:0:0:0:
256,192,103582,1,8,0:0:0:0:
256,192,103789,1,8,0:0:0:0:
256,192,103996,1,8,0:0:0:0:
256,192,104100,1,0,0:0:0:0:
256,192,104307,1,8,0:0:0:0:
256,192,104410,1,0,0:0:0:0:
256,192,104720,1,0,0:0:0:0:
256,192,104824,1,0,0:0:0:0:
256,192,104927,1,8,0:0:0:0:
256,192,105134,1,0,0:0:0:0:
256,192,105238,1,8,0:0:0:0:
256,192,105445,1,8,0:0:0:0:
256,192,105651,1,0,0:0:0:0:
256,192,105755,1,8,0:0:0:0:
256,192,105962,1,8,0:0:0:0:
256,192,106065,1,0,0:0:0:0:
256,192,106376,1,0,0:0:0:0:
256,192,106789,1,8,0:0:0:0:
256,192,106893,1,8,0:0:0:0:
256,192,106996,1,0,0:0:0:0:
256,192,107203,1,8,0:0:0:0:
256,192,107307,1,0,0:0:0:0:
256,192,107410,1,0,0:0:0:0:
256,192,107617,1,8,0:0:0:0:
256,192,107720,1,8,0:0:0:0:
256,192,107824,1,0,0:0:0:0:
256,192,108031,1,0,0:0:0:0:
256,192,108134,1,0,0:0:0:0:
256,192,108238,1,0,0:0:0:0:
256,192,108444,1,8,0:0:0:0:
256,192,108548,1,8,0:0:0:0:
256,192,108651,1,0,0:0:0:0:
256,192,108858,1,8,0:0:0:0:
256,192,108962,1,8,0:0:0:0:
256,192,109065,1,8,0:0:0:0:
256,192,109272,1,0,0:0:0:0:
256,192,109375,1,0,0:0:0:0:
256,192,109479,1,8,0:0:0:0:
256,192,109686,1,0,0:0:0:0:
256,192,110100,1,0,0:0:0:0:
256,192,110203,1,8,0:0:0:0:
256,192,110410,1,8,0:0:0:0:
256,192,110617,1,8,0:0:0:0:
256,192,110720,1,0,0:0:0:0:
256,192,110927,1,8,0:0:0:0:
256,192,111031,1,0,0:0:0:0:
256,192,111341,1,0,0:0:0:0:
256,192,111445,1,0,0:0:0:0:
256,192,111548,1,8,0:0:0:0:
256,192,111755,1,8,0:0:0:0:
256,192,111962,1,0,0:0:0:0:
256,192,112065,1,8,0:0:0:0:
256,192,112272,1,8,0:0:0:0:
256,192,112376,1,0,0:0:0:0:
256,192,112582,1,8,0:0:0:0:
256,192,112996,1,0,0:0:0:0:
256,128,113410,1,12,0:0:0:0:
256,192,113617,1,0,0:0:0:0:
256,192,113720,1,8,0:0:0:0:
256,192,113927,1,8,0:0:0:0:
256,192,114031,1,0,0:0:0:0:
256,192,114238,1,8,0:0:0:0:
256,192,114341,1,8,0:0:0:0:
256,192,114445,1,0,0:0:0:0:
256,192,114651,1,0,0:0:0:0:
256,192,114858,1,0,0:0:0:0:
256,192,114962,1,0,0:0:0:0:
256,192,115065,1,8,0:0:0:0:
256,192,115272,1,0,0:0:0:0:
256,192,115376,1,8,0:0:0:0:
256,192,115582,1,8,0:0:0:0:
256,192,115686,1,0,0:0:0:0:
256,192,115893,1,8,0:0:0:0:
256,192,115996,1,0,0:0:0:0:
256,192,116100,1,0,0:0:0:0:
256,192,116307,1,0,0:0:0:0:
256,192,116513,1,0,0:0:0:0:
256,192,116720,1,8,0:0:0:0:
256,192,116927,1,0,0:0:0:0:
256,192,117031,1,8,0:0:0:0:
256,192,117238,1,0,0:0:0:0:
256,192,117341,1,8,0:0:0:0:
256,192,117548,1,8,0:0:0:0:
256,192,117651,1,8,0:0:0:0:
256,192,117755,1,0,0:0:0:0:
256,192,117962,1,8,0:0:0:0:
256,192,118169,1,0,0:0:0:0:
256,192,118272,1,0,0:0:0:0:
256,192,118376,1,8,0:0:0:0:
256,192,118582,1,0,0:0:0:0:
256,192,118686,1,8,0:0:0:0:
256,192,118893,1,0,0:0:0:0:
256,192,118996,1,8,0:0:0:0:
256,192,119100,1,0,0:0:0:0:
256,192,119203,1,0,0:0:0:0:
256,128,119617,1,12,0:0:0:0:
256,192,120031,1,0,0:0:0:0:
256,192,120238,1,8,0:0:0:0:
256,192,120341,1,0,0:0:0:0:
256,192,120548,1,0,0:0:0:0:
256,192,120651,1,8,0:0:0:0:
256,192,120858,1,0,0:0:0:0:
256,192,120962,1,8,0:0:0:0:
256,192,121065,1,0,0:0:0:0:
256,192,121272,1,8,0:0:0:0:
256,192,121479,1,8,0:0:0:0:
256,192,121686,1,0,0:0:0:0:
256,192,121789,1,0,0:0:0:0:
256,192,121893,1,0,0:0:0:0:
256,192,121996,1,8,0:0:0:0:
256,192,122203,1,0,0:0:0:0:
256,192,122307,1,8,0:0:0:0:
256,192,122513,1,0,0:0:0:0:
256,192,122617,1,8,0:0:0:0:
256,192,122720,1,0,0:0:0:0:
256,128,122927,1,12,0:0:0:0:
256,192,123341,1,0,0:0:0:0:
256,192,123548,1,8,0:0:0:0:
256,192,123651,1,0,0:0:0:0:
256,192,123858,1,0,0:0:0:0:
256,192,123962,1,8,0:0:0:0:
256,192,124169,1,8,0:0:0:0:
256,192,124272,1,8,0:0:0:0:
256,192,124376,1,0,0:0:0:0:
256,192,124582,1,0,0:0:0:0:
256,192,124789,1,0,0:0:0:0:
256,192,124996,1,8,0:0:0:0:
256,192,125203,1,0,0:0:0:0:
256,192,125307,1,0,0:0:0:0:
256,192,125513,1,8,0:0:0:0:
256,192,125617,1,0,0:0:0:0:
256,192,125720,1,0,0:0:0:0:
256,192,125824,1,8,0:0:0:0:
256,192,125927,1,0,0:0:0:0:
256,192,126238,1,0,0:0:0:0:
256,128,126651,1,12,0:0:0:0:
256,192,126858,1,0,0:0:0:0:
256,192,126961,1,8,0:0:0:0:
256,192,127168,1,8,0:0:0:0:
256,192,127272,1,0,0:0:0:0:
256,192,127479,1,8,0:0:0:0:
256,192,127582,1,8,0:0:0:0:
256,192,127686,1,0,0:0:0:0:
256,192,127892,1,0,0:0:0:0:
256,192,128099,1,0,0:0:0:0:
256,192,128203,1,0,0:0:0:0:
256,192,128306,1,8,0:0:0:0:
256,192,128513,1,0,0:0:0:0:
256,192,128617,1,8,0:0:0:0:
256,192,128823,1,8,0:0:0:0:
256,192,128927,1,0,0:0:0:0:
256,192,129134,1,8,0:0:0:0:
256,192,129237,1,0,0:0:0:0:
256,192,129341,1,0,0:0:0:0:
256,192,129548,1,0,0:0:0:0:
256,192,129754,1,0,0:0:0:0:
256,192,129961,1,8,0:0:0:0:
256,192,130168,1,0,0:0:0:0:
256,192,130272,1,8,0:0:0:0:
256,192,130479,1,0,0:0:0:0:
256,192,130582,1,8,0:0:0:0:
256,192,130789,1,8,0:0:0:0:
256,192,130892,1,8,0:0:0:0:
256,192,130996,1,0,0:0:0:0:
256,192,131203,1,8,0:0:0:0:
256,192,131410,1,0,0:0:0:0:
256,192,131513,1,0,0:0:0:0:
256,192,131617,1,8,0:0:0:0:
256,192,131823,1,0,0:0:0:0:
256,192,131927,1,8,0:0:0:0:
256,192,132134,1,0,0:0:0:0:
256,192,132237,1,8,0:0:0:0:
256,192,132341,1,0,0:0:0:0:
256,192,132444,1,0,0:0:0:0:
256,128,132858,1,12,0:0:0:0:
256,192,133272,1,0,0:0:0:0:
256,192,133479,1,8,0:0:0:0:
256,192,133582,1,0,0:0:0:0:
256,192,133789,1,0,0:0:0:0:
256,192,133892,1,8,0:0:0:0:
256,192,134099,1,0,0:0:0:0:
256,192,134203,1,8,0:0:0:0:
256,192,134306,1,0,0:0:0:0:
256,192,134513,1,8,0:0:0:0:
256,192,134720,1,8,0:0:0:0:
256,192,134927,1,0,0:0:0:0:
256,192,135030,1,0,0:0:0:0:
256,192,135134,1,0,0:0:0:0:
256,192,135237,1,8,0:0:0:0:
256,192,135444,1,0,0:0:0:0:
256,192,135548,1,8,0:0:0:0:
256,192,135754,1,0,0:0:0:0:
256,192,135858,1,8,0:0:0:0:
256,192,135961,1,0,0:0:0:0:
256,128,136168,1,12,0:0:0:0:
256,192,136582,1,0,0:0:0:0:
256,192,136789,1,8,0:0:0:0:
256,192,136892,1,0,0:0:0:0:
256,192,137099,1,0,0:0:0:0:
256,192,137203,1,8,0:0:0:0:
256,192,137410,1,8,0:0:0:0:
256,192,137513,1,8,0:0:0:0:
256,192,137617,1,0,0:0:0:0:
256,192,137823,1,0,0:0:0:0:
256,192,138030,1,0,0:0:0:0:
256,192,138237,1,8,0:0:0:0:
256,192,138445,1,0,0:0:0:0:
256,192,138548,1,0,0:0:0:0:
256,192,138858,1,0,0:0:0:0:
256,192,138961,1,0,0:0:0:0:
256,192,139065,1,8,0:0:0:0:
256,128,139479,1,4,0:0:0:0:
256,192,140307,1,8,0:0:0:0:
256,192,141134,1,0,0:0:0:0:
256,192,141962,1,8,0:0:0:0:
256,192,142789,1,0,0:0:0:0:
256,192,143617,1,8,0:0:0:0:
256,192,144445,1,0,0:0:0:0:
256,192,145272,1,8,0:0:0:0:
256,192,146100,1,0,0:0:0:0:
256,192,146927,1,8,0:0:0:0:
256,192,147755,1,0,0:0:0:0:
256,192,148582,1,8,0:0:0:0:
256,192,149410,1,0,0:0:0:0:
256,192,150238,1,8,0:0:0:0:
256,192,151065,1,0,0:0:0:0:
256,192,151479,1,0,0:0:0:0:
256,192,151789,1,8,0:0:0:0:
256,192,151893,1,0,0:0:0:0:
256,192,152100,1,0,0:0:0:0:
256,192,152203,1,0,0:0:0:0:
256,192,152307,1,8,0:0:0:0:
256,192,152513,1,8,0:0:0:0:
256,192,152720,1,0,0:0:0:0:
256,128,153134,1,12,0:0:0:0:
256,192,153341,1,0,0:0:0:0:
256,192,153445,1,0,0:0:0:0:
256,192,153548,1,8,0:0:0:0:
256,192,153651,1,8,0:0:0:0:
256,192,153755,1,0,0:0:0:0:
256,192,153962,1,8,0:0:0:0:
256,192,154169,1,8,0:0:0:0:
256,192,154376,1,0,0:0:0:0:
256,192,154582,1,0,0:0:0:0:
256,192,154789,1,8,0:0:0:0:
256,192,154996,1,0,0:0:0:0:
256,192,155100,1,0,0:0:0:0:
256,192,155203,1,8,0:0:0:0:
256,192,155410,1,8,0:0:0:0:
256,192,155513,1,0,0:0:0:0:
256,192,155617,1,8,0:0:0:0:
256,192,155824,1,8,0:0:0:0:
256,192,156031,1,0,0:0:0:0:
256,192,156445,1,8,0:0:0:0:
256,192,156651,1,0,0:0:0:0:
256,192,156755,1,8,0:0:0:0:
256,192,156858,1,0,0:0:0:0:
256,192,156962,1,8,0:0:0:0:
256,192,157065,1,0,0:0:0:0:
256,192,157272,1,8,0:0:0:0:
256,192,157479,1,8,0:0:0:0:
256,192,157686,1,0,0:0:0:0:
256,192,157893,1,0,0:0:0:0:
256,192,158100,1,8,0:0:0:0:
256,192,158307,1,0,0:0:0:0:
256,192,158410,1,0,0:0:0:0:
256,192,158513,1,8,0:0:0:0:
256,192,158720,1,0,0:0:0:0:
256,192,158824,1,8,0:0:0:0:
256,192,158927,1,8,0:0:0:0:
256,192,159134,1,8,0:0:0:0:
256,192,159341,1,0,0:0:0:0:
256,192,159755,1,8,0:0:0:0:
256,192,159962,1,0,0:0:0:0:
256,192,160065,1,0,0:0:0:0:
256,192,160169,1,8,0:0:0:0:
256,192,160272,1,0,0:0:0:0:
256,192,160376,1,8,0:0:0:0:
256,192,160582,1,0,0:0:0:0:
256,192,160789,1,8,0:0:0:0:
256,192,160996,1,0,0:0:0:0:
256,192,161203,1,0,0:0:0:0:
256,192,161410,1,8,0:0:0:0:
256,192,161617,1,0,0:0:0:0:
256,192,161720,1,8,0:0:0:0:
256,192,161824,1,0,0:0:0:0:
256,192,162031,1,0,0:0:0:0:
256,192,162134,1,0,0:0:0:0:
256,192,162238,1,8,0:0:0:0:
256,192,162445,1,8,0:0:0:0:
256,192,162651,1,0,0:0:0:0:
256,192,163065,1,8,0:0:0:0:
256,192,163272,1,0,0:0:0:0:
256,192,163376,1,0,0:0:0:0:
256,192,163479,1,8,0:0:0:0:
256,192,163582,1,8,0:0:0:0:
256,192,163686,1,0,0:0:0:0:
256,192,163893,1,8,0:0:0:0:
256,192,164100,1,8,0:0:0:0:
256,192,164307,1,0,0:0:0:0:
256,192,164513,1,8,0:0:0:0:
256,192,164720,1,0,0:0:0:0:
256,192,164927,1,8,0:0:0:0:
256,192,165134,1,0,0:0:0:0:
256,192,165238,1,0,0:0:0:0:
256,192,165341,1,0,0:0:0:0:
256,192,165548,1,8,0:0:0:0:
256,192,165651,1,0,0:0:0:0:
256,192,165755,1,8,0:0:0:0:
256,128,165962,1,4,0:0:0:0:
256,192,167617,1,8,0:0:0:0:
256,192,169272,1,0,0:0:0:0:
256,192,170927,1,8,0:0:0:0:
256,192,172582,1,0,0:0:0:0:
256,192,174238,1,8,0:0:0:0:
256,192,175893,1,0,0:0:0:0:
256,192,177548,1,8,0:0:0:0:
256,192,178789,1,8,0:0:0:0:
256,192,178893,1,8,0:0:0:0:
256,192,178996,1,8,0:0:0:0:
256,128,179203,1,4,0:0:0:0:
256,192,179617,1,8,0:0:0:0:
256,192,180031,1,8,0:0:0:0:
256,192,180445,1,8,0:0:0:0:
256,128,180858,1,4,0:0:0:0:
256,192,181272,1,8,0:0:0:0:
256,192,181686,1,8,0:0:0:0:
256,192,182100,1,8,0:0:0:0:
256,128,182513,1,4,0:0:0:0:
256,192,182927,1,8,0:0:0:0:
256,192,183341,1,8,0:0:0:0:
256,192,183755,1,8,0:0:0:0:
256,128,184169,1,4,0:0:0:0:
256,192,184582,1,8,0:0:0:0:
256,192,184996,1,8,0:0:0:0:
256,192,185410,1,8,0:0:0:0:
256,192,185824,1,0,0:0:0:0:
256,192,186031,1,0,0:0:0:0:
256,192,186238,1,8,0:0:0:0:
256,192,186445,1,0,0:0:0:0:
256,192,186651,1,8,0:0:0:0:
256,192,186858,1,8,0:0:0:0:
256,192,187065,1,0,0:0:0:0:
256,192,187272,1,0,0:0:0:0:
256,192,187479,1,8,0:0:0:0:
256,192,187686,1,0,0:0:0:0:
256,192,187893,1,8,0:0:0:0:
256,192,188100,1,8,0:0:0:0:
256,192,188307,1,0,0:0:0:0:
256,192,188513,1,0,0:0:0:0:
256,192,188720,1,8,0:0:0:0:
256,192,188927,1,8,0:0:0:0:
256,192,189134,1,0,0:0:0:0:
256,192,189238,1,0,0:0:0:0:
256,192,189341,1,0,0:0:0:0:
256,192,189444,1,0,0:0:0:0:
256,192,189548,1,8,0:0:0:0:
256,192,189755,1,0,0:0:0:0:
256,192,189962,1,8,0:0:0:0:
256,192,190065,1,8,0:0:0:0:
256,192,190169,1,0,0:0:0:0:
256,192,190272,1,0,0:0:0:0:
256,192,190376,1,8,0:0:0:0:
256,192,190582,1,8,0:0:0:0:
256,192,190789,1,0,0:0:0:0:
256,192,190893,1,0,0:0:0:0:
256,192,190996,1,8,0:0:0:0:
256,192,191203,1,8,0:0:0:0:
256,192,191307,1,8,0:0:0:0:
256,192,191410,1,0,0:0:0:0:
256,192,191617,1,8,0:0:0:0:
256,192,192031,1,8,0:0:0:0:
256,192,192134,1,8,0:0:0:0:
256,192,192238,1,8,0:0:0:0:
256,192,192445,1,0,0:0:0:0:
256,192,192858,1,0,0:0:0:0:
256,192,192962,1,8,0:0:0:0:
256,192,193272,1,0,0:0:0:0:
256,192,193376,1,8,0:0:0:0:
256,192,193686,1,8,0:0:0:0:
256,192,193789,1,8,0:0:0:0:
256,192,194100,1,0,0:0:0:0:
256,192,194203,1,8,0:0:0:0:
256,192,194513,1,0,0:0:0:0:
256,192,194617,1,8,0:0:0:0:
256,192,194927,1,0,0:0:0:0:
256,192,195031,1,8,0:0:0:0:
256,192,195341,1,8,0:0:0:0:
256,192,195445,1,8,0:0:0:0:
256,192,195755,1,0,0:0:0:0:
256,192,196169,1,0,0:0:0:0:
256,192,196272,1,8,0:0:0:0:
256,192,196479,1,8,0:0:0:0:
256,192,196686,1,8,0:0:0:0:
256,192,196789,1,0,0:0:0:0:
256,192,196996,1,8,0:0:0:0:
256,192,197100,1,0,0:0:0:0:
256,192,197410,1,0,0:0:0:0:
256,192,197513,1,0,0:0:0:0:
256,192,197617,1,8,0:0:0:0:
256,192,197824,1,0,0:0:0:0:
256,192,197927,1,8,0:0:0:0:
256,192,198134,1,8,0:0:0:0:
256,192,198341,1,0,0:0:0:0:
256,192,198444,1,8,0:0:0:0:
256,192,198651,1,8,0:0:0:0:
256,192,198755,1,0,0:0:0:0:
256,192,199065,1,0,0:0:0:0:
256,192,199479,1,8,0:0:0:0:
256,192,199582,1,8,0:0:0:0:
256,192,199686,1,0,0:0:0:0:
256,192,199893,1,8,0:0:0:0:
256,192,199996,1,0,0:0:0:0:
256,192,200100,1,0,0:0:0:0:
256,192,200307,1,8,0:0:0:0:
256,192,200410,1,8,0:0:0:0:
256,192,200513,1,8,0:0:0:0:
256,192,200720,1,0,0:0:0:0:
256,192,200824,1,0,0:0:0:0:
256,192,200927,1,8,0:0:0:0:
256,192,201134,1,0,0:0:0:0:
256,192,201238,1,0,0:0:0:0:
256,192,201341,1,0,0:0:0:0:
256,192,201548,1,8,0:0:0:0:
256,192,201651,1,8,0:0:0:0:
256,192,201755,1,0,0:0:0:0:
256,192,201962,1,8,0:0:0:0:
256,192,202065,1,8,0:0:0:0:
256,192,202169,1,8,0:0:0:0:
256,192,202376,1,0,0:0:0:0:
256,192,202789,1,0,0:0:0:0:
256,192,202893,1,8,0:0:0:0:
256,192,203100,1,8,0:0:0:0:
256,192,203307,1,8,0:0:0:0:
256,192,203410,1,0,0:0:0:0:
256,192,203617,1,8,0:0:0:0:
256,192,203720,1,0,0:0:0:0:
256,192,204031,1,0,0:0:0:0:
256,192,204134,1,0,0:0:0:0:
256,192,204238,1,8,0:0:0:0:
256,192,204444,1,0,0:0:0:0:
256,192,204548,1,8,0:0:0:0:
256,192,204755,1,8,0:0:0:0:
256,192,204962,1,0,0:0:0:0:
256,192,205065,1,8,0:0:0:0:
256,192,205272,1,8,0:0:0:0:
256,192,205376,1,8,0:0:0:0:
256,192,205479,1,0,0:0:0:0:
256,192,205582,1,8,0:0:0:0:
256,192,205686,1,0,0:0:0:0:
256,192,206100,1,8,0:0:0:0:
256,192,206203,1,8,0:0:0:0:
256,192,206307,1,0,0:0:0:0:
256,192,206513,1,8,0:0:0:0:
256,192,206617,1,8,0:0:0:0:
256,192,206720,1,8,0:0:0:0:
256,192,206927,1,0,0:0:0:0:
256,192,207031,1,0,0:0:0:0:
256,192,207134,1,8,0:0:0:0:
256,192,207341,1,0,0:0:0:0:
256,192,207444,1,0,0:0:0:0:
256,192,207548,1,0,0:0:0:0:
256,192,207755,1,8,0:0:0:0:
256,192,207858,1,8,0:0:0:0:
256,192,207962,1,8,0:0:0:0:
256,192,208169,1,0,0:0:0:0:
256,192,208272,1,0,0:0:0:0:
256,192,208376,1,8,0:0:0:0:
256,192,208582,1,0,0:0:0:0:
256,192,208686,1,8,0:0:0:0:
256,192,208789,1,8,0:0:0:0:
256,192,208996,1,0,0:0:0:0:
256,192,209410,1,0,0:0:0:0:
256,192,209513,1,8,0:0:0:0:
256,192,209720,1,8,0:0:0:0:
256,192,209927,1,8,0:0:0:0:
256,192,210031,1,0,0:0:0:0:
256,192,210238,1,8,0:0:0:0:
256,192,210341,1,0,0:0:0:0:
256,192,210651,1,0,0:0:0:0:
256,192,210755,1,0,0:0:0:0:
256,192,210858,1,8,0:0:0:0:
256,192,211065,1,0,0:0:0:0:
256,192,211169,1,8,0:0:0:0:
256,192,211376,1,8,0:0:0:0:
256,192,211582,1,0,0:0:0:0:
256,192,211686,1,8,0:0:0:0:
256,192,211893,1,8,0:0:0:0:
256,192,211996,1,0,0:0:0:0:
256,192,212307,1,0,0:0:0:0:
256,192,212720,1,8,0:0:0:0:
256,192,212824,1,8,0:0:0:0:
256,192,212927,1,0,0:0:0:0:
256,192,213134,1,8,0:0:0:0:
256,192,213238,1,0,0:0:0:0:
256,192,213341,1,0,0:0:0:0:
256,192,213548,1,8,0:0:0:0:
256,192,213651,1,8,0:0:0:0:
256,192,213755,1,0,0:0:0:0:
256,192,213962,1,0,0:0:0:0:
256,192,214065,1,0,0:0:0:0:
256,192,214169,1,0,0:0:0:0:
256,192,214375,1,8,0:0:0:0:
256,192,214479,1,8,0:0:0:0:
256,192,214582,1,0,0:0:0:0:
256,192,214789,1,8,0:0:0:0:
256,192,214893,1,8,0:0:0:0:
256,192,214996,1,8,0:0:0:0:
256,192,215203,1,0,0:0:0:0:
256,192,215306,1,0,0:0:0:0:
256,192,215410,1,8,0:0:0:0:
256,192,215617,1,0,0:0:0:0:
256,192,216031,1,0,0:0:0:0:
256,192,216134,1,8,0:0:0:0:
256,192,216341,1,8,0:0:0:0:
256,192,216548,1,8,0:0:0:0:
256,192,216651,1,0,0:0:0:0:
256,192,216858,1,8,0:0:0:0:
256,192,216962,1,0,0:0:0:0:
256,192,217272,1,0,0:0:0:0:
256,192,217376,1,0,0:0:0:0:
256,192,217479,1,8,0:0:0:0:
256,192,217686,1,8,0:0:0:0:
256,192,217893,1,0,0:0:0:0:
256,192,217996,1,8,0:0:0:0:
256,192,218203,1,8,0:0:0:0:
256,192,218307,1,0,0:0:0:0:
256,192,218513,1,8,0:0:0:0:
256,192,218927,1,0,0:0:0:0:
256,128,219341,1,12,0:0:0:0:
256,192,219548,1,0,0:0:0:0:
256,192,219651,1,8,0:0:0:0:
256,192,219858,1,8,0:0:0:0:
256,192,219962,1,0,0:0:0:0:
256,192,220169,1,8,0:0:0:0:
256,192,220272,1,8,0:0:0:0:
256,192,220376,1,0,0:0:0:0:
256,192,220582,1,0,0:0:0:0:
256,192,220686,1,8,0:0:0:0:
256,192,220789,1,0,0:0:0:0:
256,192,220996,1,8,0:0:0:0:
256,192,221203,1,0,0:0:0:0:
256,192,221307,1,8,0:0:0:0:
256,192,221513,1,8,0:0:0:0:
256,192,221617,1,0,0:0:0:0:
256,192,221824,1,0,0:0:0:0:
256,192,221927,1,8,0:0:0:0:
256,192,222031,1,0,0:0:0:0:
256,192,222238,1,0,0:0:0:0:
256,192,222445,1,0,0:0:0:0:
256,192,222651,1,8,0:0:0:0:
256,192,222858,1,0,0:0:0:0:
256,192,222962,1,8,0:0:0:0:
256,192,223169,1,0,0:0:0:0:
256,192,223272,1,8,0:0:0:0:
256,192,223479,1,0,0:0:0:0:
256,192,223582,1,0,0:0:0:0:
256,192,223686,1,8,0:0:0:0:
256,192,223893,1,0,0:0:0:0:
256,192,224100,1,0,0:0:0:0:
256,192,224203,1,8,0:0:0:0:
256,192,224307,1,8,0:0:0:0:
256,192,224513,1,0,0:0:0:0:
256,192,224617,1,8,0:0:0:0:
256,192,224824,1,8,0:0:0:0:
256,192,224927,1,0,0:0:0:0:
256,192,225031,1,0,0:0:0:0:
256,192,225134,1,8,0:0:0:0:
256,128,225548,1,4,0:0:0:0:
256,192,225962,1,8,0:0:0:0:
256,192,226169,1,0,0:0:0:0:
256,192,226272,1,8,0:0:0:0:
256,192,226479,1,8,0:0:0:0:
256,192,226582,1,0,0:0:0:0:
256,192,226789,1,0,0:0:0:0:
256,192,226893,1,8,0:0:0:0:
256,192,226996,1,0,0:0:0:0:
256,192,227203,1,0,0:0:0:0:
256,192,227410,1,0,0:0:0:0:
256,192,227617,1,8,0:0:0:0:
256,192,227720,1,0,0:0:0:0:
256,192,227824,1,0,0:0:0:0:
256,192,227927,1,8,0:0:0:0:
256,192,228134,1,8,0:0:0:0:
256,192,228238,1,0,0:0:0:0:
256,192,228445,1,0,0:0:0:0:
256,192,228548,1,0,0:0:0:0:
256,192,228651,1,8,0:0:0:0:
256,128,228858,1,4,0:0:0:0:
256,192,229272,1,8,0:0:0:0:
256,192,229479,1,0,0:0:0:0:
256,192,229582,1,8,0:0:0:0:
256,192,229789,1,8,0:0:0:0:
256,192,229893,1,0,0:0:0:0:
256,192,230100,1,8,0:0:0:0:
256,192,230203,1,8,0:0:0:0:
256,192,230307,1,0,0:0:0:0:
256,192,230513,1,0,0:0:0:0:
256,192,230720,1,0,0:0:0:0:
256,192,230927,1,8,0:0:0:0:
256,192,231134,1,8,0:0:0:0:
256,192,231238,1,8,0:0:0:0:
256,192,231445,1,0,0:0:0:0:
256,192,231548,1,8,0:0:0:0:
256,192,231651,1,0,0:0:0:0:
256,192,231755,1,8,0:0:0:0:
256,192,231858,1,0,0:0:0:0:
256,192,232169,1,0,0:0:0:0:
256,128,232582,1,12,0:0:0:0:
256,192,232789,1,0,0:0:0:0:
256,192,232892,1,8,0:0:0:0:
256,192,233099,1,8,0:0:0:0:
256,192,233203,1,0,0:0:0:0:
256,192,233410,1,8,0:0:0:0:
256,192,233513,1,8,0:0:0:0:
256,192,233617,1,0,0:0:0:0:
256,192,233823,1,0,0:0:0:0:
256,192,233927,1,8,0:0:0:0:
256,192,234030,1,0,0:0:0:0:
256,192,234237,1,8,0:0:0:0:
256,192,234444,1,0,0:0:0:0:
256,192,234548,1,8,0:0:0:0:
256,192,234754,1,8,0:0:0:0:
256,192,234858,1,0,0:0:0:0:
256,192,235065,1,0,0:0:0:0:
256,192,235168,1,8,0:0:0:0:
256,192,235272,1,0,0:0:0:0:
256,192,235479,1,0,0:0:0:0:
256,192,235686,1,0,0:0:0:0:
256,192,235892,1,8,0:0:0:0:
256,192,236099,1,0,0:0:0:0:
256,192,236203,1,8,0:0:0:0:
256,192,236410,1,0,0:0:0:0:
256,192,236513,1,8,0:0:0:0:
256,192,236720,1,0,0:0:0:0:
256,192,236823,1,0,0:0:0:0:
256,192,236927,1,8,0:0:0:0:
256,192,237134,1,0,0:0:0:0:
256,192,237341,1,0,0:0:0:0:
256,192,237445,1,8,0:0:0:0:
256,192,237548,1,8,0:0:0:0:
256,192,237754,1,0,0:0:0:0:
256,192,237858,1,8,0:0:0:0:
256,192,238065,1,8,0:0:0:0:
256,192,238168,1,0,0:0:0:0:
256,192,238272,1,0,0:0:0:0:
256,192,238375,1,8,0:0:0:0:
256,128,238789,1,4,0:0:0:0:
256,192,239203,1,8,0:0:0:0:
256,192,239410,1,0,0:0:0:0:
256,192,239513,1,8,0:0:0:0:
256,192,239720,1,8,0:0:0:0:
256,192,239823,1,0,0:0:0:0:
256,192,240030,1,0,0:0:0:0:
256,192,240134,1,8,0:0:0:0:
256,192,240237,1,0,0:0:0:0:
256,192,240444,1,0,0:0:0:0:
256,192,240651,1,0,0:0:0:0:
256,192,240858,1,8,0:0:0:0:
256,192,240962,1,0,0:0:0:0:
256,192,241065,1,0,0:0:0:0:
256,192,241168,1,8,0:0:0:0:
256,192,241375,1,8,0:0:0:0:
256,192,241479,1,0,0:0:0:0:
256,192,241686,1,0,0:0:0:0:
256,192,241789,1,0,0:0:0:0:
256,192,241893,1,8,0:0:0:0:
256,128,242099,1,4,0:0:0:0:
256,192,242513,1,8,0:0:0:0:
256,192,242720,1,0,0:0:0:0:
256,192,242823,1,8,0:0:0:0:
256,192,243030,1,8,0:0:0:0:
256,192,243134,1,0,0:0:0:0:
256,192,243341,1,8,0:0:0:0:
256,192,243444,1,8,0:0:0:0:
256,192,243548,1,0,0:0:0:0:
256,192,243754,1,0,0:0:0:0:
256,192,243961,1,0,0:0:0:0:
256,192,244168,1,8,0:0:0:0:
256,192,244375,1,0,0:0:0:0:
256,192,244479,1,0,0:0:0:0:
256,192,244789,1,0,0:0:0:0:
256,192,244893,1,0,0:0:0:0:
256,192,244996,1,8,0:0:0:0:
256,128,245410,1,4,0:0:0:0:
256,192,245617,1,0,0:0:0:0:
256,192,245824,1,8,0:0:0:0:
256,192,246031,1,0,0:0:0:0:
256,192,246134,1,0,0:0:0:0:
256,192,246238,1,8,0:0:0:0:
256,192,246341,1,8,0:0:0:0:
256,192,246445,1,0,0:0:0:0:
256,192,246652,1,8,0:0:0:0:
256,192,246859,1,8,0:0:0:0:
256,192,247065,1,0,0:0:0:0:
256,192,247272,1,0,0:0:0:0:
256,192,247479,1,8,0:0:0:0:
256,192,247686,1,8,0:0:0:0:
256,192,247790,1,8,0:0:0:0:
256,192,247893,1,0,0:0:0:0:
256,192,248100,1,0,0:0:0:0:
256,192,248203,1,0,0:0:0:0:
256,192,248307,1,8,0:0:0:0:
256,192,248721,1,0,0:0:0:0:
256,192,248928,1,0,0:0:0:0:
256,192,249134,1,8,0:0:0:0:
256,192,249341,1,0,0:0:0:0:
256,192,249445,1,8,0:0:0:0:
256,192,249548,1,0,0:0:0:0:
256,192,249652,1,8,0:0:0:0:
256,192,249755,1,0,0:0:0:0:
256,192,249962,1,8,0:0:0:0:
256,192,250169,1,8,0:0:0:0:
256,192,250376,1,0,0:0:0:0:
256,192,250583,1,0,0:0:0:0:
256,192,250790,1,8,0:0:0:0:
256,192,250996,1,0,0:0:0:0:
256,192,251100,1,0,0:0:0:0:
256,192,251203,1,8,0:0:0:0:
256,192,251410,1,8,0:0:0:0:
256,192,251514,1,0,0:0:0:0:
256,192,251617,1,8,0:0:0:0:
256,192,252031,1,0,0:0:0:0:
256,192,252238,1,0,0:0:0:0:
256,192,252445,1,8,0:0:0:0:
256,192,252651,1,0,0:0:0:0:
256,192,252755,1,0,0:0:0:0:
256,192,252858,1,8,0:0:0:0:
256,192,252962,1,0,0:0:0:0:
256,192,253065,1,8,0:0:0:0:
256,192,253272,1,0,0:0:0:0:
256,192,253479,1,8,0:0:0:0:
256,192,253686,1,0,0:0:0:0:
256,192,253893,1,0,0:0:0:0:
256,192,254100,1,8,0:0:0:0:
256,192,254307,1,0,0:0:0:0:
256,192,254410,1,8,0:0:0:0:
256,192,254513,1,0,0:0:0:0:
256,192,254720,1,8,0:0:0:0:
256,192,254824,1,0,0:0:0:0:
256,192,254927,1,8,0:0:0:0:
256,192,255341,1,0,0:0:0:0:
256,192,255548,1,0,0:0:0:0:
256,192,255755,1,8,0:0:0:0:
256,192,255962,1,8,0:0:0:0:
256,192,256065,1,8,0:0:0:0:
256,192,256169,1,0,0:0:0:0:
256,192,256272,1,8,0:0:0:0:
256,192,256376,1,0,0:0:0:0:
256,192,256582,1,8,0:0:0:0:
256,192,256789,1,8,0:0:0:0:
256,192,256996,1,0,0:0:0:0:
256,192,257203,1,0,0:0:0:0:
256,192,257410,1,8,0:0:0:0:
256,192,257617,1,0,0:0:0:0:
256,192,257720,1,0,0:0:0:0:
256,192,257824,1,8,0:0:0:0:
256,192,258031,1,0,0:0:0:0:
256,192,258134,1,8,0:0:0:0:
256,192,258238,1,8,0:0:0:0:
256,128,258651,1,4,0:0:0:0:
256,192,259065,1,8,0:0:0:0:
256,192,259376,1,0,0:0:0:0:
256,192,259479,1,0,0:0:0:0:
256,192,259582,1,8,0:0:0:0:
256,192,259893,1,8,0:0:0:0:
256,192,260307,1,0,0:0:0:0:
256,192,260720,1,8,0:0:0:0:
256,192,261031,1,8,0:0:0:0:
256,192,261134,1,0,0:0:0:0:
256,192,261238,1,8,0:0:0:0:
256,192,261445,1,8,0:0:0:0:
256,192,261548,1,0,0:0:0:0:
256,192,261962,1,0,0:0:0:0:
256,192,262376,1,8,0:0:0:0:
256,192,262686,1,0,0:0:0:0:
256,192,262789,1,0,0:0:0:0:
256,192,262893,1,8,0:0:0:0:
256,192,263203,1,8,0:0:0:0:
256,192,263617,1,0,0:0:0:0:
256,192,264031,1,8,0:0:0:0:
256,192,264341,1,8,0:0:0:0:
256,192,264445,1,0,0:0:0:0:
256,192,264548,1,8,0:0:0:0:
256,192,264755,1,8,0:0:0:0:
256,192,264858,1,0,0:0:0:0:
256,192,265272,1,0,0:0:0:0:
256,192,265686,1,8,0:0:0:0:
256,192,265996,1,8,0:0:0:0:
256,192,266100,1,0,0:0:0:0:
256,192,266203,1,8,0:0:0:0:
256,192,266513,1,8,0:0:0:0:
256,192,266927,1,0,0:0:0:0:
256,192,267341,1,8,0:0:0:0:
256,192,267651,1,0,0:0:0:0:
256,192,267755,1,0,0:0:0:0:
256,192,267858,1,8,0:0:0:0:
256,192,268065,1,8,0:0:0:0:
256,192,268169,1,0,0:0:0:0:
256,192,268582,1,0,0:0:0:0:
256,192,268996,1,8,0:0:0:0:
256,192,269307,1,8,0:0:0:0:
256,192,269410,1,0,0:0:0:0:
256,192,269513,1,8,0:0:0:0:
256,192,269824,1,8,0:0:0:0:
256,192,270238,1,0,0:0:0:0:
256,192,270651,1,8,0:0:0:0:
256,192,270962,1,0,0:0:0:0:
256,192,271065,1,0,0:0:0:0:
256,192,271169,1,8,0:0:0:0:
256,192,271376,1,8,0:0:0:0:
256,192,271479,1,0,0:0:0:0:
