osu file format v14

[General]
AudioFilename: audio.mp3
AudioLeadIn: 0
PreviewTime: 49002
Countdown: 0
SampleSet: None
StackLeniency: 0.4
Mode: 0
LetterboxInBreaks: 0
WidescreenStoryboard: 1

[Editor]
DistanceSpacing: 0.1
BeatDivisor: 4
GridSize: 8
TimelineZoom: 2.1

[Metadata]
Title:The Dying Message
TitleUnicode:The Dying Message
Artist:Kagamine Rin Utsu-P
ArtistUnicode:Kagamine Rin Utsu-P
Creator:Nidasimno
Version:Insane
Source:
Tags:vocaloid metal rock utsu p kagamine rin
BeatmapID:1359256
BeatmapSetID:570886

[Difficulty]
HPDrainRate:6
CircleSize:4
OverallDifficulty:7.5
ApproachRate:9
SliderMultiplier:1.8
SliderTickRate:1

[Events]
//Background and Video events
0,0,"tumblr_m38tyu0MiZ1ql1dkzo1_1280.jpg",0,0
//Break Periods
//Storyboard Layer 0 (Background)
//Storyboard Layer 1 (Fail)
//Storyboard Layer 2 (Pass)
//Storyboard Layer 3 (Foreground)
//Storyboard Sound Samples

[TimingPoints]
402,600,4,2,0,100,1,0
402,-200,4,2,0,100,0,1
927,-100,4,2,0,5,0,0
1002,300,4,2,0,100,1,0
1002,-100,4,2,0,100,0,1
1302,-100,4,2,0,100,0,0
10602,-100,4,2,0,100,0,1
10902,-100,4,2,0,100,0,0
20202,-100,4,3,0,100,0,0
39402,-133.333333333333,4,2,0,100,0,0
49002,-90.9090909090909,4,1,0,100,0,0
58602,-90.9090909090909,4,1,0,100,0,1
77802,-100,4,2,0,100,0,1
78102,-100,4,2,0,100,0,0
87402,-100,4,2,0,100,0,1
87702,-100,4,2,0,100,0,0
97002,-100,4,3,0,100,0,0
116202,-90.9090909090909,4,1,0,100,0,0
125952,-90.9090909090909,4,1,0,100,0,1
144252,-90.9090909090909,4,1,0,100,0,0
154452,-90.9090909090909,4,1,0,5,0,0
154602,-133.333333333333,4,1,0,100,0,0
163002,-90.9090909090909,4,1,0,100,0,0
183102,-100,4,2,0,100,0,0
212202,-90.9090909090909,4,1,0,100,0,0
223902,-200,4,1,0,100,0,0
224127,-200,4,1,0,5,0,0
224202,-90.9090909090909,4,1,0,100,0,1
262002,-200,4,1,0,100,0,0
262602,-100,4,2,0,100,0,0

[HitObjects]
141,165,402,6,0,L|136:245,1,78.75
56,301,1002,5,4,0:0:0:0:
58,309,1077,1,0,0:0:0:0:
62,317,1152,1,0,0:0:0:0:
67,325,1227,1,0,0:0:0:0:
72,332,1302,1,0,0:0:0:0:
78,339,1377,1,0,0:0:0:0:
85,346,1452,2,0,P|133:362|182:340,1,90,0|8,0:0|0:0,0:0:0:0:
235,116,1902,2,0,B|255:163|255:163|256:213,1,90
436,23,2352,1,0,0:0:0:0:
436,23,2502,2,0,B|417:70|417:70|416:123,1,90
470,197,2802,2,0,P|471:249|455:289,1,90,8|0,0:0|0:0,0:0:0:0:
271,204,3102,2,0,P|319:194|369:201,1,90
357,329,3402,5,0,0:0:0:0:
349,333,3477,1,0,0:0:0:0:
341,337,3552,1,0,0:0:0:0:
333,342,3627,1,0,0:0:0:0:
325,346,3702,1,0,0:0:0:0:
317,349,3777,1,0,0:0:0:0:
309,352,3852,2,0,P|219:353|195:339,1,90,0|8,0:0|0:0,0:0:0:0:
57,212,4302,2,0,B|95:183|95:183|169:195,1,90
279,25,4752,2,0,B|278:74|278:74|305:116,1,90
381,178,5052,1,0,0:0:0:0:
381,178,5202,2,0,B|350:221|350:221|278:207,1,90,8|0,0:0|0:0,0:0:0:0:
237,283,5502,2,0,B|276:306|276:306|283:367,1,90
124,207,5802,5,0,0:0:0:0:
124,198,5877,1,0,0:0:0:0:
124,189,5952,1,0,0:0:0:0:
124,180,6027,1,0,0:0:0:0:
124,171,6102,1,0,0:0:0:0:
124,162,6177,1,0,0:0:0:0:
125,153,6252,2,0,P|128:106|145:63,1,90,0|8,0:0|0:0,0:0:0:0:
228,331,6702,2,0,B|196:363|196:363|148:367,1,90
300,184,7152,1,0,0:0:0:0:
300,184,7302,2,0,B|347:212|347:212|405:195,1,90
445,64,7602,2,0,P|455:126|470:154,1,90,8|0,0:0|0:0,0:0:0:0:
475,263,7902,2,0,P|469:305|439:344,1,90
298,305,8202,5,0,0:0:0:0:
290,299,8277,1,0,0:0:0:0:
282,295,8352,1,0,0:0:0:0:
274,291,8427,1,0,0:0:0:0:
266,288,8502,1,0,0:0:0:0:
257,286,8577,1,0,0:0:0:0:
247,285,8652,2,0,P|204:268|172:236,1,90,0|8,0:0|0:0,0:0:0:0:
123,14,9102,2,0,B|168:40|168:40|178:90,1,90
0,159,9552,1,0,0:0:0:0:
0,159,9702,2,0,B|48:176|48:176|67:212,1,90
124,291,10002,2,2,L|188:202,1,90,8|0,0:0|0:0,0:0:0:0:
366,96,10302,2,2,L|305:189,1,90,8|0,0:0|0:0,0:0:0:0:
255,340,10602,5,0,0:0:0:0:
256,331,10677,1,0,0:0:0:0:
257,322,10752,1,0,0:0:0:0:
257,313,10827,1,0,0:0:0:0:
257,304,10902,1,0,0:0:0:0:
257,295,10977,1,0,0:0:0:0:
254,284,11052,2,0,P|249:230|254:179,1,90,0|8,0:0|0:0,0:0:0:0:
117,29,11502,2,0,B|91:70|91:70|103:111,1,90
137,267,11952,1,0,0:0:0:0:
137,267,12102,2,0,B|157:311|157:311|128:367,1,90
67,219,12402,2,0,P|103:186|168:193,1,90,8|0,0:0|0:0,0:0:0:0:
242,242,12702,2,0,P|292:253|343:222,1,90
417,150,13002,5,0,0:0:0:0:
420,158,13077,1,0,0:0:0:0:
424,166,13152,1,0,0:0:0:0:
427,174,13227,1,0,0:0:0:0:
430,183,13302,1,0,0:0:0:0:
432,192,13377,1,0,0:0:0:0:
436,198,13452,2,0,P|434:264|410:300,1,90,0|8,0:0|0:0,0:0:0:0:
330,64,13902,2,0,B|372:41|372:41|409:61,1,90
172,132,14352,1,0,0:0:0:0:
172,132,14502,2,0,B|222:142|222:142|247:192,1,90
166,238,14802,2,0,B|141:281|141:281|153:339,1,90,8|0,0:0|0:0,0:0:0:0:
318,287,15102,2,0,B|270:310|270:310|228:285,1,90
70,213,15402,5,0,0:0:0:0:
67,204,15477,1,0,0:0:0:0:
64,193,15552,1,0,0:0:0:0:
63,184,15627,1,0,0:0:0:0:
64,176,15702,1,0,0:0:0:0:
66,167,15777,1,0,0:0:0:0:
69,160,15852,2,0,P|95:111|125:82,1,90,0|8,0:0|0:0,0:0:0:0:
340,16,16302,2,0,B|328:68|328:68|362:133,1,90
341,240,16752,1,0,0:0:0:0:
341,240,16902,2,0,P|285:242|231:279,1,90
168,244,17202,2,0,P|164:293|200:333,1,90,8|0,0:0|0:0,0:0:0:0:
238,88,17502,2,0,P|242:137|206:177,1,90
19,203,17802,5,0,0:0:0:0:
26,207,17877,1,0,0:0:0:0:
34,212,17952,1,0,0:0:0:0:
41,217,18027,1,0,0:0:0:0:
49,222,18102,1,0,0:0:0:0:
57,226,18177,1,0,0:0:0:0:
62,231,18252,2,0,P|117:269|138:308,1,90,0|8,0:0|0:0,0:0:0:0:
81,57,18702,2,0,B|119:89|119:89|165:75,1,90
392,54,19152,1,0,0:0:0:0:
392,54,19302,2,0,B|348:89|348:89|334:149,1,90
428,281,19602,2,0,B|329:262,1,90,8|0,0:0|0:0,0:0:0:0:
142,197,19902,2,0,B|241:178,1,90
366,71,20202,5,0,0:0:0:0:
366,71,20352,2,0,P|391:150|378:182,1,90
290,184,20652,1,0,0:0:0:0:
290,184,20802,2,0,P|267:233|291:288,1,90
494,247,21102,2,0,P|435:264|391:241,1,90
386,154,21402,2,0,P|356:44|394:3,1,180
452,98,21852,5,0,0:0:0:0:
452,98,22002,1,0,0:0:0:0:
461,212,22152,1,0,0:0:0:0:
461,212,22302,1,0,0:0:0:0:
341,190,22452,1,0,0:0:0:0:
341,190,22602,6,0,B|244:281|244:281|182:243,1,180
97,275,23052,6,0,P|88:207|210:188,1,180
219,86,23502,6,0,B|259:67|259:67|286:80|286:80|353:61|353:61|369:86|442:139|451:186|441:212|409:217|409:217|376:193,1,360
61,176,24402,2,0,P|105:181|155:212,1,90
201,263,24702,1,0,0:0:0:0:
241,336,24852,1,0,0:0:0:0:
320,363,25002,2,0,P|384:342|399:223,1,180
374,155,25452,1,0,0:0:0:0:
329,78,25602,1,0,0:0:0:0:
295,200,25752,1,0,0:0:0:0:
245,111,25902,2,0,P|191:87|144:84,1,90
51,144,26202,2,0,B|109:171|109:171|102:255|125:290,1,180
