osu file format v14

[General]
AudioFilename: audio.mp3
AudioLeadIn: 0
PreviewTime: 4633
Countdown: 1
SampleSet: None
StackLeniency: 0.2
Mode: 0
LetterboxInBreaks: 0
WidescreenStoryboard: 0

[Editor]
Bookmarks: 634,2634,4634,6634,8634,10634,12634,13259,13634,14259,14634,15259,15634,16634,18634,20634,22634,24634,26634,28634,28884,29134,29384,29634,29884,30134
DistanceSpacing: 0.8
BeatDivisor: 4
GridSize: 4
TimelineZoom: 3.799999

[Metadata]
Title:TRAUMATIC
TitleUnicode:TRAUMATIC
Artist:Kagamine Rin
ArtistUnicode:Kagamine Rin
Creator:SUPERGLB05
Version:TRAUMATIZED FRIGHT
Source:
Tags:utsu-p song
BeatmapID:1489238
BeatmapSetID:703972

[Difficulty]
HPDrainRate:5
CircleSize:4.5
OverallDifficulty:10
ApproachRate:10
SliderMultiplier:3
SliderTickRate:2

[Events]
//Background and Video events
0,0,"background.jpg",0,0
//Break Periods
//Storyboard Layer 0 (Background)
//Storyboard Layer 1 (Fail)
//Storyboard Layer 2 (Pass)
//Storyboard Layer 3 (Foreground)
//Storyboard Sound Samples

[TimingPoints]
633.06320307273,250,4,1,0,100,1,0
634,-200,4,1,0,100,0,0
2634,-100,4,1,0,100,0,0
4634,-66.6666666666667,4,3,1,100,0,1
5259,-66.6666666666667,4,3,2,100,0,1
5384,-66.6666666666667,4,3,1,100,0,1
6259,-66.6666666666667,4,3,2,100,0,1
6384,-66.6666666666667,4,3,1,100,0,1
7259,-66.6666666666667,4,3,2,100,0,1
7384,-66.6666666666667,4,3,1,100,0,1
8259,-66.6666666666667,4,3,2,100,0,1
8384,-66.6666666666667,4,3,1,100,0,1
12634,-100,4,1,0,100,0,0
13259,-50,4,1,0,100,0,1
13634,-100,4,1,0,100,0,0
14259,-50,4,1,0,100,0,1
14634,-100,4,1,0,100,0,0
15259,-50,4,1,0,100,0,1
15634,-100,4,1,0,100,0,0
16634,-66.6666666666667,4,3,1,100,0,1
17258,-66.6666666666667,4,3,2,100,0,1
17383,-66.6666666666667,4,3,1,100,0,1
18258,-66.6666666666667,4,3,2,100,0,1
18383,-66.6666666666667,4,3,1,100,0,1
19258,-66.6666666666667,4,3,2,100,0,1
19383,-66.6666666666667,4,3,1,100,0,1
20258,-66.6666666666667,4,3,2,100,0,1
20383,-66.6666666666667,4,3,1,100,0,1
23633,-66.6666666666667,4,3,1,100,0,0
24634,-50,4,3,1,100,0,1
28634,-40,4,3,1,100,0,1
30134,-100,4,3,1,100,0,0

[Colours]
Combo1 : 0,0,0
Combo2 : 0,170,170
Combo3 : 128,255,255
Combo4 : 255,0,0
Combo5 : 255,128,128
Combo6 : 255,128,0
Combo7 : 255,128,64

[HitObjects]
152,216,634,6,0,P|252:160|360:164,1,225,4|0,0:0|0:0,0:0:0:0:
480,288,1134,2,0,P|372:304|228:272,1,225
124,56,1634,2,0,L|308:204,1,225
384,328,2134,2,0,B|308:284|268:332|208:292,1,150
180,72,2509,1,0,0:0:0:0:
392,40,2634,6,0,P|424:184|200:332,1,450,4|0,0:0|0:0,0:0:0:0:
344,88,3134,2,0,P|348:208|80:208,1,450
28,268,3634,2,0,B|28:48|28:48|276:48,1,450
420,212,4134,2,0,B|496:340|496:340|344:248,1,300
308,144,4509,1,0,0:0:0:0:
44,32,4634,38,0,P|152:72|216:184,1,225.000008583069,4|8,0:0|0:0,0:0:0:0:
240,36,4884,1,0,0:0:0:0:
304,248,5009,1,8,0:0:0:0:
440,76,5134,2,0,P|488:260|248:340,1,450.000017166138
120,264,5509,1,8,0:0:0:0:
92,356,5634,2,0,L|316:280,1,225.000008583069,0|8,0:0|0:0,0:0:0:0:
376,280,5884,2,0,L|72:220,1,225.000008583069,0|8,0:0|0:0,0:0:0:0:
64,160,6134,2,0,B|160:160|160:160|192:160|192:160|208:112|208:112|176:80|176:80|144:112|144:112|160:160|160:160|192:160|192:160|304:160,1,450.000017166138
416,256,6509,1,8,0:0:0:0:
52,340,6634,6,0,P|12:256|116:236,1,225.000008583069,4|8,0:0|0:0,0:0:0:0:
232,336,6884,1,0,0:0:0:0:
328,96,7009,1,8,0:0:0:0:
52,32,7134,2,0,P|116:216|348:280,1,450.000017166138
352,92,7509,1,8,0:0:0:0:
128,68,7634,2,0,P|32:144|80:248,1,225.000008583069,0|8,0:0|0:0,0:0:0:0:
160,148,7884,2,0,P|177:252|87:309,1,225.000008583069,0|8,0:0|0:0,0:0:0:0:
28,332,8134,2,0,P|232:376|412:228,1,450.000017166138
256,136,8509,1,8,0:0:0:0:
52,244,8634,85,4,0:0:0:0:
172,116,8759,2,0,P|280:88|384:176,1,225.000008583069,8|0,0:0|0:0,0:0:0:0:
440,308,9008,1,8,0:0:0:0:
72,244,9134,5,4,0:0:0:0:
192,116,9259,2,0,P|300:88|404:176,1,225.000008583069,8|0,0:0|0:0,0:0:0:0:
460,308,9509,1,8,0:0:0:0:
92,244,9633,85,4,0:0:0:0:
212,116,9759,2,0,P|320:88|424:176,1,225.000008583069,8|0,0:0|0:0,0:0:0:0:
480,308,10009,1,8,0:0:0:0:
108,244,10133,5,4,0:0:0:0:
228,116,10259,2,0,P|336:88|440:176,1,225.000008583069,8|0,0:0|0:0,0:0:0:0:
496,308,10509,1,8,0:0:0:0:
0,4,10634,86,0,L|156:188,1,225.000008583069,4|8,0:0|0:0,0:0:0:0:
116,40,10882,2,0,L|264:216,1,225.000008583069,4|8,0:0|0:0,0:0:0:0:
240,88,11133,6,0,L|396:272,1,225.000008583069,4|8,0:0|0:0,0:0:0:0:
356,124,11384,2,0,L|504:300,1,225.000008583069,4|8,0:0|0:0,0:0:0:0:
416,336,11634,86,0,P|304:304|200:352,1,225.000008583069,4|8,0:0|0:0,0:0:0:0:
152,380,11884,2,0,P|72:288|92:176,1,225.000008583069,4|8,0:0|0:0,0:0:0:0:
32,144,12134,69,12,0:0:0:0:
120,104,12216,1,8,0:0:0:0:
216,104,12299,1,4,0:0:0:0:
308,152,12384,1,12,0:0:0:0:
424,224,12466,1,8,0:0:0:0:
512,124,12549,1,8,0:0:0:0:
424,40,12634,2,0,L|376:76,1,56.2500021457673,12|0,0:0|0:0,0:0:0:0:
256,192,12758,53,0,0:0:0:0:
256,192,12883,1,0,0:0:0:0:
256,192,13008,1,0,0:0:0:0:
256,192,13133,1,0,0:0:0:0:
4,164,13259,6,0,L|88:40,1,150,8|0,0:0|0:0,0:0:0:0:
156,40,13384,2,0,L|240:164,1,150,8|0,0:0|0:0,0:0:0:0:
308,164,13509,2,0,L|392:40,1,150,8|0,0:0|0:0,0:0:0:0:
496,168,13634,1,12,0:0:0:0:
256,192,13758,85,0,0:0:0:0:
256,192,13883,1,0,0:0:0:0:
256,192,14008,1,0,0:0:0:0:
256,192,14133,1,0,0:0:0:0:
508,220,14259,6,0,L|424:344,1,150,8|0,0:0|0:0,0:0:0:0:
356,344,14384,2,0,L|272:220,1,150,8|0,0:0|0:0,0:0:0:0:
204,220,14509,2,0,L|120:344,1,150,8|0,0:0|0:0,0:0:0:0:
16,216,14634,1,12,0:0:0:0:
256,192,14758,85,0,0:0:0:0:
256,192,14883,1,0,0:0:0:0:
256,192,15008,1,0,0:0:0:0:
256,192,15133,1,0,0:0:0:0:
16,248,15259,6,0,L|100:124,1,150,8|0,0:0|0:0,0:0:0:0:
168,124,15384,2,0,L|252:248,1,150,8|0,0:0|0:0,0:0:0:0:
320,248,15509,2,0,L|404:124,1,150,8|0,0:0|0:0,0:0:0:0:
508,252,15634,6,0,P|432:320|304:320,1,225,12|0,0:0|0:0,0:0:0:0:
304,256,15884,2,0,P|212:248|116:336,1,225,12|0,0:0|0:0,0:0:0:0:
56,360,16134,2,0,P|28:276|92:144,1,225,12|0,0:0|0:0,0:0:0:0:
128,104,16384,2,0,P|220:72|356:128,1,225,12|0,0:0|0:0,0:0:0:0:
452,56,16633,38,0,L|424:212,1,150,4|8,0:0|0:0,0:0:0:0:
332,344,16883,1,0,0:0:0:0:
232,32,17008,1,8,0:0:0:0:
72,280,17133,2,0,P|312:316|464:164,1,450.000017166138
328,32,17508,1,8,0:0:0:0:
84,104,17633,6,0,L|296:200,1,225.000008583069,0|8,0:0|0:0,0:0:0:0:
384,220,17883,2,0,L|160:336,1,225.000008583069,0|8,0:0|0:0,0:0:0:0:
476,272,18133,2,0,B|476:72|476:72|480:68|480:68|476:64|476:64|472:68|472:68|224:68,1,450.000017166138
72,132,18508,1,8,0:0:0:0:
376,336,18633,86,0,L|420:100,1,225.000008583069,4|8,0:0|0:0,0:0:0:0:
288,332,18883,1,0,0:0:0:0:
192,116,19008,1,8,0:0:0:0:
44,320,19133,2,0,B|444:80|440:80,1,450.000017166138
444,224,19508,1,8,0:0:0:0:
76,64,19633,6,0,L|312:224,1,225.000008583069,0|8,0:0|0:0,0:0:0:0:
388,148,19883,2,0,L|200:312,1,225.000008583069,0|8,0:0|0:0,0:0:0:0:
64,136,20133,2,0,B|156:204|208:312|208:312|248:200|352:120,1,450.000017166138
456,32,20508,1,8,0:0:0:0:
12,264,20633,85,4,0:0:0:0:
100,108,20758,2,0,L|144:232,1,112.500004291535,8|0,0:0|0:0,0:0:0:0:
212,96,20883,2,0,L|192:228,1,112.500004291535
308,112,21008,2,0,L|256:232,1,112.500004291535,8|0,0:0|0:0,0:0:0:0:
80,264,21133,5,4,0:0:0:0:
168,108,21258,2,0,L|212:232,1,112.500004291535,8|0,0:0|0:0,0:0:0:0:
280,96,21383,2,0,L|260:228,1,112.500004291535
376,112,21508,2,0,L|324:232,1,112.500004291535,8|0,0:0|0:0,0:0:0:0:
148,264,21633,85,4,0:0:0:0:
236,108,21758,2,0,L|280:232,1,112.500004291535,8|0,0:0|0:0,0:0:0:0:
348,96,21883,2,0,L|328:228,1,112.500004291535
444,112,22008,2,0,L|392:232,1,112.500004291535,8|0,0:0|0:0,0:0:0:0:
216,264,22133,5,4,0:0:0:0:
304,108,22258,2,0,L|348:232,1,112.500004291535,8|0,0:0|0:0,0:0:0:0:
416,96,22383,2,0,L|396:228,1,112.500004291535
512,112,22508,2,0,L|460:232,1,112.500004291535,8|0,0:0|0:0,0:0:0:0:
72,92,22633,86,0,L|196:312,1,225.000008583069,4|8,0:0|0:0,0:0:0:0:
28,252,22883,2,0,L|260:364,1,225.000008583069,0|8,0:0|0:0,0:0:0:0:
432,80,23133,2,0,L|376:320,1,225.000008583069,0|8,0:0|0:0,0:0:0:0:
104,16,23383,1,0,0:0:0:0:
104,16,23445,1,0,0:0:0:0:
104,16,23508,1,8,0:0:0:0:
56,164,23633,6,0,L|156:112,1,112.500004291535
316,32,23758,2,0,L|212:88,1,112.500004291535,8|0,0:0|0:0,0:0:0:0:
88,220,23883,86,0,L|188:168,1,112.500004291535
348,88,24008,2,0,L|244:144,1,112.500004291535,8|0,0:0|0:0,0:0:0:0:
120,276,24133,6,0,L|220:224,1,112.500004291535
380,144,24258,2,0,L|276:200,1,112.500004291535,8|0,0:0|0:0,0:0:0:0:
152,328,24383,86,0,L|252:276,1,112.500004291535
412,196,24508,2,0,L|308:252,1,112.500004291535,8|0,0:0|0:0,0:0:0:0:
60,60,24633,69,4,0:0:0:0:
116,104,24695,1,0,0:0:0:0:
184,112,24758,1,0,0:0:0:0:
244,76,24820,1,0,0:0:0:0:
308,112,24883,5,8,0:0:0:0:
364,192,24945,1,8,0:0:0:0:
332,284,25008,1,8,0:0:0:0:
248,328,25070,1,8,0:0:0:0:
198,246,25133,85,4,0:0:0:0:
170,186,25195,1,0,0:0:0:0:
122,134,25258,1,0,0:0:0:0:
62,102,25320,1,0,0:0:0:0:
6,66,25383,5,8,0:0:0:0:
90,22,25445,1,8,0:0:0:0:
190,10,25508,1,8,0:0:0:0:
282,34,25570,1,8,0:0:0:0:
372,72,25633,86,0,L|432:230,3,150,0|0|8|0,0:0|0:0|0:0|0:0,0:0:0:0:
320,112,25883,2,0,L|331:267,3,150,0|0|8|0,0:0|0:0|0:0|0:0,0:0:0:0:
256,144,26133,2,0,L|232:304,3,150,0|0|8|0,0:0|0:0|0:0|0:0,0:0:0:0:
172,180,26383,2,0,L|124:332,3,150,0|0|8|0,0:0|0:0|0:0|0:0,0:0:0:0:
64,32,26633,5,4,0:0:0:0:
124,72,26695,1,0,0:0:0:0:
188,88,26758,1,8,0:0:0:0:
256,80,26820,1,0,0:0:0:0:
324,84,26883,85,0,0:0:0:0:
380,128,26945,1,0,0:0:0:0:
408,192,27008,1,8,0:0:0:0:
396,260,27070,1,0,0:0:0:0:
340,308,27133,5,4,0:0:0:0:
272,328,27195,1,0,0:0:0:0:
200,332,27258,1,8,0:0:0:0:
136,304,27320,1,0,0:0:0:0:
88,256,27383,85,0,0:0:0:0:
56,188,27445,1,0,0:0:0:0:
80,116,27508,1,8,0:0:0:0:
140,76,27570,1,0,0:0:0:0:
212,76,27633,5,4,0:0:0:0:
304,104,27695,1,0,0:0:0:0:
384,160,27758,1,8,0:0:0:0:
416,244,27820,1,0,0:0:0:0:
384,328,27883,85,4,0:0:0:0:
292,336,27945,1,0,0:0:0:0:
212,288,28008,1,8,0:0:0:0:
152,212,28070,1,0,0:0:0:0:
192,120,28133,5,12,0:0:0:0:
280,76,28195,1,8,0:0:0:0:
360,120,28258,1,0,0:0:0:0:
320,208,28320,1,0,0:0:0:0:
216,224,28383,85,12,0:0:0:0:
128,276,28445,1,0,0:0:0:0:
64,340,28508,1,8,0:0:0:0:
156,368,28570,1,0,0:0:0:0:
400,80,28633,6,0,B|360:140|360:140|408:140|376:172|376:172|416:192|396:196|396:196|352:180|380:232|380:232|432:256|384:296|384:296|310:277|240:304,1,450,4|0,0:0|0:0,0:0:0:0:
120,84,28883,86,0,B|176:88|176:88|96:140|96:140|208:172|208:172|108:228|108:228|212:256|212:256|144:296,1,562.5,4|0,0:0|0:0,0:0:0:0:
300,360,29133,6,0,B|443:306|443:306|444:256|444:256|440:252|440:252|448:252|448:252|444:248|444:248|444:180|444:180|448:176|448:176|440:176|440:176|444:172|444:172|332:64|216:104,1,562.5,4|0,0:0|0:0,0:0:0:0:
40,32,29383,86,0,P|180:276|436:160,1,562.5,4|0,0:0|0:0,0:0:0:0:
416,0,29633,6,0,B|232:68|348:176|348:176|60:304,1,562.5,4|0,0:0|0:0,0:0:0:0:
28,16,29883,86,0,B|196:200|268:112|472:360,1,562.5,4|0,0:0|0:0,0:0:0:0:
16,84,30133,53,12,0:0:0:0:
