osu file format v14

[General]
AudioFilename: audio.mp3
AudioLeadIn: 0
PreviewTime: -1
Countdown: 0
SampleSet: None
StackLeniency: 0.2
Mode: 0
LetterboxInBreaks: 0
WidescreenStoryboard: 1

[Editor]
Bookmarks: 1578,4541,28244,40096,51948,63800,75652,99355,111207,123059,134911,158615,170466,182318,207503
DistanceSpacing: 0.8
BeatDivisor: 4
GridSize: 32
TimelineZoom: 1

[Metadata]
Title:Lost Ones Weeping
TitleUnicode:ロストワンの号哭
Artist:Kagamine Rin
ArtistUnicode:Kagamine Rin
Creator:ItsKalesy
Version:Rhythm Importance Top to Bottom
Source:
Tags:vocaloid nikoniko niko japanese music chorus
BeatmapID:1535038
BeatmapSetID:719430

[Difficulty]
HPDrainRate:0
CircleSize:4
OverallDifficulty:0
ApproachRate:10
SliderMultiplier:1.4
SliderTickRate:1

[Events]
//Background and Video events
0,0,"download.png",0,0
//Break Periods
2,9926,39646
2,46222,104831
2,111407,195202
//Storyboard Layer 0 (Background)
//Storyboard Layer 1 (Fail)
//Storyboard Layer 2 (Pass)
//Storyboard Layer 3 (Foreground)
//Storyboard Sound Samples

[TimingPoints]
4541,370.37037037037,4,1,0,20,1,0

[Colours]
Combo1 : 199,14,28
Combo2 : 24,105,16
Combo3 : 0,0,160
Combo4 : 255,128,0

[HitObjects]
256,0,4541,1,0,0:0:0:0:
256,0,5281,1,0,0:0:0:0:
256,0,6022,1,0,0:0:0:0:
256,0,6763,1,0,0:0:0:0:
256,0,7503,1,0,0:0:0:0:
256,0,8244,1,0,0:0:0:0:
256,0,8985,1,0,0:0:0:0:
256,0,9726,1,0,0:0:0:0:
256,0,40096,5,0,0:0:0:0:
256,192,40467,1,0,0:0:0:0:
256,0,40837,5,0,0:0:0:0:
256,192,41208,1,0,0:0:0:0:
256,0,41578,5,0,0:0:0:0:
256,192,41948,1,0,0:0:0:0:
256,0,42319,5,0,0:0:0:0:
256,192,42689,1,0,0:0:0:0:
256,0,43059,5,0,0:0:0:0:
256,192,43430,1,0,0:0:0:0:
256,0,43800,5,0,0:0:0:0:
256,192,44171,1,0,0:0:0:0:
256,0,44541,5,0,0:0:0:0:
256,192,44911,1,0,0:0:0:0:
256,0,45282,5,0,0:0:0:0:
256,192,45652,1,0,0:0:0:0:
256,0,46022,5,0,0:0:0:0:
256,0,105281,5,0,0:0:0:0:
256,288,105467,1,0,0:0:0:0:
256,192,105652,1,0,0:0:0:0:
256,288,105837,1,0,0:0:0:0:
256,0,106022,5,0,0:0:0:0:
256,288,106207,1,0,0:0:0:0:
256,192,106393,1,0,0:0:0:0:
256,288,106578,1,0,0:0:0:0:
256,0,106763,5,0,0:0:0:0:
256,288,106948,1,0,0:0:0:0:
256,192,107133,1,0,0:0:0:0:
256,288,107318,1,0,0:0:0:0:
256,0,107504,5,0,0:0:0:0:
256,288,107689,1,0,0:0:0:0:
256,192,107874,1,0,0:0:0:0:
256,288,108059,1,0,0:0:0:0:
256,0,108244,5,0,0:0:0:0:
256,288,108429,1,0,0:0:0:0:
256,192,108615,1,0,0:0:0:0:
256,288,108800,1,0,0:0:0:0:
256,0,108985,5,0,0:0:0:0:
256,288,109170,1,0,0:0:0:0:
256,192,109356,1,0,0:0:0:0:
256,288,109541,1,0,0:0:0:0:
256,0,109726,5,0,0:0:0:0:
256,288,109911,1,0,0:0:0:0:
256,192,110096,1,0,0:0:0:0:
256,288,110281,1,0,0:0:0:0:
256,0,110467,5,0,0:0:0:0:
256,288,110652,1,0,0:0:0:0:
256,192,110837,1,0,0:0:0:0:
256,288,111022,1,0,0:0:0:0:
256,0,111207,5,0,0:0:0:0:
256,0,195652,5,0,0:0:0:0:
256,288,195837,1,0,0:0:0:0:
256,192,196022,1,0,0:0:0:0:
256,384,196115,1,0,0:0:0:0:
256,288,196207,1,0,0:0:0:0:
256,384,196300,1,0,0:0:0:0:
256,0,196393,5,0,0:0:0:0:
256,288,196578,1,0,0:0:0:0:
256,192,196763,1,0,0:0:0:0:
256,384,196856,1,0,0:0:0:0:
256,288,196948,1,0,0:0:0:0:
256,384,197041,1,0,0:0:0:0:
256,0,197134,5,0,0:0:0:0:
256,288,197319,1,0,0:0:0:0:
256,192,197504,1,0,0:0:0:0:
256,384,197597,1,0,0:0:0:0:
256,288,197689,1,0,0:0:0:0:
256,384,197782,1,0,0:0:0:0:
256,0,197874,5,0,0:0:0:0:
256,288,198059,1,0,0:0:0:0:
256,192,198244,1,0,0:0:0:0:
256,384,198337,1,0,0:0:0:0:
256,288,198429,1,0,0:0:0:0:
256,384,198522,1,0,0:0:0:0:
256,0,198615,5,0,0:0:0:0:
256,288,198800,1,0,0:0:0:0:
256,192,198985,1,0,0:0:0:0:
256,384,199078,1,0,0:0:0:0:
256,288,199170,1,0,0:0:0:0:
256,384,199263,1,0,0:0:0:0:
256,0,199356,5,0,0:0:0:0:
256,288,199541,1,0,0:0:0:0:
256,192,199726,1,0,0:0:0:0:
256,384,199819,1,0,0:0:0:0:
256,288,199911,1,0,0:0:0:0:
256,384,200004,1,0,0:0:0:0:
256,0,200096,5,0,0:0:0:0:
256,288,200281,1,0,0:0:0:0:
256,192,200466,1,0,0:0:0:0:
256,384,200559,1,0,0:0:0:0:
256,288,200651,1,0,0:0:0:0:
256,384,200744,1,0,0:0:0:0:
256,0,200837,5,0,0:0:0:0:
256,288,201022,1,0,0:0:0:0:
256,192,201207,1,0,0:0:0:0:
256,384,201300,1,0,0:0:0:0:
256,288,201392,1,0,0:0:0:0:
256,384,201485,1,0,0:0:0:0:
256,0,201578,5,0,0:0:0:0:
