osu file format v14

[General]
AudioFilename: audio.mp3
AudioLeadIn: 0
PreviewTime: -1
Countdown: 0
SampleSet: Normal
StackLeniency: 0.7
Mode: 0
LetterboxInBreaks: 0
WidescreenStoryboard: 1

[Editor]
Bookmarks: 1578,4541,25281,28244,40096,51948,63800,74538,75652,80094,99355,111207,123059,134911,158615,170466,182318,207503
DistanceSpacing: 0.8
BeatDivisor: 4
GridSize: 8
TimelineZoom: 1

[Metadata]
Title:Lost Ones Weeping
TitleUnicode:ロストワンの号哭
Artist:Kagamine Rin
ArtistUnicode:Kagamine Rin
Creator:ItsKalesy
Version:Kanji
Source:
Tags:vocaloid nikoniko niko japanese music chorus
BeatmapID:1535037
BeatmapSetID:719430

[Difficulty]
HPDrainRate:6
CircleSize:5
OverallDifficulty:9
ApproachRate:9.3
SliderMultiplier:1.4
SliderTickRate:1

[Events]
//Background and Video events
0,0,"download.png",0,0
//Break Periods
//Storyboard Layer 0 (Background)
//Storyboard Layer 1 (Fail)
//Storyboard Layer 2 (Pass)
//Storyboard Layer 3 (Foreground)
//Storyboard Sound Samples

[TimingPoints]
4539,370.37037037037,4,1,0,50,1,0
25279,-100,4,1,0,50,0,0
28615,-66.6666666666667,4,1,0,50,0,0
29911,-100,4,1,0,50,0,0
31763,-66.6666666666667,4,1,0,50,0,0
32689,-100,4,1,0,50,0,0
37689,-55.5555555555556,4,1,0,50,0,0
38615,-100,4,1,0,50,0,0
40187,-80,4,1,0,50,0,0
52872,-66.6666666666667,4,1,0,50,0,0
53613,-100,4,1,0,50,0,0
55094,-66.6666666666667,4,1,0,50,0,0
56576,-100,4,1,0,50,0,0
59168,-50,4,1,0,50,0,0
59353,-100,4,1,0,50,0,0
59446,-100,4,1,0,50,0,0
61020,-66.6666666666667,4,1,0,50,0,0
62131,-57.1428571428571,4,1,0,50,0,0
62872,-50,4,1,0,50,0,0
63798,-100,4,1,0,50,0,0
72501,-66.6666666666667,4,1,0,50,0,0
73242,-66.6666666666667,4,1,0,50,0,0
74168,-50,4,1,0,50,0,0
75650,-100,4,1,0,50,0,0
76205,-66.6666666666667,4,1,0,50,0,0
80464,-57.1428571428571,4,1,0,50,0,0
80835,-50,4,1,0,50,0,0

[Colours]
Combo1 : 199,14,28
Combo2 : 24,105,16
Combo3 : 0,0,160
Combo4 : 255,128,0

[HitObjects]
157,289,1576,5,0,0:0:0:0:
256,191,1761,1,0,0:0:0:0:
292,326,1946,2,0,L|304:372,2,35
256,191,2316,5,0,0:0:0:0:
354,92,2501,1,0,0:0:0:0:
390,227,2687,2,0,L|402:273,2,35
256,191,3057,5,0,0:0:0:0:
158,92,3242,1,0,0:0:0:0:
122,227,3429,2,0,L|109:273,2,35
256,191,3798,5,0,0:0:0:0:
256,296,4168,5,0,0:0:0:0:
256,88,4539,5,0,0:0:0:0:
368,192,4724,1,0,0:0:0:0:
256,288,4909,1,0,0:0:0:0:
256,288,5001,1,0,0:0:0:0:
256,288,5094,1,0,0:0:0:0:
128,208,5279,6,0,P|122:176|146:134,1,70
352,136,5650,1,0,0:0:0:0:
352,136,5742,1,0,0:0:0:0:
352,136,5835,1,0,0:0:0:0:
392,240,6020,6,0,P|384:288|352:304,1,70
144,288,6390,1,0,0:0:0:0:
144,288,6483,1,0,0:0:0:0:
144,288,6576,1,0,0:0:0:0:
136,136,6761,6,0,P|142:102|169:81,1,70
392,88,7131,1,0,0:0:0:0:
392,88,7224,1,0,0:0:0:0:
392,88,7316,1,0,0:0:0:0:
400,296,7501,5,0,0:0:0:0:
200,168,7687,1,0,0:0:0:0:
376,88,7872,1,0,0:0:0:0:
376,88,7964,1,0,0:0:0:0:
376,88,8057,1,0,0:0:0:0:
392,256,8242,6,0,P|392:304|352:328,1,70
256,192,8613,1,0,0:0:0:0:
256,192,8705,1,0,0:0:0:0:
256,192,8798,1,0,0:0:0:0:
192,328,8983,6,0,P|144:328|120:288,1,70
256,192,9353,1,0,0:0:0:0:
256,192,9446,1,0,0:0:0:0:
256,192,9538,1,0,0:0:0:0:
120,128,9724,6,0,P|120:80|160:56,1,70
256,192,10094,1,0,0:0:0:0:
256,192,10187,1,0,0:0:0:0:
256,192,10279,1,0,0:0:0:0:
304,108,10464,5,0,0:0:0:0:
304,276,10650,1,0,0:0:0:0:
159,191,10835,1,0,0:0:0:0:
159,191,10927,1,0,0:0:0:0:
159,191,11020,1,0,0:0:0:0:
152,64,11205,6,0,L|168:144,1,70
352,320,11576,1,0,0:0:0:0:
352,320,11668,1,0,0:0:0:0:
352,320,11761,1,0,0:0:0:0:
144,320,11946,6,0,L|160:240,1,70
184,184,12316,1,0,0:0:0:0:
184,184,12409,1,0,0:0:0:0:
184,184,12501,1,0,0:0:0:0:
304,184,12687,6,0,L|288:264,1,70
160,320,13057,1,0,0:0:0:0:
160,320,13150,1,0,0:0:0:0:
160,320,13242,1,0,0:0:0:0:
368,320,13427,6,0,L|352:240,1,70
168,88,13798,1,0,0:0:0:0:
168,88,13890,1,0,0:0:0:0:
168,88,13983,1,0,0:0:0:0:
376,192,14168,5,0,0:0:0:0:
152,192,14353,1,0,0:0:0:0:
256,80,14538,1,0,0:0:0:0:
256,80,14631,1,0,0:0:0:0:
256,80,14724,1,0,0:0:0:0:
160,160,14909,6,0,P|149:194|181:245,1,70
256,192,15650,5,0,0:0:0:0:
256,192,15835,1,0,0:0:0:0:
256,192,16020,1,0,0:0:0:0:
256,192,16205,1,0,0:0:0:0:
256,112,16390,6,0,P|302:122|318:159,1,70
208,240,16761,1,0,0:0:0:0:
208,240,16853,1,0,0:0:0:0:
208,240,16946,1,0,0:0:0:0:
344,240,17131,6,0,L|320:160,1,70
168,192,17501,1,0,0:0:0:0:
168,192,17594,1,0,0:0:0:0:
168,192,17687,1,0,0:0:0:0:
152,72,17872,6,0,L|240:88,1,70
256,248,18242,1,0,0:0:0:0:
256,248,18335,1,0,0:0:0:0:
256,248,18427,1,0,0:0:0:0:
336,80,18613,6,0,B|373:109|373:109|374:160,1,70
216,232,18983,1,0,0:0:0:0:
216,232,19076,1,0,0:0:0:0:
216,232,19168,1,0,0:0:0:0:
152,96,19353,6,0,L|232:80,1,70
344,192,19724,1,0,0:0:0:0:
344,192,19816,1,0,0:0:0:0:
344,192,19909,1,0,0:0:0:0:
152,296,20094,6,0,L|120:216,1,70
256,144,20464,1,0,0:0:0:0:
256,144,20557,1,0,0:0:0:0:
256,144,20650,1,0,0:0:0:0:
352,72,20835,6,0,L|376:152,1,70
256,256,21205,1,0,0:0:0:0:
256,256,21298,1,0,0:0:0:0:
256,256,21390,1,0,0:0:0:0:
128,192,21576,6,0,B|144:144|144:144|176:128,1,70
384,192,21946,1,0,0:0:0:0:
384,192,22038,1,0,0:0:0:0:
384,192,22131,1,0,0:0:0:0:
376,144,22316,6,0,P|360:192|328:216,1,70
184,112,22687,1,0,0:0:0:0:
184,112,22779,1,0,0:0:0:0:
184,112,22872,1,0,0:0:0:0:
352,288,23057,6,0,L|376:208,1,70
224,160,23427,1,0,0:0:0:0:
224,160,23520,1,0,0:0:0:0:
224,160,23613,1,0,0:0:0:0:
160,296,23798,6,0,L|184:216,1,70
292,167,24168,1,0,0:0:0:0:
292,167,24261,1,0,0:0:0:0:
292,167,24353,1,0,0:0:0:0:
96,64,24538,6,0,L|184:80,1,70
256,192,24909,1,0,0:0:0:0:
256,192,25001,1,0,0:0:0:0:
256,192,25094,1,0,0:0:0:0:
280,160,25279,1,0,0:0:0:0:
304,134,25371,1,0,0:0:0:0:
334,117,25464,1,0,0:0:0:0:
367,105,25556,1,0,0:0:0:0:
401,97,25649,1,0,0:0:0:0:
427,115,25741,1,0,0:0:0:0:
440,148,25834,1,0,0:0:0:0:
442,182,25927,1,0,0:0:0:0:
437,217,26019,1,0,0:0:0:0:
427,251,26112,1,0,0:0:0:0:
412,282,26204,1,0,0:0:0:0:
380,294,26297,1,0,0:0:0:0:
346,302,26390,1,0,0:0:0:0:
311,307,26482,1,0,0:0:0:0:
276,308,26575,1,0,0:0:0:0:
241,305,26667,1,0,0:0:0:0:
210,290,26760,1,0,0:0:0:0:
201,257,26853,1,0,0:0:0:0:
196,222,26945,1,0,0:0:0:0:
173,197,27038,1,0,0:0:0:0:
142,181,27130,1,0,0:0:0:0:
109,169,27223,1,0,0:0:0:0:
88,152,27316,1,0,0:0:0:0:
109,134,27408,1,0,0:0:0:0:
137,113,27501,1,0,0:0:0:0:
166,94,27593,1,0,0:0:0:0:
198,79,27686,1,0,0:0:0:0:
231,68,27778,1,0,0:0:0:0:
264,72,27871,1,0,0:0:0:0:
294,82,27964,1,0,0:0:0:0:
320,104,28056,1,0,0:0:0:0:
342,133,28149,1,0,0:0:0:0:
304,256,28242,6,0,L|240:192,1,70
360,128,28613,1,0,0:0:0:0:
360,128,28798,1,0,0:0:0:0:
320,40,28983,2,0,P|272:72|256:120,1,105.000004005432
408,120,29353,1,0,0:0:0:0:
256,120,29538,1,0,0:0:0:0:
256,120,29631,1,0,0:0:0:0:
256,120,29724,1,0,0:0:0:0:
112,160,30001,6,0,P|152:240|208:256,1,105.000004005432
368,256,30464,1,0,0:0:0:0:
168,104,30835,1,0,0:0:0:0:
224,224,31020,5,0,0:0:0:0:
224,224,31113,1,0,0:0:0:0:
224,224,31205,1,0,0:0:0:0:
224,120,31390,2,0,L|320:152,1,70
288,232,31761,2,0,L|200:256,1,70
144,136,32131,1,0,0:0:0:0:
144,136,32224,1,0,0:0:0:0:
144,136,32316,1,0,0:0:0:0:
144,240,32501,2,0,P|208:208|232:144,1,105.000004005432
288,120,32872,6,0,L|336:184,2,70
368,288,33427,1,0,0:0:0:0:
368,160,33613,1,0,0:0:0:0:
216,288,33798,1,0,0:0:0:0:
208,168,33983,5,0,0:0:0:0:
208,168,34076,1,0,0:0:0:0:
208,168,34168,1,0,0:0:0:0:
256,288,34353,1,0,0:0:0:0:
344,104,34538,2,0,L|328:200,1,70
332,173,34909,1,0,0:0:0:0:
152,240,35094,1,0,0:0:0:0:
144,152,35279,2,0,P|206:164|224:192,1,70
256,304,35650,5,0,0:0:0:0:
256,304,35742,1,0,0:0:0:0:
256,304,35835,1,0,0:0:0:0:
400,296,36020,2,0,L|368:232,1,70
144,232,36390,2,0,L|160:160,1,70
256,80,36946,5,0,0:0:0:0:
256,80,37038,1,0,0:0:0:0:
256,80,37131,1,0,0:0:0:0:
176,128,37316,2,0,P|192:176|232:200,1,70
328,272,37687,2,0,L|152:288,1,125.999996154785
136,96,38242,1,0,0:0:0:0:
136,128,38335,1,0,0:0:0:0:
136,168,38427,1,0,0:0:0:0:
256,272,38613,6,0,L|288:288,1,35
304,192,38798,1,0,0:0:0:0:
304,192,38890,1,0,0:0:0:0:
304,192,38983,1,0,0:0:0:0:
168,192,39168,1,0,0:0:0:0:
256,88,39353,1,0,0:0:0:0:
280,96,39446,1,0,0:0:0:0:
304,104,39538,1,0,0:0:0:0:
328,120,39631,1,0,0:0:0:0:
344,144,39724,1,0,0:0:0:0:
352,168,39816,1,0,0:0:0:0:
352,200,39909,1,0,0:0:0:0:
344,224,40001,1,0,0:0:0:0:
320,256,40094,5,0,0:0:0:0:
240,144,40279,1,0,0:0:0:0:
392,136,40465,1,0,0:0:0:0:
392,136,40557,1,0,0:0:0:0:
392,136,40650,1,0,0:0:0:0:
256,192,40835,6,0,P|184:160|168:120,1,87.5
336,80,41205,1,0,0:0:0:0:
336,80,41298,1,0,0:0:0:0:
336,80,41390,1,0,0:0:0:0:
176,176,41576,6,0,L|232:248,1,87.5
304,152,41946,2,0,L|344:120,2,43.75
216,48,42316,6,0,L|152:144,1,87.5
296,224,42687,1,0,0:0:0:0:
296,224,42779,1,0,0:0:0:0:
296,224,42872,1,0,0:0:0:0:
392,136,43057,6,0,L|328:64,1,87.5
208,128,43427,1,0,0:0:0:0:
208,128,43520,1,0,0:0:0:0:
208,128,43613,1,0,0:0:0:0:
48,160,43798,6,0,P|87:240|99:238,1,87.5
184,184,44168,2,0,L|232:184,2,43.75
216,280,44538,6,0,L|304:312,1,87.5
312,176,44909,1,0,0:0:0:0:
312,176,45001,1,0,0:0:0:0:
312,176,45094,1,0,0:0:0:0:
296,72,45279,6,0,P|248:80|224:136,1,87.5
224,240,45650,1,0,0:0:0:0:
224,240,45742,1,0,0:0:0:0:
224,240,45835,1,0,0:0:0:0:
128,216,46020,6,0,L|88:128,1,87.5
256,88,46390,1,0,0:0:0:0:
256,88,46483,1,0,0:0:0:0:
256,88,46576,1,0,0:0:0:0:
360,144,46761,6,0,L|328:232,1,87.5
168,240,47131,1,0,0:0:0:0:
168,240,47224,1,0,0:0:0:0:
168,240,47316,1,0,0:0:0:0:
256,112,47501,6,0,L|344:72,1,87.5
384,192,47872,2,0,L|368:248,2,43.75
152,184,48242,6,0,P|112:224|120:272,1,87.5
256,264,48613,1,0,0:0:0:0:
256,264,48705,1,0,0:0:0:0:
256,264,48798,1,0,0:0:0:0:
328,176,48983,6,0,L|360:88,1,87.5
176,104,49353,1,0,0:0:0:0:
176,104,49446,1,0,0:0:0:0:
176,104,49538,1,0,0:0:0:0:
416,80,49724,6,0,L|368:168,1,87.5
248,280,50094,1,0,0:0:0:0:
248,280,50187,1,0,0:0:0:0:
248,280,50279,1,0,0:0:0:0:
104,176,50464,6,0,P|160:128|200:136,1,87.5
344,136,50835,1,0,0:0:0:0:
344,136,50927,1,0,0:0:0:0:
344,136,51020,1,0,0:0:0:0:
248,184,51205,5,0,0:0:0:0:
256,192,51390,5,0,0:0:0:0:
256,192,51576,5,0,0:0:0:0:
256,192,51761,5,0,0:0:0:0:
104,240,51946,6,0,L|176:320,1,87.5
344,288,52316,1,0,0:0:0:0:
256,120,52501,1,0,0:0:0:0:
256,120,52594,1,0,0:0:0:0:
256,120,52687,1,0,0:0:0:0:
168,104,52872,2,0,P|176:152|248:208,1,105.000004005432
336,192,53242,2,0,L|376:240,2,52.5000020027161
192,192,53613,6,0,L|160:280,1,70
256,240,53983,1,0,0:0:0:0:
218,132,54168,1,0,0:0:0:0:
321,99,54353,1,0,0:0:0:0:
256,240,54538,1,0,0:0:0:0:
376,192,54724,5,0,0:0:0:0:
376,192,54816,1,0,0:0:0:0:
376,192,54909,1,0,0:0:0:0:
288,184,55094,2,0,P|296:248|360:272,1,105.000004005432
368,88,55464,1,0,0:0:0:0:
368,88,55557,1,0,0:0:0:0:
368,88,55650,1,0,0:0:0:0:
248,208,55835,1,0,0:0:0:0:
120,192,56020,6,0,L|168:296,1,105.000004005432
360,288,56390,1,0,0:0:0:0:
376,208,56576,2,0,P|304:232|296:248,2,70
296,128,57131,1,0,0:0:0:0:
168,120,57316,1,0,0:0:0:0:
232,208,57501,1,0,0:0:0:0:
200,240,57687,5,0,0:0:0:0:
224,256,57779,1,0,0:0:0:0:
248,272,57872,1,0,0:0:0:0:
320,256,58057,2,0,L|352:176,1,70
208,184,58427,2,0,L|240:264,1,70
360,264,58798,1,0,0:0:0:0:
216,96,58983,1,0,0:0:0:0:
328,80,59168,6,0,P|312:136|296:152,1,70
272,208,59353,2,0,P|280:256|328:296,1,105
352,288,59724,1,0,0:0:0:0:
448,224,59909,1,0,0:0:0:0:
304,136,60094,1,0,0:0:0:0:
296,280,60279,1,0,0:0:0:0:
448,224,60464,1,0,0:0:0:0:
376,144,60650,1,0,0:0:0:0:
376,144,60742,1,0,0:0:0:0:
376,144,60835,1,0,0:0:0:0:
288,144,61020,6,0,P|307:213|374:227,1,105.000004005432
360,160,61390,2,0,P|408:192|400:272,1,105.000004005432
368,280,61761,2,0,L|256:248,1,105.000004005432
208,304,62131,2,0,L|64:248,1,122.500001168251
88,192,62501,2,0,L|232:160,1,122.500001168251
272,168,62872,2,0,L|416:200,1,140
104,240,63613,5,0,0:0:0:0:
104,240,63798,6,0,P|144:288|160:296,2,70
408,240,64353,5,0,0:0:0:0:
408,240,64538,6,0,P|368:288|352:296,2,70
104,240,65094,1,0,0:0:0:0:
104,240,65186,1,0,0:0:0:0:
104,240,65279,1,0,0:0:0:0:
168,288,65464,2,0,L|192:216,1,70
408,240,65834,1,0,0:0:0:0:
408,240,65927,1,0,0:0:0:0:
408,240,66019,1,0,0:0:0:0:
344,288,66205,2,0,L|312:208,1,70
160,152,66576,6,0,L|120:72,1,70
208,88,66946,1,0,0:0:0:0:
280,192,67131,5,0,0:0:0:0:
352,152,67316,2,0,L|392:72,1,70
304,88,67686,1,0,0:0:0:0:
168,192,67872,5,0,0:0:0:0:
112,248,68057,2,0,P|128:296|152:320,2,70
352,184,68613,1,0,0:0:0:0:
400,248,68798,2,0,P|384:296|360:320,2,70
144,88,69538,5,0,0:0:0:0:
144,88,69724,1,0,0:0:0:0:
216,88,69909,2,0,P|216:128|168:152,1,70
368,88,70279,5,0,0:0:0:0:
368,88,70465,1,0,0:0:0:0:
296,88,70650,2,0,P|296:128|344:152,1,70
368,296,71020,5,0,0:0:0:0:
368,296,71206,1,0,0:0:0:0:
296,296,71391,2,0,P|296:256|344:232,1,70
80,280,71761,2,0,L|152:312,1,70
152,232,72131,1,0,0:0:0:0:
152,232,72223,1,0,0:0:0:0:
152,232,72316,1,0,0:0:0:0:
168,96,72501,6,0,L|216:224,1,105.000004005432
312,112,72872,1,0,0:0:0:0:
312,112,72964,1,0,0:0:0:0:
312,112,73057,1,0,0:0:0:0:
376,128,73242,2,0,L|336:256,1,105.000004005432
176,232,73613,1,0,0:0:0:0:
256,64,73798,5,0,0:0:0:0:
256,64,73890,1,0,0:0:0:0:
256,64,73983,1,0,0:0:0:0:
352,80,74168,2,0,L|248:224,1,140
240,208,74538,5,0,0:0:0:0:
224,192,74631,1,0,0:0:0:0:
208,176,74724,1,0,0:0:0:0:
192,160,74816,1,0,0:0:0:0:
176,144,74909,1,0,0:0:0:0:
160,128,75001,1,0,0:0:0:0:
144,112,75094,1,0,0:0:0:0:
144,80,75187,1,0,0:0:0:0:
168,64,75279,1,0,0:0:0:0:
200,64,75372,1,0,0:0:0:0:
224,80,75464,1,0,0:0:0:0:
248,104,75557,1,0,0:0:0:0:
264,128,75650,1,0,0:0:0:0:
128,264,75835,5,0,0:0:0:0:
128,264,75927,1,0,0:0:0:0:
128,264,76020,1,0,0:0:0:0:
144,168,76205,2,0,L|272:192,1,122.500001168251
224,80,76576,1,0,0:0:0:0:
384,192,76761,1,0,0:0:0:0:
256,288,76946,2,0,P|176:280|144:248,1,122.500001168251
216,216,77316,2,0,L|240:152,2,61.2500005841255
304,56,77687,2,0,L|336:208,1,122.500001168251
344,232,78057,5,0,0:0:0:0:
176,232,78242,1,0,0:0:0:0:
160,120,78427,2,0,P|245:141|267:209,1,122.500001168251
312,312,78798,1,0,0:0:0:0:
312,312,78890,1,0,0:0:0:0:
312,312,78983,1,0,0:0:0:0:
152,224,79168,1,0,0:0:0:0:
192,144,79353,2,0,L|272:280,1,122.500001168251
328,184,79724,2,0,P|368:120|304:80,1,122.500001168251
288,104,80094,6,0,L|136:120,1,105.000004005432
120,184,80464,2,0,L|288:208,1,122.500001168251
248,256,80835,2,0,L|104:288,1,140
368,336,81390,5,0,0:0:0:0:
368,336,81483,1,0,0:0:0:0:
368,336,81576,1,0,0:0:0:0:
440,288,81761,2,0,P|400:216|320:184,1,140
304,192,82131,2,0,P|288:272|224:296,1,140
192,264,82501,1,0,3:0:0:0:
80,215,82686,1,0,3:0:0:0:
128,106,82872,1,0,3:0:0:0:
237,153,83057,1,0,3:0:0:0:
144,200,83242,6,0,P|200:264|264:264,1,140
248,144,83613,1,0,0:0:0:0:
248,144,83798,1,0,0:0:0:0:
360,160,83983,1,0,0:0:0:0:
352,288,84168,1,0,0:0:0:0:
336,168,84353,6,0,L|192:128,1,140
232,240,84724,1,0,0:0:0:0:
152,264,84909,2,0,P|192:320|280:328,2,140
352,288,85464,1,0,0:0:0:0:
352,184,85650,1,0,0:0:0:0:
240,184,85835,1,0,0:0:0:0:
112,200,86020,1,0,0:0:0:0:
120,208,86113,1,0,0:0:0:0:
120,208,86205,1,0,0:0:0:0:
208,184,86390,6,0,P|296:200|320:256,1,140
288,288,86761,2,0,L|120:304,1,140
216,216,87131,1,0,0:0:0:0:
368,216,87316,1,0,0:0:0:0:
368,216,87409,1,0,0:0:0:0:
368,216,87501,1,0,0:0:0:0:
104,72,87687,6,0,L|240:128,1,140
256,264,88057,1,0,0:0:0:0:
368,192,88242,1,0,0:0:0:0:
216,128,88427,1,0,0:0:0:0:
216,128,88520,1,0,0:0:0:0:
216,128,88613,1,0,0:0:0:0:
104,176,88798,6,0,L|168:304,1,140
256,192,89168,1,0,0:0:0:0:
256,192,89261,1,0,0:0:0:0:
256,192,89353,1,0,0:0:0:0:
368,192,89538,6,0,P|336:264|264:288,1,140
160,296,89909,2,0,B|128:176|112:272|96:120,1,140
256,192,90279,1,0,0:0:0:0:
256,192,90372,1,0,0:0:0:0:
256,192,90464,1,0,0:0:0:0:
256,96,90650,2,0,P|328:120|360:176,1,140
336,240,91020,2,0,L|160:272,1,140
120,192,91390,5,0,0:0:0:0:
240,112,91576,1,0,0:0:0:0:
336,208,91761,1,0,0:0:0:0:
232,216,91946,2,0,L|296:80,1,140
384,128,92316,2,0,P|432:184|408:256,2,140
208,192,92872,5,0,0:0:0:0:
208,192,92964,1,0,0:0:0:0:
208,192,93057,1,0,0:0:0:0:
208,112,93242,2,0,L|336:168,1,140
256,272,93613,1,0,0:0:0:0:
136,192,93798,1,0,0:0:0:0:
336,192,93983,1,0,0:0:0:0:
336,192,94076,1,0,0:0:0:0:
336,192,94168,1,0,0:0:0:0:
256,88,94353,2,0,L|136:184,2,140
256,232,94909,5,0,0:0:0:0:
352,272,95094,2,0,L|408:144,1,140
256,88,95464,1,0,0:0:0:0:
168,192,95650,1,0,0:0:0:0:
