osu file format v14

[General]
AudioFilename: Happy Halloween.mp3
AudioLeadIn: 0
PreviewTime: -1
Countdown: 0
SampleSet: Soft
StackLeniency: 0.7
Mode: 3
LetterboxInBreaks: 0
SpecialStyle: 0
WidescreenStoryboard: 0

[Editor]
DistanceSpacing: 0.9
BeatDivisor: 8
GridSize: 4
TimelineZoom: 1

[Metadata]
Title:Happy Halloween
TitleUnicode:Happy Halloween
Artist:Kagamine Rin
ArtistUnicode:鏡音リン
Creator:[Emiria]
Version:Hyper
Source:
Tags:
BeatmapID:1108670
BeatmapSetID:521987

[Difficulty]
HPDrainRate:8
CircleSize:4
OverallDifficulty:8
ApproachRate:5
SliderMultiplier:1.4
SliderTickRate:1

[Events]
//Background and Video events
0,0,"46755457_p0.jpg",0,0
Video,-89,"pv.avi"
//Break Periods
//Storyboard Layer 0 (Background)
//Storyboard Layer 1 (Fail)
//Storyboard Layer 2 (Pass)
//Storyboard Layer 3 (Foreground)
//Storyboard Sound Samples

[TimingPoints]
4021,500,4,2,0,0,1,0

[HitObjects]
64,192,4021,5,0,0:0:0:0:
320,192,4271,1,0,0:0:0:0:
192,192,4521,1,0,0:0:0:0:
448,192,4771,1,0,0:0:0:0:
64,192,5021,1,0,0:0:0:0:
320,192,5021,1,0,0:0:0:0:
192,192,5146,1,0,0:0:0:0:
448,192,5271,1,0,0:0:0:0:
320,192,5271,1,0,0:0:0:0:
64,192,5521,1,0,0:0:0:0:
320,192,5521,1,0,0:0:0:0:
192,192,5771,1,0,0:0:0:0:
64,192,5771,1,0,0:0:0:0:
320,192,5896,1,0,0:0:0:0:
448,192,6021,1,0,0:0:0:0:
192,192,6021,1,0,0:0:0:0:
64,192,6271,1,0,0:0:0:0:
448,192,6521,1,0,0:0:0:0:
320,192,6646,1,0,0:0:0:0:
64,192,6771,1,0,0:0:0:0:
192,192,6771,1,0,0:0:0:0:
448,192,7021,1,0,0:0:0:0:
64,192,7021,1,0,0:0:0:0:
320,192,7271,1,0,0:0:0:0:
192,192,7271,1,0,0:0:0:0:
192,192,7521,1,0,0:0:0:0:
64,192,7521,1,0,0:0:0:0:
64,192,7771,1,0,0:0:0:0:
320,192,7771,1,0,0:0:0:0:
64,192,8021,1,0,0:0:0:0:
448,192,8021,1,0,0:0:0:0:
192,192,8146,1,0,0:0:0:0:
320,192,8271,1,0,0:0:0:0:
64,192,8271,1,0,0:0:0:0:
448,192,8396,1,0,0:0:0:0:
192,192,8521,1,0,0:0:0:0:
320,192,8521,1,0,0:0:0:0:
64,192,8771,1,0,0:0:0:0:
192,192,8771,1,0,0:0:0:0:
320,192,8896,1,0,0:0:0:0:
448,192,9021,1,0,0:0:0:0:
192,192,9021,1,0,0:0:0:0:
320,192,9146,1,0,0:0:0:0:
64,192,9271,1,0,0:0:0:0:
448,192,9271,1,0,0:0:0:0:
192,192,9396,1,0,0:0:0:0:
320,192,9458,1,0,0:0:0:0:
448,192,9521,1,0,0:0:0:0:
64,192,9521,1,0,0:0:0:0:
192,192,9583,1,0,0:0:0:0:
320,192,9646,1,0,0:0:0:0:
448,192,9708,1,0,0:0:0:0:
64,192,9771,1,0,0:0:0:0:
192,192,9771,1,0,0:0:0:0:
320,192,9896,1,0,0:0:0:0:
192,192,10021,1,0,0:0:0:0:
448,192,10021,128,0,11021:0:0:0:0:
320,192,10146,1,0,0:0:0:0:
64,192,10271,1,0,0:0:0:0:
192,192,10396,1,0,0:0:0:0:
320,192,10521,1,0,0:0:0:0:
192,192,10771,1,0,0:0:0:0:
64,192,11021,1,0,0:0:0:0:
192,192,11021,1,0,0:0:0:0:
320,192,11021,1,0,0:0:0:0:
192,192,11271,1,0,0:0:0:0:
448,192,11271,1,0,0:0:0:0:
320,192,11271,1,0,0:0:0:0:
64,192,11521,1,0,0:0:0:0:
192,192,11521,1,0,0:0:0:0:
320,192,11521,1,0,0:0:0:0:
192,192,11896,1,0,0:0:0:0:
320,192,11896,1,0,0:0:0:0:
448,192,12021,1,0,0:0:0:0:
64,192,12021,1,0,0:0:0:0:
320,192,12271,1,0,0:0:0:0:
64,192,12521,1,0,0:0:0:0:
448,192,12521,1,0,0:0:0:0:
192,192,12771,1,0,0:0:0:0:
320,192,12771,1,0,0:0:0:0:
64,192,13021,1,0,0:0:0:0:
448,192,13021,1,0,0:0:0:0:
192,192,13146,1,0,0:0:0:0:
448,192,13271,1,0,0:0:0:0:
320,192,13271,1,0,0:0:0:0:
64,192,13521,1,0,0:0:0:0:
192,192,13521,1,0,0:0:0:0:
320,192,13771,1,0,0:0:0:0:
448,192,13771,1,0,0:0:0:0:
192,192,13896,1,0,0:0:0:0:
64,192,14021,1,0,0:0:0:0:
448,192,14021,1,0,0:0:0:0:
192,192,14271,1,0,0:0:0:0:
320,192,14271,1,0,0:0:0:0:
448,192,14521,1,0,0:0:0:0:
64,192,14521,1,0,0:0:0:0:
192,192,14646,1,0,0:0:0:0:
448,192,14771,1,0,0:0:0:0:
320,192,14771,1,0,0:0:0:0:
64,192,15021,1,0,0:0:0:0:
448,192,15021,1,0,0:0:0:0:
320,192,15146,1,0,0:0:0:0:
192,192,15271,1,0,0:0:0:0:
448,192,15271,1,0,0:0:0:0:
64,192,15521,1,0,0:0:0:0:
448,192,15521,128,0,15896:0:0:0:0:
192,192,15771,1,0,0:0:0:0:
448,192,16021,1,0,0:0:0:0:
192,192,16021,1,0,0:0:0:0:
320,192,16271,1,0,0:0:0:0:
64,192,16521,1,0,0:0:0:0:
192,192,16521,1,0,0:0:0:0:
448,192,16771,1,0,0:0:0:0:
192,192,16771,1,0,0:0:0:0:
320,192,17021,1,0,0:0:0:0:
448,192,17021,1,0,0:0:0:0:
192,192,17146,1,0,0:0:0:0:
64,192,17271,1,0,0:0:0:0:
320,192,17271,1,0,0:0:0:0:
320,192,17521,1,0,0:0:0:0:
448,192,17521,1,0,0:0:0:0:
192,192,17771,1,0,0:0:0:0:
64,192,17771,1,0,0:0:0:0:
320,192,17896,1,0,0:0:0:0:
64,192,18021,1,0,0:0:0:0:
448,192,18021,1,0,0:0:0:0:
192,192,18271,1,0,0:0:0:0:
320,192,18271,1,0,0:0:0:0:
448,192,18521,1,0,0:0:0:0:
64,192,18521,1,0,0:0:0:0:
64,192,18771,1,0,0:0:0:0:
320,192,18771,1,0,0:0:0:0:
192,192,19021,1,0,0:0:0:0:
448,192,19021,128,0,19896:0:0:0:0:
64,192,19271,128,0,19896:0:0:0:0:
192,192,19521,128,0,19896:0:0:0:0:
320,192,19521,1,0,0:0:0:0:
320,192,19896,1,0,0:0:0:0:
64,192,20021,1,0,0:0:0:0:
192,192,20021,1,0,0:0:0:0:
448,192,20021,1,0,0:0:0:0:
320,192,20271,1,0,0:0:0:0:
192,192,20521,1,0,0:0:0:0:
448,192,20521,1,0,0:0:0:0:
64,192,20771,1,0,0:0:0:0:
320,192,20771,1,0,0:0:0:0:
192,192,21021,1,0,0:0:0:0:
448,192,21021,1,0,0:0:0:0:
320,192,21146,1,0,0:0:0:0:
192,192,21271,1,0,0:0:0:0:
64,192,21271,1,0,0:0:0:0:
320,192,21521,1,0,0:0:0:0:
192,192,21521,1,0,0:0:0:0:
320,192,21771,1,0,0:0:0:0:
448,192,21771,1,0,0:0:0:0:
192,192,21896,1,0,0:0:0:0:
64,192,22021,1,0,0:0:0:0:
448,192,22021,1,0,0:0:0:0:
192,192,22271,1,0,0:0:0:0:
320,192,22271,1,0,0:0:0:0:
320,192,22521,1,0,0:0:0:0:
448,192,22521,1,0,0:0:0:0:
192,192,22646,1,0,0:0:0:0:
64,192,22771,1,0,0:0:0:0:
448,192,22771,1,0,0:0:0:0:
192,192,23021,128,0,23896:0:0:0:0:
320,192,23021,1,0,0:0:0:0:
448,192,23271,128,0,23896:0:0:0:0:
64,192,23521,128,0,23896:0:0:0:0:
320,192,23521,1,0,0:0:0:0:
64,192,24021,1,0,0:0:0:0:
192,192,24021,1,0,0:0:0:0:
448,192,24021,1,0,0:0:0:0:
320,192,24146,1,0,0:0:0:0:
448,192,24271,1,0,0:0:0:0:
192,192,24271,1,0,0:0:0:0:
64,192,24396,1,0,0:0:0:0:
192,192,24521,1,0,0:0:0:0:
448,192,24521,1,0,0:0:0:0:
64,192,24771,1,0,0:0:0:0:
192,192,24771,1,0,0:0:0:0:
320,192,24896,1,0,0:0:0:0:
448,192,25021,1,0,0:0:0:0:
64,192,25021,1,0,0:0:0:0:
192,192,25146,1,0,0:0:0:0:
448,192,25271,1,0,0:0:0:0:
320,192,25271,1,0,0:0:0:0:
64,192,25521,1,0,0:0:0:0:
192,192,25521,1,0,0:0:0:0:
320,192,25646,1,0,0:0:0:0:
192,192,25708,1,0,0:0:0:0:
64,192,25771,1,0,0:0:0:0:
448,192,25771,1,0,0:0:0:0:
320,192,25833,1,0,0:0:0:0:
192,192,25896,1,0,0:0:0:0:
320,192,25958,1,0,0:0:0:0:
64,192,26021,1,0,0:0:0:0:
448,192,26021,1,0,0:0:0:0:
320,192,26146,1,0,0:0:0:0:
192,192,26271,1,0,0:0:0:0:
448,192,26271,1,0,0:0:0:0:
320,192,26396,1,0,0:0:0:0:
64,192,26521,1,0,0:0:0:0:
448,192,26521,1,0,0:0:0:0:
192,192,26646,1,0,0:0:0:0:
320,192,26646,1,0,0:0:0:0:
448,192,26771,1,0,0:0:0:0:
64,192,26771,1,0,0:0:0:0:
320,192,27021,128,0,27396:0:0:0:0:
192,192,27021,128,0,27396:0:0:0:0:
64,192,27271,128,0,27896:0:0:0:0:
448,192,27271,128,0,27896:0:0:0:0:
192,192,27521,128,0,27896:0:0:0:0:
320,192,27521,128,0,27896:0:0:0:0:
448,192,28021,1,0,0:0:0:0:
320,192,28021,1,0,0:0:0:0:
64,192,28021,1,0,0:0:0:0:
192,192,28271,1,0,0:0:0:0:
320,192,28521,1,0,0:0:0:0:
448,192,28521,1,0,0:0:0:0:
64,192,28771,1,0,0:0:0:0:
192,192,29021,1,0,0:0:0:0:
448,192,29021,1,0,0:0:0:0:
320,192,29271,1,0,0:0:0:0:
64,192,29521,1,0,0:0:0:0:
192,192,29521,1,0,0:0:0:0:
320,192,29771,1,0,0:0:0:0:
64,192,30021,1,0,0:0:0:0:
448,192,30021,1,0,0:0:0:0:
192,192,30271,1,0,0:0:0:0:
320,192,30521,1,0,0:0:0:0:
64,192,30521,1,0,0:0:0:0:
192,192,30771,1,0,0:0:0:0:
320,192,31021,1,0,0:0:0:0:
448,192,31021,1,0,0:0:0:0:
192,192,31271,1,0,0:0:0:0:
64,192,31521,1,0,0:0:0:0:
320,192,31521,1,0,0:0:0:0:
192,192,31771,1,0,0:0:0:0:
64,192,32021,1,0,0:0:0:0:
320,192,32021,128,0,32271:0:0:0:0:
448,192,32021,1,0,0:0:0:0:
192,192,32271,1,0,0:0:0:0:
64,192,32521,1,0,0:0:0:0:
448,192,32521,1,0,0:0:0:0:
192,192,32771,1,0,0:0:0:0:
64,192,33021,1,0,0:0:0:0:
320,192,33021,1,0,0:0:0:0:
448,192,33021,128,0,33146:0:0:0:0:
192,192,33271,1,0,0:0:0:0:
64,192,33521,1,0,0:0:0:0:
448,192,33521,1,0,0:0:0:0:
192,192,33771,1,0,0:0:0:0:
64,192,34021,1,0,0:0:0:0:
320,192,34021,1,0,0:0:0:0:
192,192,34271,1,0,0:0:0:0:
320,192,34521,1,0,0:0:0:0:
448,192,34521,1,0,0:0:0:0:
192,192,34771,128,0,35021:0:0:0:0:
320,192,34771,1,0,0:0:0:0:
64,192,35021,1,0,0:0:0:0:
448,192,35021,128,0,35271:0:0:0:0:
64,192,35521,1,0,0:0:0:0:
320,192,35521,128,0,36021:0:0:0:0:
448,192,35521,1,0,0:0:0:0:
192,192,35896,1,0,0:0:0:0:
64,192,36021,1,0,0:0:0:0:
448,192,36021,1,0,0:0:0:0:
192,192,36271,1,0,0:0:0:0:
320,192,36521,1,0,0:0:0:0:
64,192,36521,1,0,0:0:0:0:
64,192,36771,1,0,0:0:0:0:
192,192,37021,1,0,0:0:0:0:
448,192,37021,1,0,0:0:0:0:
320,192,37271,1,0,0:0:0:0:
64,192,37521,128,0,38021:0:0:0:0:
448,192,37521,1,0,0:0:0:0:
192,192,38021,1,0,0:0:0:0:
448,192,38021,1,0,0:0:0:0:
320,192,38271,1,0,0:0:0:0:
64,192,38521,1,0,0:0:0:0:
448,192,38521,1,0,0:0:0:0:
192,192,38771,1,0,0:0:0:0:
448,192,39021,1,0,0:0:0:0:
320,192,39021,128,0,39271:0:0:0:0:
64,192,39271,1,0,0:0:0:0:
192,192,39521,1,0,0:0:0:0:
448,192,39521,1,0,0:0:0:0:
320,192,39771,1,0,0:0:0:0:
64,192,40021,1,0,0:0:0:0:
448,192,40021,128,0,40271:0:0:0:0:
192,192,40271,1,0,0:0:0:0:
64,192,40521,1,0,0:0:0:0:
320,192,40521,1,0,0:0:0:0:
192,192,40771,128,0,41021:0:0:0:0:
64,192,41021,1,0,0:0:0:0:
448,192,41021,128,0,41271:0:0:0:0:
192,192,41271,1,0,0:0:0:0:
64,192,41521,1,0,0:0:0:0:
320,192,41521,128,0,41771:0:0:0:0:
192,192,41771,1,0,0:0:0:0:
64,192,42021,1,0,0:0:0:0:
320,192,42021,128,0,42771:0:0:0:0:
448,192,42271,1,0,0:0:0:0:
64,192,42521,1,0,0:0:0:0:
448,192,42646,1,0,0:0:0:0:
192,192,42771,128,0,44021:0:0:0:0:
64,192,43021,1,0,0:0:0:0:
448,192,43146,1,0,0:0:0:0:
320,192,43396,1,0,0:0:0:0:
64,192,43521,1,0,0:0:0:0:
448,192,43521,1,0,0:0:0:0:
320,192,43896,1,0,0:0:0:0:
64,192,44021,1,0,0:0:0:0:
448,192,44021,1,0,0:0:0:0:
320,192,44271,128,0,44396:0:0:0:0:
64,192,44521,1,0,0:0:0:0:
448,192,44521,1,0,0:0:0:0:
192,192,44771,1,0,0:0:0:0:
64,192,45021,1,0,0:0:0:0:
448,192,45021,1,0,0:0:0:0:
192,192,45146,1,0,0:0:0:0:
320,192,45271,1,0,0:0:0:0:
448,192,45271,128,0,45396:0:0:0:0:
64,192,45521,1,0,0:0:0:0:
320,192,45521,1,0,0:0:0:0:
192,192,45771,1,0,0:0:0:0:
448,192,45771,1,0,0:0:0:0:
320,192,45896,1,0,0:0:0:0:
448,192,46021,1,0,0:0:0:0:
64,192,46021,1,0,0:0:0:0:
192,192,46271,128,0,46396:0:0:0:0:
64,192,46521,1,0,0:0:0:0:
320,192,46521,1,0,0:0:0:0:
192,192,46771,1,0,0:0:0:0:
64,192,47021,128,0,47271:0:0:0:0:
320,192,47021,1,0,0:0:0:0:
448,192,47021,1,0,0:0:0:0:
192,192,47271,128,0,47521:0:0:0:0:
448,192,47521,1,0,0:0:0:0:
64,192,47521,1,0,0:0:0:0:
320,192,47521,128,0,47646:0:0:0:0:
320,192,47771,128,0,47896:0:0:0:0:
64,192,48021,1,0,0:0:0:0:
448,192,48021,1,0,0:0:0:0:
192,192,48146,1,0,0:0:0:0:
320,192,48271,1,0,0:0:0:0:
64,192,48271,128,0,48396:0:0:0:0:
448,192,48396,1,0,0:0:0:0:
320,192,48521,1,0,0:0:0:0:
192,192,48521,1,0,0:0:0:0:
192,192,48771,1,0,0:0:0:0:
448,192,48771,1,0,0:0:0:0:
320,192,48896,1,0,0:0:0:0:
64,192,49021,1,0,0:0:0:0:
448,192,49021,1,0,0:0:0:0:
192,192,49146,1,0,0:0:0:0:
64,192,49271,1,0,0:0:0:0:
320,192,49271,128,0,49396:0:0:0:0:
448,192,49521,1,0,0:0:0:0:
64,192,49521,1,0,0:0:0:0:
192,192,49646,1,0,0:0:0:0:
320,192,49708,1,0,0:0:0:0:
448,192,49771,1,0,0:0:0:0:
64,192,49771,1,0,0:0:0:0:
192,192,49833,1,0,0:0:0:0:
320,192,49896,1,0,0:0:0:0:
64,192,49958,1,0,0:0:0:0:
448,192,50021,1,0,0:0:0:0:
192,192,50021,1,0,0:0:0:0:
320,192,50146,1,0,0:0:0:0:
192,192,50271,1,0,0:0:0:0:
64,192,50271,128,0,50396:0:0:0:0:
320,192,50396,1,0,0:0:0:0:
448,192,50521,1,0,0:0:0:0:
192,192,50521,1,0,0:0:0:0:
192,192,50771,1,0,0:0:0:0:
320,192,50771,1,0,0:0:0:0:
64,192,51021,1,0,0:0:0:0:
448,192,51021,1,0,0:0:0:0:
192,192,51271,1,0,0:0:0:0:
320,192,51271,1,0,0:0:0:0:
192,192,51521,128,0,52021:0:0:0:0:
64,192,51521,1,0,0:0:0:0:
448,192,51521,128,0,52021:0:0:0:0:
320,192,52021,1,0,0:0:0:0:
64,192,52021,128,0,52521:0:0:0:0:
320,192,52271,1,0,0:0:0:0:
448,192,52521,1,0,0:0:0:0:
192,192,52521,1,0,0:0:0:0:
192,192,52771,1,0,0:0:0:0:
320,192,52771,1,0,0:0:0:0:
448,192,53021,1,0,0:0:0:0:
64,192,53021,1,0,0:0:0:0:
192,192,53271,1,0,0:0:0:0:
448,192,53271,1,0,0:0:0:0:
64,192,53521,1,0,0:0:0:0:
320,192,53521,1,0,0:0:0:0:
448,192,53771,1,0,0:0:0:0:
64,192,53771,1,0,0:0:0:0:
320,192,53896,1,0,0:0:0:0:
192,192,54021,1,0,0:0:0:0:
448,192,54021,1,0,0:0:0:0:
64,192,54021,128,0,54521:0:0:0:0:
320,192,54271,1,0,0:0:0:0:
192,192,54521,1,0,0:0:0:0:
448,192,54521,1,0,0:0:0:0:
192,192,54771,1,0,0:0:0:0:
64,192,54771,1,0,0:0:0:0:
320,192,55021,1,0,0:0:0:0:
448,192,55021,1,0,0:0:0:0:
320,192,55271,1,0,0:0:0:0:
64,192,55271,1,0,0:0:0:0:
448,192,55521,1,0,0:0:0:0:
192,192,55521,1,0,0:0:0:0:
448,192,55771,1,0,0:0:0:0:
64,192,55771,1,0,0:0:0:0:
320,192,55896,1,0,0:0:0:0:
192,192,56021,1,0,0:0:0:0:
448,192,56021,1,0,0:0:0:0:
64,192,56021,128,0,56521:0:0:0:0:
320,192,56271,1,0,0:0:0:0:
192,192,56521,1,0,0:0:0:0:
448,192,56521,1,0,0:0:0:0:
448,192,56771,1,0,0:0:0:0:
320,192,56771,1,0,0:0:0:0:
64,192,57021,1,0,0:0:0:0:
192,192,57021,1,0,0:0:0:0:
320,192,57146,1,0,0:0:0:0:
64,192,57271,1,0,0:0:0:0:
448,192,57271,1,0,0:0:0:0:
320,192,57521,1,0,0:0:0:0:
192,192,57521,1,0,0:0:0:0:
320,192,57771,1,0,0:0:0:0:
64,192,57771,1,0,0:0:0:0:
192,192,57896,1,0,0:0:0:0:
448,192,58021,1,0,0:0:0:0:
64,192,58021,1,0,0:0:0:0:
320,192,58146,1,0,0:0:0:0:
448,192,58271,1,0,0:0:0:0:
192,192,58271,1,0,0:0:0:0:
320,192,58521,1,0,0:0:0:0:
64,192,58521,1,0,0:0:0:0:
320,192,58771,1,0,0:0:0:0:
192,192,58771,1,0,0:0:0:0:
448,192,58896,1,0,0:0:0:0:
192,192,59021,1,0,0:0:0:0:
64,192,59021,1,0,0:0:0:0:
192,192,59271,1,0,0:0:0:0:
448,192,59271,1,0,0:0:0:0:
64,192,59521,1,0,0:0:0:0:
320,192,59521,128,0,59896:0:0:0:0:
192,192,59896,1,0,0:0:0:0:
320,192,60021,1,0,0:0:0:0:
448,192,60021,1,0,0:0:0:0:
64,192,60021,128,0,60521:0:0:0:0:
192,192,60271,1,0,0:0:0:0:
448,192,60271,1,0,0:0:0:0:
320,192,60521,1,0,0:0:0:0:
448,192,60521,1,0,0:0:0:0:
192,192,60771,1,0,0:0:0:0:
320,192,60771,1,0,0:0:0:0:
64,192,61021,1,0,0:0:0:0:
448,192,61021,1,0,0:0:0:0:
448,192,61271,1,0,0:0:0:0:
192,192,61271,1,0,0:0:0:0:
64,192,61521,1,0,0:0:0:0:
320,192,61521,128,0,61896:0:0:0:0:
64,192,61771,1,0,0:0:0:0:
448,192,61771,1,0,0:0:0:0:
192,192,61896,1,0,0:0:0:0:
448,192,62021,1,0,0:0:0:0:
64,192,62021,128,0,62521:0:0:0:0:
320,192,62271,1,0,0:0:0:0:
448,192,62521,1,0,0:0:0:0:
192,192,62521,1,0,0:0:0:0:
448,192,62771,1,0,0:0:0:0:
64,192,62771,1,0,0:0:0:0:
320,192,63021,1,0,0:0:0:0:
192,192,63021,1,0,0:0:0:0:
320,192,63271,1,0,0:0:0:0:
64,192,63271,1,0,0:0:0:0:
192,192,63521,1,0,0:0:0:0:
448,192,63521,1,0,0:0:0:0:
192,192,63771,1,0,0:0:0:0:
320,192,63771,1,0,0:0:0:0:
64,192,64021,128,0,64521:0:0:0:0:
448,192,64021,1,0,0:0:0:0:
320,192,64271,1,0,0:0:0:0:
448,192,64271,1,0,0:0:0:0:
192,192,64521,1,0,0:0:0:0:
448,192,64521,1,0,0:0:0:0:
320,192,64646,1,0,0:0:0:0:
64,192,64771,1,0,0:0:0:0:
448,192,64771,1,0,0:0:0:0:
192,192,64896,1,0,0:0:0:0:
64,192,65021,1,0,0:0:0:0:
448,192,65021,1,0,0:0:0:0:
320,192,65146,1,0,0:0:0:0:
192,192,65271,1,0,0:0:0:0:
64,192,65271,1,0,0:0:0:0:
64,192,65521,1,0,0:0:0:0:
320,192,65521,1,0,0:0:0:0:
192,192,65771,1,0,0:0:0:0:
448,192,65771,1,0,0:0:0:0:
320,192,66021,1,0,0:0:0:0:
320,192,66271,1,0,0:0:0:0:
320,192,66521,1,0,0:0:0:0:
320,192,66771,1,0,0:0:0:0:
192,192,67021,1,0,0:0:0:0:
64,192,67271,1,0,0:0:0:0:
192,192,67521,1,0,0:0:0:0:
320,192,67771,1,0,0:0:0:0:
448,192,68021,1,0,0:0:0:0:
64,192,68021,128,0,68146:0:0:0:0:
320,192,68521,1,0,0:0:0:0:
64,192,68521,128,0,68646:0:0:0:0:
192,192,69021,128,0,69146:0:0:0:0:
448,192,69021,1,0,0:0:0:0:
192,192,69521,128,0,69646:0:0:0:0:
448,192,69521,1,0,0:0:0:0:
320,192,70021,128,0,70146:0:0:0:0:
64,192,70021,1,0,0:0:0:0:
64,192,70521,1,0,0:0:0:0:
320,192,70521,128,0,70646:0:0:0:0:
192,192,71021,1,0,0:0:0:0:
448,192,71021,128,0,71146:0:0:0:0:
448,192,71521,128,0,71646:0:0:0:0:
192,192,71521,1,0,0:0:0:0:
320,192,72021,128,0,72146:0:0:0:0:
64,192,72021,1,0,0:0:0:0:
64,192,72521,1,0,0:0:0:0:
320,192,72521,128,0,72646:0:0:0:0:
192,192,73021,128,0,73146:0:0:0:0:
64,192,73021,1,0,0:0:0:0:
192,192,73521,128,0,73646:0:0:0:0:
64,192,73521,1,0,0:0:0:0:
64,192,74021,128,0,74146:0:0:0:0:
448,192,74021,1,0,0:0:0:0:
448,192,74521,1,0,0:0:0:0:
64,192,74521,128,0,74646:0:0:0:0:
320,192,74771,1,0,0:0:0:0:
448,192,75021,1,0,0:0:0:0:
192,192,75021,128,0,75146:0:0:0:0:
320,192,75271,1,0,0:0:0:0:
192,192,75521,128,0,75646:0:0:0:0:
448,192,75521,1,0,0:0:0:0:
320,192,75771,1,0,0:0:0:0:
448,192,76021,1,0,0:0:0:0:
64,192,76021,128,0,76146:0:0:0:0:
320,192,76021,1,0,0:0:0:0:
192,192,76271,1,0,0:0:0:0:
64,192,76521,128,0,76646:0:0:0:0:
448,192,76521,1,0,0:0:0:0:
192,192,76771,1,0,0:0:0:0:
320,192,76896,1,0,0:0:0:0:
192,192,77021,128,0,77146:0:0:0:0:
448,192,77021,1,0,0:0:0:0:
64,192,77146,1,0,0:0:0:0:
320,192,77271,1,0,0:0:0:0:
192,192,77521,128,0,77646:0:0:0:0:
448,192,77521,1,0,0:0:0:0:
320,192,77771,1,0,0:0:0:0:
320,192,78021,128,0,78146:0:0:0:0:
64,192,78021,1,0,0:0:0:0:
192,192,78271,1,0,0:0:0:0:
320,192,78521,128,0,78646:0:0:0:0:
64,192,78521,1,0,0:0:0:0:
192,192,78771,1,0,0:0:0:0:
448,192,79021,128,0,79146:0:0:0:0:
64,192,79021,1,0,0:0:0:0:
320,192,79146,1,0,0:0:0:0:
192,192,79271,1,0,0:0:0:0:
448,192,79521,128,0,79646:0:0:0:0:
64,192,79521,1,0,0:0:0:0:
320,192,79771,1,0,0:0:0:0:
448,192,80021,128,0,80146:0:0:0:0:
64,192,80021,1,0,0:0:0:0:
320,192,80271,1,0,0:0:0:0:
320,192,80521,128,0,80646:0:0:0:0:
64,192,80521,1,0,0:0:0:0:
448,192,80646,1,0,0:0:0:0:
64,192,80771,1,0,0:0:0:0:
448,192,80896,1,0,0:0:0:0:
192,192,81021,128,0,81146:0:0:0:0:
64,192,81021,1,0,0:0:0:0:
320,192,81146,1,0,0:0:0:0:
448,192,81271,1,0,0:0:0:0:
192,192,81396,1,0,0:0:0:0:
64,192,81521,128,0,81646:0:0:0:0:
448,192,81521,1,0,0:0:0:0:
320,192,81521,128,0,82021:0:0:0:0:
192,192,81646,1,0,0:0:0:0:
448,192,81771,1,0,0:0:0:0:
64,192,81896,1,0,0:0:0:0:
192,192,82021,1,0,0:0:0:0:
448,192,82021,1,0,0:0:0:0:
320,192,82146,1,0,0:0:0:0:
192,192,82271,1,0,0:0:0:0:
64,192,82396,1,0,0:0:0:0:
448,192,82521,1,0,0:0:0:0:
320,192,82646,1,0,0:0:0:0:
192,192,82771,1,0,0:0:0:0:
320,192,82896,1,0,0:0:0:0:
448,192,83021,1,0,0:0:0:0:
64,192,83021,1,0,0:0:0:0:
192,192,83021,1,0,0:0:0:0:
320,192,83146,1,0,0:0:0:0:
448,192,83271,1,0,0:0:0:0:
192,192,83271,1,0,0:0:0:0:
64,192,83271,1,0,0:0:0:0:
320,192,83396,1,0,0:0:0:0:
64,192,83521,1,0,0:0:0:0:
192,192,83521,1,0,0:0:0:0:
448,192,83521,1,0,0:0:0:0:
320,192,83646,1,0,0:0:0:0:
448,192,83771,1,0,0:0:0:0:
64,192,83771,1,0,0:0:0:0:
192,192,83896,1,0,0:0:0:0:
64,192,84021,1,0,0:0:0:0:
448,192,84021,1,0,0:0:0:0:
320,192,84021,1,0,0:0:0:0:
192,192,84271,1,0,0:0:0:0:
64,192,84521,1,0,0:0:0:0:
448,192,84521,1,0,0:0:0:0:
320,192,84771,1,0,0:0:0:0:
64,192,85021,1,0,0:0:0:0:
320,192,85021,1,0,0:0:0:0:
192,192,85271,1,0,0:0:0:0:
64,192,85521,1,0,0:0:0:0:
448,192,85521,1,0,0:0:0:0:
320,192,85771,1,0,0:0:0:0:
64,192,86021,1,0,0:0:0:0:
448,192,86021,1,0,0:0:0:0:
192,192,86271,1,0,0:0:0:0:
320,192,86521,1,0,0:0:0:0:
64,192,86521,1,0,0:0:0:0:
192,192,86771,1,0,0:0:0:0:
320,192,87021,128,0,87146:0:0:0:0:
448,192,87021,1,0,0:0:0:0:
64,192,87021,1,0,0:0:0:0:
320,192,87271,128,0,87396:0:0:0:0:
192,192,87271,1,0,0:0:0:0:
320,192,87521,128,0,87646:0:0:0:0:
448,192,87521,1,0,0:0:0:0:
64,192,87521,1,0,0:0:0:0:
192,192,87646,128,0,87771:0:0:0:0:
448,192,87771,128,0,87896:0:0:0:0:
320,192,87896,128,0,88021:0:0:0:0:
192,192,88021,128,0,88146:0:0:0:0:
64,192,88021,1,0,0:0:0:0:
320,192,88271,1,0,0:0:0:0:
64,192,88521,1,0,0:0:0:0:
192,192,88521,1,0,0:0:0:0:
320,192,88771,1,0,0:0:0:0:
192,192,89021,1,0,0:0:0:0:
448,192,89021,1,0,0:0:0:0:
64,192,89271,1,0,0:0:0:0:
192,192,89521,1,0,0:0:0:0:
320,192,89521,1,0,0:0:0:0:
320,192,89771,1,0,0:0:0:0:
64,192,90021,1,0,0:0:0:0:
448,192,90021,1,0,0:0:0:0:
320,192,90271,1,0,0:0:0:0:
192,192,90521,128,0,90771:0:0:0:0:
448,192,90521,1,0,0:0:0:0:
64,192,90521,1,0,0:0:0:0:
320,192,90771,128,0,91021:0:0:0:0:
448,192,91021,128,0,91521:0:0:0:0:
64,192,91021,1,0,0:0:0:0:
192,192,91021,128,0,91271:0:0:0:0:
320,192,91271,128,0,91521:0:0:0:0:
64,192,91521,128,0,91771:0:0:0:0:
192,192,91521,1,0,0:0:0:0:
192,192,91771,128,0,92021:0:0:0:0:
448,192,92021,128,0,92521:0:0:0:0:
320,192,92021,1,0,0:0:0:0:
64,192,92021,1,0,0:0:0:0:
192,192,92271,1,0,0:0:0:0:
64,192,92521,1,0,0:0:0:0:
320,192,92521,1,0,0:0:0:0:
192,192,92771,1,0,0:0:0:0:
448,192,93021,1,0,0:0:0:0:
64,192,93021,1,0,0:0:0:0:
192,192,93271,1,0,0:0:0:0:
320,192,93521,1,0,0:0:0:0:
448,192,93521,1,0,0:0:0:0:
192,192,93771,1,0,0:0:0:0:
64,192,94021,1,0,0:0:0:0:
320,192,94021,1,0,0:0:0:0:
192,192,94271,1,0,0:0:0:0:
448,192,94521,1,0,0:0:0:0:
64,192,94521,1,0,0:0:0:0:
192,192,94771,1,0,0:0:0:0:
320,192,95021,128,0,95146:0:0:0:0:
448,192,95021,1,0,0:0:0:0:
64,192,95021,1,0,0:0:0:0:
64,192,95271,128,0,95396:0:0:0:0:
448,192,95271,1,0,0:0:0:0:
192,192,95521,1,0,0:0:0:0:
448,192,95521,128,0,95646:0:0:0:0:
64,192,95646,128,0,95771:0:0:0:0:
320,192,95771,128,0,95896:0:0:0:0:
192,192,95896,128,0,96021:0:0:0:0:
64,192,96021,1,0,0:0:0:0:
448,192,96021,128,0,96146:0:0:0:0:
192,192,96271,1,0,0:0:0:0:
320,192,96521,1,0,0:0:0:0:
448,192,96521,1,0,0:0:0:0:
64,192,96771,1,0,0:0:0:0:
192,192,97021,1,0,0:0:0:0:
448,192,97021,1,0,0:0:0:0:
320,192,97271,1,0,0:0:0:0:
64,192,97521,1,0,0:0:0:0:
192,192,97521,1,0,0:0:0:0:
320,192,97771,1,0,0:0:0:0:
64,192,98021,1,0,0:0:0:0:
448,192,98021,1,0,0:0:0:0:
192,192,98146,1,0,0:0:0:0:
320,192,98271,1,0,0:0:0:0:
64,192,98521,1,0,0:0:0:0:
448,192,98521,1,0,0:0:0:0:
192,192,98646,1,0,0:0:0:0:
320,192,98771,1,0,0:0:0:0:
192,192,98896,1,0,0:0:0:0:
64,192,99021,1,0,0:0:0:0:
448,192,99021,128,0,100021:0:0:0:0:
320,192,99021,1,0,0:0:0:0:
64,192,99271,1,0,0:0:0:0:
192,192,99396,1,0,0:0:0:0:
320,192,99521,1,0,0:0:0:0:
64,192,99521,1,0,0:0:0:0:
192,192,99646,1,0,0:0:0:0:
320,192,99771,1,0,0:0:0:0:
192,192,99896,1,0,0:0:0:0:
64,192,100021,1,0,0:0:0:0:
320,192,100021,1,0,0:0:0:0:
320,192,100271,1,0,0:0:0:0:
192,192,100521,1,0,0:0:0:0:
448,192,100521,1,0,0:0:0:0:
64,192,100771,1,0,0:0:0:0:
192,192,101021,1,0,0:0:0:0:
448,192,101021,1,0,0:0:0:0:
320,192,101271,1,0,0:0:0:0:
64,192,101521,1,0,0:0:0:0:
192,192,101521,1,0,0:0:0:0:
448,192,101771,1,0,0:0:0:0:
64,192,102021,1,0,0:0:0:0:
320,192,102021,1,0,0:0:0:0:
192,192,102271,1,0,0:0:0:0:
320,192,102521,1,0,0:0:0:0:
448,192,102521,1,0,0:0:0:0:
192,192,102771,1,0,0:0:0:0:
320,192,103021,128,0,103146:0:0:0:0:
64,192,103021,1,0,0:0:0:0:
448,192,103021,1,0,0:0:0:0:
320,192,103271,128,0,103396:0:0:0:0:
192,192,103271,1,0,0:0:0:0:
192,192,103521,128,0,103646:0:0:0:0:
448,192,103521,1,0,0:0:0:0:
64,192,103521,1,0,0:0:0:0:
320,192,103646,128,0,103771:0:0:0:0:
64,192,103771,128,0,103896:0:0:0:0:
320,192,103896,128,0,104021:0:0:0:0:
192,192,104021,128,0,104146:0:0:0:0:
448,192,104021,1,0,0:0:0:0:
320,192,104271,1,0,0:0:0:0:
64,192,104521,1,0,0:0:0:0:
448,192,104521,1,0,0:0:0:0:
192,192,104771,1,0,0:0:0:0:
320,192,105021,1,0,0:0:0:0:
448,192,105021,1,0,0:0:0:0:
64,192,105271,1,0,0:0:0:0:
192,192,105521,1,0,0:0:0:0:
448,192,105521,1,0,0:0:0:0:
320,192,105771,1,0,0:0:0:0:
64,192,106021,1,0,0:0:0:0:
192,192,106021,1,0,0:0:0:0:
320,192,106271,1,0,0:0:0:0:
64,192,106521,128,0,106771:0:0:0:0:
192,192,106521,1,0,0:0:0:0:
448,192,106521,1,0,0:0:0:0:
192,192,106771,128,0,107021:0:0:0:0:
320,192,107021,128,0,107521:0:0:0:0:
448,192,107021,1,0,0:0:0:0:
64,192,107271,128,0,107521:0:0:0:0:
192,192,107521,128,0,107771:0:0:0:0:
448,192,107521,1,0,0:0:0:0:
320,192,107771,128,0,108021:0:0:0:0:
64,192,108021,1,0,0:0:0:0:
192,192,108021,1,0,0:0:0:0:
448,192,108021,128,0,108521:0:0:0:0:
320,192,108271,1,0,0:0:0:0:
64,192,108521,1,0,0:0:0:0:
192,192,108521,1,0,0:0:0:0:
448,192,108771,1,0,0:0:0:0:
64,192,109021,1,0,0:0:0:0:
320,192,109021,1,0,0:0:0:0:
192,192,109271,1,0,0:0:0:0:
320,192,109521,1,0,0:0:0:0:
448,192,109521,1,0,0:0:0:0:
192,192,109771,1,0,0:0:0:0:
64,192,110021,1,0,0:0:0:0:
320,192,110021,1,0,0:0:0:0:
448,192,110271,1,0,0:0:0:0:
64,192,110521,1,0,0:0:0:0:
192,192,110521,1,0,0:0:0:0:
320,192,110771,1,0,0:0:0:0:
448,192,111021,1,0,0:0:0:0:
192,192,111021,128,0,111146:0:0:0:0:
448,192,111271,128,0,111396:0:0:0:0:
64,192,111521,1,0,0:0:0:0:
320,192,111521,128,0,111646:0:0:0:0:
192,192,111646,128,0,111771:0:0:0:0:
448,192,111771,128,0,111896:0:0:0:0:
64,192,111771,1,0,0:0:0:0:
320,192,111896,128,0,112021:0:0:0:0:
192,192,112021,128,0,112146:0:0:0:0:
64,192,112021,1,0,0:0:0:0:
448,192,112271,1,0,0:0:0:0:
320,192,112521,1,0,0:0:0:0:
64,192,112521,1,0,0:0:0:0:
192,192,112771,1,0,0:0:0:0:
320,192,113021,1,0,0:0:0:0:
448,192,113021,1,0,0:0:0:0:
192,192,113271,1,0,0:0:0:0:
64,192,113521,1,0,0:0:0:0:
320,192,113521,1,0,0:0:0:0:
192,192,113771,1,0,0:0:0:0:
448,192,113771,1,0,0:0:0:0:
320,192,114021,1,0,0:0:0:0:
64,192,114021,1,0,0:0:0:0:
192,192,114271,1,0,0:0:0:0:
64,192,114521,1,0,0:0:0:0:
320,192,114521,1,0,0:0:0:0:
448,192,114521,1,0,0:0:0:0:
320,192,114771,1,0,0:0:0:0:
64,192,115021,1,0,0:0:0:0:
192,192,115021,1,0,0:0:0:0:
448,192,115021,1,0,0:0:0:0:
320,192,115146,1,0,0:0:0:0:
192,192,115271,1,0,0:0:0:0:
448,192,115271,1,0,0:0:0:0:
64,192,115271,1,0,0:0:0:0:
64,192,115521,1,0,0:0:0:0:
448,192,115521,1,0,0:0:0:0:
320,192,115521,1,0,0:0:0:0:
192,192,115771,1,0,0:0:0:0:
448,192,115771,1,0,0:0:0:0:
320,192,115896,1,0,0:0:0:0:
64,192,116021,1,0,0:0:0:0:
192,192,116146,1,0,0:0:0:0:
320,192,116271,1,0,0:0:0:0:
64,192,116396,1,0,0:0:0:0:
448,192,116521,1,0,0:0:0:0:
192,192,116521,1,0,0:0:0:0:
320,192,116646,1,0,0:0:0:0:
192,192,116771,1,0,0:0:0:0:
64,192,116896,1,0,0:0:0:0:
192,192,117021,1,0,0:0:0:0:
448,192,117021,1,0,0:0:0:0:
320,192,117146,1,0,0:0:0:0:
192,192,117271,1,0,0:0:0:0:
320,192,117396,1,0,0:0:0:0:
448,192,117521,1,0,0:0:0:0:
64,192,117521,1,0,0:0:0:0:
192,192,117646,1,0,0:0:0:0:
320,192,117771,1,0,0:0:0:0:
448,192,117896,1,0,0:0:0:0:
320,192,118021,1,0,0:0:0:0:
64,192,118021,1,0,0:0:0:0:
192,192,118146,1,0,0:0:0:0:
320,192,118271,1,0,0:0:0:0:
192,192,118396,1,0,0:0:0:0:
320,192,118521,1,0,0:0:0:0:
64,192,118521,1,0,0:0:0:0:
448,192,118646,1,0,0:0:0:0:
192,192,118771,1,0,0:0:0:0:
320,192,118896,1,0,0:0:0:0:
448,192,119021,1,0,0:0:0:0:
64,192,119021,1,0,0:0:0:0:
192,192,119146,1,0,0:0:0:0:
320,192,119271,1,0,0:0:0:0:
192,192,119396,1,0,0:0:0:0:
64,192,119521,1,0,0:0:0:0:
448,192,119521,1,0,0:0:0:0:
320,192,119646,1,0,0:0:0:0:
192,192,119771,1,0,0:0:0:0:
64,192,119896,1,0,0:0:0:0:
192,192,120021,1,0,0:0:0:0:
448,192,120021,1,0,0:0:0:0:
64,192,120271,1,0,0:0:0:0:
192,192,120396,1,0,0:0:0:0:
320,192,120521,1,0,0:0:0:0:
448,192,120521,1,0,0:0:0:0:
192,192,120771,1,0,0:0:0:0:
448,192,121021,1,0,0:0:0:0:
64,192,121021,1,0,0:0:0:0:
192,192,121021,1,0,0:0:0:0:
320,192,121146,1,0,0:0:0:0:
192,192,121271,1,0,0:0:0:0:
64,192,121521,1,0,0:0:0:0:
320,192,121521,1,0,0:0:0:0:
448,192,121771,1,0,0:0:0:0:
64,192,122021,1,0,0:0:0:0:
320,192,122021,1,0,0:0:0:0:
192,192,122146,1,0,0:0:0:0:
64,192,122271,1,0,0:0:0:0:
192,192,122396,1,0,0:0:0:0:
320,192,122521,1,0,0:0:0:0:
448,192,122521,1,0,0:0:0:0:
192,192,122646,1,0,0:0:0:0:
320,192,122771,1,0,0:0:0:0:
192,192,122896,1,0,0:0:0:0:
320,192,123021,1,0,0:0:0:0:
64,192,123021,1,0,0:0:0:0:
448,192,123146,1,0,0:0:0:0:
320,192,123271,1,0,0:0:0:0:
448,192,123396,1,0,0:0:0:0:
64,192,123521,1,0,0:0:0:0:
192,192,123521,1,0,0:0:0:0:
448,192,123646,1,0,0:0:0:0:
320,192,123771,1,0,0:0:0:0:
192,192,123896,1,0,0:0:0:0:
64,192,124021,1,0,0:0:0:0:
448,192,124021,1,0,0:0:0:0:
320,192,124021,1,0,0:0:0:0:
192,192,124146,1,0,0:0:0:0:
64,192,124271,1,0,0:0:0:0:
192,192,124396,1,0,0:0:0:0:
320,192,124521,1,0,0:0:0:0:
448,192,124521,1,0,0:0:0:0:
320,192,124771,1,0,0:0:0:0:
320,192,125021,1,0,0:0:0:0:
448,192,125021,1,0,0:0:0:0:
64,192,125021,1,0,0:0:0:0:
192,192,125146,1,0,0:0:0:0:
320,192,125271,1,0,0:0:0:0:
64,192,125521,1,0,0:0:0:0:
448,192,125521,1,0,0:0:0:0:
192,192,125771,1,0,0:0:0:0:
64,192,126021,1,0,0:0:0:0:
320,192,126021,1,0,0:0:0:0:
448,192,126021,1,0,0:0:0:0:
320,192,126271,1,0,0:0:0:0:
448,192,126521,1,0,0:0:0:0:
192,192,126521,1,0,0:0:0:0:
320,192,126646,1,0,0:0:0:0:
192,192,126771,1,0,0:0:0:0:
64,192,126896,1,0,0:0:0:0:
192,192,127021,1,0,0:0:0:0:
320,192,127021,1,0,0:0:0:0:
448,192,127021,1,0,0:0:0:0:
192,192,127271,1,0,0:0:0:0:
448,192,127396,1,0,0:0:0:0:
64,192,127521,1,0,0:0:0:0:
192,192,127521,1,0,0:0:0:0:
192,192,127771,1,0,0:0:0:0:
320,192,127771,1,0,0:0:0:0:
64,192,128021,1,0,0:0:0:0:
192,192,128021,1,0,0:0:0:0:
448,192,128021,1,0,0:0:0:0:
320,192,128146,1,0,0:0:0:0:
192,192,128271,1,0,0:0:0:0:
320,192,128396,1,0,0:0:0:0:
448,192,128521,1,0,0:0:0:0:
192,192,128521,1,0,0:0:0:0:
320,192,128771,1,0,0:0:0:0:
64,192,129021,1,0,0:0:0:0:
192,192,129021,1,0,0:0:0:0:
448,192,129021,1,0,0:0:0:0:
320,192,129146,1,0,0:0:0:0:
192,192,129271,1,0,0:0:0:0:
64,192,129396,1,0,0:0:0:0:
320,192,129396,1,0,0:0:0:0:
192,192,129521,1,0,0:0:0:0:
448,192,129521,1,0,0:0:0:0:
320,192,129771,1,0,0:0:0:0:
192,192,129771,1,0,0:0:0:0:
64,192,130021,1,0,0:0:0:0:
192,192,130021,1,0,0:0:0:0:
448,192,130021,1,0,0:0:0:0:
320,192,130146,1,0,0:0:0:0:
192,192,130271,1,0,0:0:0:0:
64,192,130396,1,0,0:0:0:0:
448,192,130521,128,0,130646:0:0:0:0:
320,192,130646,128,0,130771:0:0:0:0:
192,192,130771,128,0,130896:0:0:0:0:
64,192,130896,128,0,131021:0:0:0:0:
320,192,131021,1,0,0:0:0:0:
448,192,131021,128,0,131271:0:0:0:0:
192,192,131271,1,0,0:0:0:0:
320,192,131271,128,0,131521:0:0:0:0:
64,192,131521,1,0,0:0:0:0:
192,192,131521,128,0,132021:0:0:0:0:
64,192,132021,1,0,0:0:0:0:
448,192,132021,128,0,132146:0:0:0:0:
320,192,132146,128,0,132271:0:0:0:0:
192,192,132271,128,0,132396:0:0:0:0:
64,192,132396,128,0,132521:0:0:0:0:
448,192,132521,128,0,132646:0:0:0:0:
192,192,132646,128,0,132771:0:0:0:0:
320,192,132771,128,0,132896:0:0:0:0:
64,192,132896,128,0,133021:0:0:0:0:
448,192,133021,128,0,133146:0:0:0:0:
320,192,133146,128,0,133271:0:0:0:0:
192,192,133271,128,0,133396:0:0:0:0:
64,192,133396,128,0,133521:0:0:0:0:
448,192,133521,128,0,133646:0:0:0:0:
192,192,133646,128,0,133771:0:0:0:0:
320,192,133771,128,0,133896:0:0:0:0:
64,192,133896,128,0,134021:0:0:0:0:
448,192,134021,128,0,134146:0:0:0:0:
320,192,134146,128,0,134271:0:0:0:0:
192,192,134271,128,0,134396:0:0:0:0:
64,192,134396,128,0,134521:0:0:0:0:
448,192,134521,128,0,134646:0:0:0:0:
192,192,134646,128,0,134771:0:0:0:0:
320,192,134771,128,0,134896:0:0:0:0:
64,192,134896,128,0,135021:0:0:0:0:
448,192,135021,128,0,135771:0:0:0:0:
320,192,135271,128,0,135896:0:0:0:0:
192,192,135521,128,0,136021:0:0:0:0:
64,192,135771,128,0,136146:0:0:0:0:
448,192,136021,128,0,136146:0:0:0:0:
320,192,136146,128,0,136271:0:0:0:0:
192,192,136271,128,0,136396:0:0:0:0:
64,192,136396,128,0,136521:0:0:0:0:
448,192,136521,128,0,136646:0:0:0:0:
320,192,136646,128,0,136771:0:0:0:0:
192,192,136771,128,0,136896:0:0:0:0:
64,192,136896,128,0,137021:0:0:0:0:
448,192,137021,128,0,137146:0:0:0:0:
192,192,137146,128,0,137271:0:0:0:0:
320,192,137271,128,0,137396:0:0:0:0:
64,192,137396,128,0,137521:0:0:0:0:
192,192,137521,128,0,137646:0:0:0:0:
320,192,137646,128,0,137771:0:0:0:0:
448,192,137771,128,0,137896:0:0:0:0:
64,192,137896,128,0,138021:0:0:0:0:
320,192,138021,128,0,138146:0:0:0:0:
192,192,138146,128,0,138271:0:0:0:0:
448,192,138271,128,0,138396:0:0:0:0:
64,192,138396,128,0,138521:0:0:0:0:
320,192,138521,128,0,138646:0:0:0:0:
192,192,138646,128,0,138771:0:0:0:0:
448,192,138771,128,0,138896:0:0:0:0:
64,192,138896,128,0,139021:0:0:0:0:
320,192,139021,128,0,139271:0:0:0:0:
192,192,139146,128,0,139396:0:0:0:0:
448,192,139271,128,0,139521:0:0:0:0:
64,192,139396,128,0,139646:0:0:0:0:
320,192,139521,128,0,139771:0:0:0:0:
192,192,139646,128,0,139896:0:0:0:0:
448,192,139771,128,0,140021:0:0:0:0:
64,192,139896,128,0,140271:0:0:0:0:
320,192,140021,128,0,140521:0:0:0:0:
192,192,140271,128,0,140521:0:0:0:0:
448,192,140396,128,0,140646:0:0:0:0:
64,192,140521,128,0,140771:0:0:0:0:
320,192,140646,128,0,140896:0:0:0:0:
192,192,140771,128,0,141021:0:0:0:0:
64,192,141021,128,0,141146:0:0:0:0:
320,192,141146,128,0,141271:0:0:0:0:
192,192,141271,128,0,141396:0:0:0:0:
448,192,141396,128,0,141521:0:0:0:0:
64,192,141521,128,0,141646:0:0:0:0:
320,192,141646,128,0,141771:0:0:0:0:
192,192,141771,128,0,141896:0:0:0:0:
448,192,141896,128,0,142021:0:0:0:0:
64,192,142021,128,0,142146:0:0:0:0:
192,192,142271,128,0,142396:0:0:0:0:
320,192,142396,128,0,142521:0:0:0:0:
448,192,142521,128,0,143021:0:0:0:0:
64,192,142771,128,0,143021:0:0:0:0:
192,192,143021,128,0,143521:0:0:0:0:
64,192,143271,128,0,143521:0:0:0:0:
448,192,143521,128,0,143646:0:0:0:0:
320,192,143646,128,0,143771:0:0:0:0:
192,192,143771,128,0,143896:0:0:0:0:
64,192,143896,128,0,144021:0:0:0:0:
448,192,144021,128,0,144396:0:0:0:0:
64,192,144521,128,0,144646:0:0:0:0:
320,192,144646,128,0,144771:0:0:0:0:
192,192,144771,128,0,144896:0:0:0:0:
448,192,144896,128,0,145021:0:0:0:0:
64,192,145021,128,0,145521:0:0:0:0:
320,192,145271,128,0,145771:0:0:0:0:
192,192,145521,128,0,146021:0:0:0:0:
448,192,145771,128,0,146021:0:0:0:0:
64,192,146021,128,0,146146:0:0:0:0:
320,192,146146,128,0,146271:0:0:0:0:
192,192,146271,128,0,146521:0:0:0:0:
64,192,146521,128,0,146771:0:0:0:0:
192,192,146771,128,0,146896:0:0:0:0:
320,192,146896,128,0,147021:0:0:0:0:
448,192,147021,128,0,147521:0:0:0:0:
64,192,147021,128,0,147271:0:0:0:0:
192,192,147271,128,0,147521:0:0:0:0:
320,192,147521,128,0,148021:0:0:0:0:
64,192,148021,128,0,148271:0:0:0:0:
448,192,148521,1,0,0:0:0:0:
64,192,148771,1,0,0:0:0:0:
320,192,148896,1,0,0:0:0:0:
192,192,149021,128,0,149271:0:0:0:0:
320,192,149521,1,0,0:0:0:0:
64,192,149646,1,0,0:0:0:0:
448,192,149771,1,0,0:0:0:0:
192,192,149896,1,0,0:0:0:0:
64,192,150021,1,0,0:0:0:0:
320,192,150021,128,0,150271:0:0:0:0:
192,192,150271,1,0,0:0:0:0:
448,192,150521,1,0,0:0:0:0:
64,192,150771,1,0,0:0:0:0:
320,192,150896,1,0,0:0:0:0:
192,192,151021,128,0,151271:0:0:0:0:
64,192,151146,1,0,0:0:0:0:
448,192,151271,1,0,0:0:0:0:
64,192,151521,1,0,0:0:0:0:
320,192,151646,1,0,0:0:0:0:
448,192,151771,1,0,0:0:0:0:
64,192,151896,1,0,0:0:0:0:
192,192,152021,1,0,0:0:0:0:
320,192,152021,128,0,152271:0:0:0:0:
192,192,152271,1,0,0:0:0:0:
448,192,152521,1,0,0:0:0:0:
64,192,152771,1,0,0:0:0:0:
320,192,152896,1,0,0:0:0:0:
192,192,153021,128,0,153271:0:0:0:0:
448,192,153146,1,0,0:0:0:0:
320,192,153271,1,0,0:0:0:0:
448,192,153521,1,0,0:0:0:0:
64,192,153646,1,0,0:0:0:0:
320,192,153771,1,0,0:0:0:0:
192,192,153896,1,0,0:0:0:0:
64,192,154021,1,0,0:0:0:0:
448,192,154021,128,0,154271:0:0:0:0:
192,192,154271,1,0,0:0:0:0:
448,192,154521,1,0,0:0:0:0:
192,192,154771,1,0,0:0:0:0:
320,192,154896,1,0,0:0:0:0:
64,192,155021,128,0,155271:0:0:0:0:
192,192,155146,1,0,0:0:0:0:
448,192,155271,1,0,0:0:0:0:
192,192,155521,1,0,0:0:0:0:
320,192,155646,1,0,0:0:0:0:
192,192,155771,1,0,0:0:0:0:
320,192,155896,1,0,0:0:0:0:
192,192,156021,1,0,0:0:0:0:
64,192,156021,128,0,156271:0:0:0:0:
320,192,156271,1,0,0:0:0:0:
448,192,156521,1,0,0:0:0:0:
64,192,156771,1,0,0:0:0:0:
320,192,156896,1,0,0:0:0:0:
192,192,157021,128,0,157271:0:0:0:0:
320,192,157146,1,0,0:0:0:0:
448,192,157271,1,0,0:0:0:0:
64,192,157521,1,0,0:0:0:0:
320,192,157646,1,0,0:0:0:0:
64,192,157771,1,0,0:0:0:0:
320,192,157896,1,0,0:0:0:0:
192,192,158021,1,0,0:0:0:0:
448,192,158021,128,0,158271:0:0:0:0:
192,192,158271,1,0,0:0:0:0:
64,192,158521,1,0,0:0:0:0:
320,192,158771,1,0,0:0:0:0:
448,192,158896,1,0,0:0:0:0:
192,192,159021,128,0,159271:0:0:0:0:
320,192,159146,1,0,0:0:0:0:
448,192,159271,1,0,0:0:0:0:
64,192,159521,1,0,0:0:0:0:
448,192,159646,1,0,0:0:0:0:
64,192,159771,1,0,0:0:0:0:
448,192,159896,1,0,0:0:0:0:
192,192,160021,128,0,160271:0:0:0:0:
320,192,160021,1,0,0:0:0:0:
320,192,160271,1,0,0:0:0:0:
448,192,160521,1,0,0:0:0:0:
64,192,160771,1,0,0:0:0:0:
192,192,160896,1,0,0:0:0:0:
320,192,161021,128,0,161271:0:0:0:0:
64,192,161146,1,0,0:0:0:0:
192,192,161271,1,0,0:0:0:0:
64,192,161521,1,0,0:0:0:0:
320,192,161646,1,0,0:0:0:0:
192,192,161771,1,0,0:0:0:0:
448,192,161896,1,0,0:0:0:0:
320,192,162021,1,0,0:0:0:0:
64,192,162021,128,0,162271:0:0:0:0:
448,192,162521,1,0,0:0:0:0:
64,192,162521,128,0,163021:0:0:0:0:
320,192,162771,128,0,163021:0:0:0:0:
448,192,163021,128,0,163771:0:0:0:0:
64,192,163521,128,0,163771:0:0:0:0:
192,192,163771,1,0,0:0:0:0:
320,192,163896,1,0,0:0:0:0:
448,192,164021,1,0,0:0:0:0:
64,192,164021,1,0,0:0:0:0:
320,192,164271,1,0,0:0:0:0:
64,192,164521,1,0,0:0:0:0:
448,192,164521,1,0,0:0:0:0:
192,192,164771,1,0,0:0:0:0:
64,192,165021,1,0,0:0:0:0:
320,192,165021,1,0,0:0:0:0:
448,192,165021,1,0,0:0:0:0:
192,192,165271,1,0,0:0:0:0:
448,192,165521,128,0,166021:0:0:0:0:
64,192,165521,1,0,0:0:0:0:
320,192,165521,1,0,0:0:0:0:
192,192,165646,1,0,0:0:0:0:
320,192,165771,1,0,0:0:0:0:
192,192,165896,1,0,0:0:0:0:
64,192,166021,1,0,0:0:0:0:
320,192,166021,1,0,0:0:0:0:
192,192,166271,1,0,0:0:0:0:
320,192,166521,1,0,0:0:0:0:
448,192,166521,1,0,0:0:0:0:
192,192,166771,1,0,0:0:0:0:
320,192,166896,1,0,0:0:0:0:
64,192,167021,1,0,0:0:0:0:
192,192,167021,1,0,0:0:0:0:
448,192,167021,128,0,167271:0:0:0:0:
320,192,167271,1,0,0:0:0:0:
64,192,167521,1,0,0:0:0:0:
448,192,167521,1,0,0:0:0:0:
64,192,167771,1,0,0:0:0:0:
192,192,167771,1,0,0:0:0:0:
64,192,168021,1,0,0:0:0:0:
448,192,168021,1,0,0:0:0:0:
320,192,168021,1,0,0:0:0:0:
192,192,168271,1,0,0:0:0:0:
320,192,168521,1,0,0:0:0:0:
64,192,168521,1,0,0:0:0:0:
192,192,168771,1,0,0:0:0:0:
320,192,168896,1,0,0:0:0:0:
64,192,169021,1,0,0:0:0:0:
192,192,169021,1,0,0:0:0:0:
448,192,169021,128,0,169271:0:0:0:0:
192,192,169271,1,0,0:0:0:0:
64,192,169521,1,0,0:0:0:0:
320,192,169521,1,0,0:0:0:0:
448,192,169521,128,0,170021:0:0:0:0:
192,192,169771,1,0,0:0:0:0:
320,192,170021,1,0,0:0:0:0:
448,192,172021,1,0,0:0:0:0:
64,192,172271,1,0,0:0:0:0:
320,192,172271,1,0,0:0:0:0:
192,192,172396,1,0,0:0:0:0:
320,192,172521,1,0,0:0:0:0:
192,192,172771,1,0,0:0:0:0:
64,192,172771,1,0,0:0:0:0:
320,192,172896,1,0,0:0:0:0:
448,192,173021,1,0,0:0:0:0:
64,192,173271,1,0,0:0:0:0:
320,192,173271,1,0,0:0:0:0:
192,192,173521,1,0,0:0:0:0:
448,192,173771,1,0,0:0:0:0:
64,192,173771,1,0,0:0:0:0:
192,192,173896,1,0,0:0:0:0:
320,192,174021,1,0,0:0:0:0:
192,192,174271,1,0,0:0:0:0:
64,192,174271,1,0,0:0:0:0:
448,192,174521,1,0,0:0:0:0:
64,192,174771,1,0,0:0:0:0:
320,192,174771,1,0,0:0:0:0:
192,192,175021,1,0,0:0:0:0:
448,192,175271,1,0,0:0:0:0:
320,192,175271,1,0,0:0:0:0:
192,192,175521,1,0,0:0:0:0:
448,192,175771,1,0,0:0:0:0:
64,192,175896,1,0,0:0:0:0:
192,192,176021,1,0,0:0:0:0:
320,192,176271,1,0,0:0:0:0:
448,192,176271,1,0,0:0:0:0:
64,192,176521,1,0,0:0:0:0:
192,192,176771,1,0,0:0:0:0:
320,192,176896,1,0,0:0:0:0:
448,192,177021,1,0,0:0:0:0:
192,192,177271,1,0,0:0:0:0:
320,192,177271,1,0,0:0:0:0:
64,192,177521,1,0,0:0:0:0:
192,192,177771,1,0,0:0:0:0:
320,192,177771,1,0,0:0:0:0:
448,192,178021,1,0,0:0:0:0:
64,192,178271,1,0,0:0:0:0:
320,192,178271,1,0,0:0:0:0:
192,192,178521,1,0,0:0:0:0:
320,192,178771,1,0,0:0:0:0:
448,192,178771,1,0,0:0:0:0:
64,192,179021,128,0,179521:0:0:0:0:
320,192,179271,1,0,0:0:0:0:
192,192,179521,128,0,180021:0:0:0:0:
448,192,179771,1,0,0:0:0:0:
320,192,180021,1,0,0:0:0:0:
192,192,180271,1,0,0:0:0:0:
64,192,180521,1,0,0:0:0:0:
448,192,180771,1,0,0:0:0:0:
64,192,180896,1,0,0:0:0:0:
192,192,181021,1,0,0:0:0:0:
320,192,181271,1,0,0:0:0:0:
64,192,181521,1,0,0:0:0:0:
448,192,181771,1,0,0:0:0:0:
320,192,181896,1,0,0:0:0:0:
192,192,181958,1,0,0:0:0:0:
64,192,182021,1,0,0:0:0:0:
448,192,182271,1,0,0:0:0:0:
320,192,182396,1,0,0:0:0:0:
192,192,182521,1,0,0:0:0:0:
320,192,182771,1,0,0:0:0:0:
448,192,183021,1,0,0:0:0:0:
192,192,183271,1,0,0:0:0:0:
448,192,183521,1,0,0:0:0:0:
64,192,183521,128,0,184021:0:0:0:0:
448,192,184021,1,0,0:0:0:0:
192,192,184021,1,0,0:0:0:0:
320,192,184021,128,0,185771:0:0:0:0:
192,192,184771,1,0,0:0:0:0:
192,192,185271,1,0,0:0:0:0:
64,192,185771,1,0,0:0:0:0:
448,192,185771,1,0,0:0:0:0:
64,192,186021,1,0,0:0:0:0:
448,192,186021,1,0,0:0:0:0:
192,192,186021,128,0,187021:0:0:0:0:
320,192,186021,1,0,0:0:0:0:
320,192,186271,1,0,0:0:0:0:
320,192,186771,1,0,0:0:0:0:
320,192,187021,128,0,187521:0:0:0:0:
64,192,187021,1,0,0:0:0:0:
448,192,187021,1,0,0:0:0:0:
192,192,187271,1,0,0:0:0:0:
64,192,187521,1,0,0:0:0:0:
192,192,187521,1,0,0:0:0:0:
448,192,187521,128,0,188021:0:0:0:0:
192,192,187771,1,0,0:0:0:0:
64,192,188021,1,0,0:0:0:0:
320,192,188021,1,0,0:0:0:0:
192,192,188021,128,0,189771:0:0:0:0:
448,192,188271,1,0,0:0:0:0:
448,192,188771,1,0,0:0:0:0:
448,192,189271,1,0,0:0:0:0:
320,192,189771,1,0,0:0:0:0:
64,192,189771,1,0,0:0:0:0:
192,192,189896,1,0,0:0:0:0:
64,192,190021,1,0,0:0:0:0:
320,192,190021,1,0,0:0:0:0:
448,192,190021,128,0,190521:0:0:0:0:
320,192,190271,1,0,0:0:0:0:
64,192,190521,128,0,191021:0:0:0:0:
192,192,190521,1,0,0:0:0:0:
320,192,190771,1,0,0:0:0:0:
192,192,191021,1,0,0:0:0:0:
448,192,191021,1,0,0:0:0:0:
320,192,191271,1,0,0:0:0:0:
192,192,191271,1,0,0:0:0:0:
64,192,191521,1,0,0:0:0:0:
192,192,191521,1,0,0:0:0:0:
448,192,191521,128,0,192021:0:0:0:0:
320,192,191771,1,0,0:0:0:0:
64,192,191771,1,0,0:0:0:0:
64,192,192021,1,0,0:0:0:0:
320,192,192021,1,0,0:0:0:0:
192,192,192021,128,0,193771:0:0:0:0:
320,192,192271,1,0,0:0:0:0:
320,192,192771,1,0,0:0:0:0:
320,192,193271,1,0,0:0:0:0:
64,192,193771,1,0,0:0:0:0:
448,192,193771,1,0,0:0:0:0:
320,192,193896,1,0,0:0:0:0:
64,192,194021,1,0,0:0:0:0:
448,192,194021,128,0,195021:0:0:0:0:
192,192,194021,1,0,0:0:0:0:
192,192,194271,1,0,0:0:0:0:
320,192,194271,1,0,0:0:0:0:
64,192,194521,1,0,0:0:0:0:
192,192,194771,1,0,0:0:0:0:
64,192,195021,1,0,0:0:0:0:
320,192,195021,1,0,0:0:0:0:
192,192,195021,128,0,195521:0:0:0:0:
320,192,195271,1,0,0:0:0:0:
64,192,195271,1,0,0:0:0:0:
448,192,195521,1,0,0:0:0:0:
64,192,195521,128,0,196021:0:0:0:0:
320,192,195521,1,0,0:0:0:0:
448,192,195646,1,0,0:0:0:0:
192,192,195771,1,0,0:0:0:0:
192,192,196021,1,0,0:0:0:0:
448,192,196021,1,0,0:0:0:0:
320,192,196021,128,0,198021:0:0:0:0:
64,192,196271,1,0,0:0:0:0:
64,192,196771,1,0,0:0:0:0:
448,192,196771,1,0,0:0:0:0:
192,192,197021,1,0,0:0:0:0:
448,192,197271,1,0,0:0:0:0:
64,192,197521,1,0,0:0:0:0:
192,192,197646,1,0,0:0:0:0:
64,192,197771,1,0,0:0:0:0:
448,192,197771,1,0,0:0:0:0:
192,192,197896,1,0,0:0:0:0:
64,192,198021,1,0,0:0:0:0:
448,192,198021,1,0,0:0:0:0:
64,192,199021,1,0,0:0:0:0:
192,192,199021,1,0,0:0:0:0:
448,192,199021,1,0,0:0:0:0:
192,192,199271,1,0,0:0:0:0:
320,192,199271,1,0,0:0:0:0:
448,192,199271,1,0,0:0:0:0:
64,192,199521,1,0,0:0:0:0:
192,192,199521,1,0,0:0:0:0:
448,192,199521,1,0,0:0:0:0:
320,192,199771,1,0,0:0:0:0:
192,192,199896,1,0,0:0:0:0:
64,192,200021,1,0,0:0:0:0:
448,192,200021,1,0,0:0:0:0:
320,192,200021,1,0,0:0:0:0:
192,192,200271,1,0,0:0:0:0:
320,192,200271,1,0,0:0:0:0:
448,192,200521,1,0,0:0:0:0:
64,192,200521,1,0,0:0:0:0:
320,192,200521,1,0,0:0:0:0:
192,192,200771,1,0,0:0:0:0:
320,192,200896,1,0,0:0:0:0:
448,192,201021,1,0,0:0:0:0:
192,192,201021,1,0,0:0:0:0:
320,192,201271,1,0,0:0:0:0:
64,192,201521,1,0,0:0:0:0:
192,192,201521,1,0,0:0:0:0:
448,192,201521,1,0,0:0:0:0:
192,192,201771,1,0,0:0:0:0:
320,192,201771,1,0,0:0:0:0:
320,192,202021,1,0,0:0:0:0:
448,192,202021,1,0,0:0:0:0:
192,192,202271,1,0,0:0:0:0:
64,192,202521,1,0,0:0:0:0:
320,192,202521,1,0,0:0:0:0:
448,192,202521,1,0,0:0:0:0:
192,192,202771,1,0,0:0:0:0:
320,192,203021,1,0,0:0:0:0:
64,192,203021,1,0,0:0:0:0:
192,192,203271,1,0,0:0:0:0:
320,192,203271,1,0,0:0:0:0:
64,192,203521,1,0,0:0:0:0:
320,192,203521,1,0,0:0:0:0:
448,192,203521,1,0,0:0:0:0:
192,192,203646,1,0,0:0:0:0:
320,192,203771,1,0,0:0:0:0:
192,192,203896,1,0,0:0:0:0:
64,192,204021,1,0,0:0:0:0:
448,192,204021,1,0,0:0:0:0:
192,192,204271,1,0,0:0:0:0:
320,192,204271,1,0,0:0:0:0:
64,192,204521,1,0,0:0:0:0:
320,192,204521,1,0,0:0:0:0:
448,192,204521,1,0,0:0:0:0:
448,192,204771,1,0,0:0:0:0:
192,192,204771,1,0,0:0:0:0:
64,192,204896,1,0,0:0:0:0:
192,192,205021,1,0,0:0:0:0:
320,192,205021,1,0,0:0:0:0:
320,192,205271,1,0,0:0:0:0:
448,192,205271,1,0,0:0:0:0:
64,192,205521,1,0,0:0:0:0:
192,192,205521,1,0,0:0:0:0:
448,192,205521,1,0,0:0:0:0:
320,192,205771,1,0,0:0:0:0:
64,192,205771,1,0,0:0:0:0:
192,192,206021,1,0,0:0:0:0:
320,192,206021,1,0,0:0:0:0:
64,192,206271,1,0,0:0:0:0:
448,192,206271,1,0,0:0:0:0:
192,192,206521,1,0,0:0:0:0:
320,192,206521,1,0,0:0:0:0:
448,192,206521,1,0,0:0:0:0:
64,192,206771,1,0,0:0:0:0:
320,192,206771,1,0,0:0:0:0:
192,192,206896,1,0,0:0:0:0:
320,192,207021,1,0,0:0:0:0:
448,192,207021,1,0,0:0:0:0:
64,192,207271,1,0,0:0:0:0:
320,192,207271,1,0,0:0:0:0:
64,192,207521,1,0,0:0:0:0:
192,192,207521,1,0,0:0:0:0:
448,192,207521,1,0,0:0:0:0:
320,192,207646,1,0,0:0:0:0:
64,192,207771,1,0,0:0:0:0:
448,192,207896,1,0,0:0:0:0:
64,192,208021,1,0,0:0:0:0:
192,192,208021,1,0,0:0:0:0:
192,192,208271,1,0,0:0:0:0:
320,192,208271,1,0,0:0:0:0:
64,192,208521,1,0,0:0:0:0:
448,192,208521,1,0,0:0:0:0:
320,192,208521,1,0,0:0:0:0:
64,192,208771,1,0,0:0:0:0:
192,192,208771,1,0,0:0:0:0:
320,192,208896,1,0,0:0:0:0:
448,192,209021,1,0,0:0:0:0:
64,192,209021,1,0,0:0:0:0:
192,192,209271,1,0,0:0:0:0:
320,192,209271,1,0,0:0:0:0:
64,192,209521,1,0,0:0:0:0:
320,192,209521,1,0,0:0:0:0:
448,192,209521,1,0,0:0:0:0:
448,192,209771,1,0,0:0:0:0:
192,192,209771,128,0,210021:0:0:0:0:
64,192,210021,1,0,0:0:0:0:
320,192,210021,1,0,0:0:0:0:
192,192,210271,1,0,0:0:0:0:
320,192,210271,1,0,0:0:0:0:
64,192,210521,1,0,0:0:0:0:
320,192,210521,1,0,0:0:0:0:
448,192,210521,1,0,0:0:0:0:
192,192,210771,1,0,0:0:0:0:
448,192,210771,1,0,0:0:0:0:
64,192,211021,1,0,0:0:0:0:
448,192,211021,1,0,0:0:0:0:
320,192,211271,1,0,0:0:0:0:
64,192,211271,1,0,0:0:0:0:
64,192,211521,1,0,0:0:0:0:
192,192,211521,1,0,0:0:0:0:
448,192,211521,1,0,0:0:0:0:
320,192,211646,1,0,0:0:0:0:
448,192,211771,1,0,0:0:0:0:
320,192,211896,1,0,0:0:0:0:
448,192,212021,1,0,0:0:0:0:
192,192,212021,1,0,0:0:0:0:
64,192,212271,1,0,0:0:0:0:
320,192,212271,1,0,0:0:0:0:
192,192,212521,1,0,0:0:0:0:
320,192,212521,1,0,0:0:0:0:
448,192,212521,1,0,0:0:0:0:
64,192,212771,1,0,0:0:0:0:
192,192,212771,1,0,0:0:0:0:
320,192,212896,1,0,0:0:0:0:
448,192,213021,1,0,0:0:0:0:
64,192,213021,1,0,0:0:0:0:
320,192,213271,1,0,0:0:0:0:
192,192,213271,1,0,0:0:0:0:
64,192,213521,1,0,0:0:0:0:
192,192,213521,1,0,0:0:0:0:
448,192,213521,1,0,0:0:0:0:
320,192,213771,1,0,0:0:0:0:
64,192,213771,1,0,0:0:0:0:
192,192,214021,1,0,0:0:0:0:
320,192,214021,1,0,0:0:0:0:
64,192,214271,1,0,0:0:0:0:
320,192,214271,1,0,0:0:0:0:
64,192,214521,5,0,0:0:0:0:
192,192,214521,1,0,0:0:0:0:
448,192,214521,1,0,0:0:0:0:
192,192,214771,1,0,0:0:0:0:
320,192,214771,1,0,0:0:0:0:
64,192,215021,1,0,0:0:0:0:
448,192,215021,1,0,0:0:0:0:
320,192,215021,1,0,0:0:0:0:
192,192,215146,1,0,0:0:0:0:
448,192,215271,1,0,0:0:0:0:
64,192,215271,1,0,0:0:0:0:
320,192,215271,1,0,0:0:0:0:
192,192,215396,1,0,0:0:0:0:
64,192,215521,1,0,0:0:0:0:
320,192,215521,1,0,0:0:0:0:
448,192,215521,128,0,216021:0:0:0:0:
320,192,215771,1,0,0:0:0:0:
64,192,215771,1,0,0:0:0:0:
192,192,215896,1,0,0:0:0:0:
64,192,216021,1,0,0:0:0:0:
320,192,216021,1,0,0:0:0:0:
192,192,216271,1,0,0:0:0:0:
448,192,216271,1,0,0:0:0:0:
320,192,216521,1,0,0:0:0:0:
64,192,216521,1,0,0:0:0:0:
448,192,216521,1,0,0:0:0:0:
192,192,216771,1,0,0:0:0:0:
320,192,216771,1,0,0:0:0:0:
64,192,217021,1,0,0:0:0:0:
320,192,217021,1,0,0:0:0:0:
448,192,217021,1,0,0:0:0:0:
192,192,217271,1,0,0:0:0:0:
320,192,217271,1,0,0:0:0:0:
64,192,217521,1,0,0:0:0:0:
192,192,217521,1,0,0:0:0:0:
448,192,217521,1,0,0:0:0:0:
64,192,217771,1,0,0:0:0:0:
320,192,217771,1,0,0:0:0:0:
320,192,217896,1,0,0:0:0:0:
192,192,218021,1,0,0:0:0:0:
64,192,218021,1,0,0:0:0:0:
448,192,218021,1,0,0:0:0:0:
64,192,218271,1,0,0:0:0:0:
320,192,218271,1,0,0:0:0:0:
192,192,218521,1,0,0:0:0:0:
320,192,218521,1,0,0:0:0:0:
448,192,218521,1,0,0:0:0:0:
64,192,218771,1,0,0:0:0:0:
320,192,218771,1,0,0:0:0:0:
192,192,219021,1,0,0:0:0:0:
448,192,219021,1,0,0:0:0:0:
320,192,219021,128,0,219521:0:0:0:0:
64,192,219271,1,0,0:0:0:0:
192,192,219271,1,0,0:0:0:0:
192,192,219521,1,0,0:0:0:0:
448,192,219521,1,0,0:0:0:0:
64,192,219521,128,0,220021:0:0:0:0:
192,192,219771,1,0,0:0:0:0:
320,192,219771,1,0,0:0:0:0:
192,192,220021,1,0,0:0:0:0:
320,192,220021,1,0,0:0:0:0:
448,192,220021,1,0,0:0:0:0:
64,192,220271,1,0,0:0:0:0:
192,192,220271,1,0,0:0:0:0:
192,192,220521,1,0,0:0:0:0:
320,192,220521,1,0,0:0:0:0:
448,192,220521,1,0,0:0:0:0:
320,192,220771,1,0,0:0:0:0:
64,192,220771,1,0,0:0:0:0:
192,192,221021,1,0,0:0:0:0:
320,192,221021,1,0,0:0:0:0:
448,192,221021,1,0,0:0:0:0:
64,192,221271,1,0,0:0:0:0:
448,192,221271,1,0,0:0:0:0:
320,192,221521,1,0,0:0:0:0:
192,192,221521,1,0,0:0:0:0:
64,192,221521,1,0,0:0:0:0:
192,192,221771,1,0,0:0:0:0:
448,192,221771,1,0,0:0:0:0:
320,192,221896,1,0,0:0:0:0:
192,192,222021,1,0,0:0:0:0:
64,192,222021,1,0,0:0:0:0:
448,192,222021,1,0,0:0:0:0:
192,192,222271,1,0,0:0:0:0:
320,192,222271,1,0,0:0:0:0:
64,192,222521,1,0,0:0:0:0:
192,192,222521,1,0,0:0:0:0:
320,192,222521,1,0,0:0:0:0:
448,192,222771,1,0,0:0:0:0:
192,192,222771,1,0,0:0:0:0:
64,192,223021,1,0,0:0:0:0:
320,192,223021,1,0,0:0:0:0:
448,192,223021,1,0,0:0:0:0:
192,192,223271,1,0,0:0:0:0:
320,192,223271,1,0,0:0:0:0:
320,192,223521,128,0,224021:0:0:0:0:
64,192,223521,1,0,0:0:0:0:
448,192,223521,1,0,0:0:0:0:
192,192,223771,1,0,0:0:0:0:
448,192,223771,1,0,0:0:0:0:
64,192,224021,1,0,0:0:0:0:
192,192,224021,1,0,0:0:0:0:
448,192,224021,1,0,0:0:0:0:
192,192,224271,1,0,0:0:0:0:
320,192,224271,1,0,0:0:0:0:
320,192,224521,1,0,0:0:0:0:
448,192,224521,1,0,0:0:0:0:
64,192,224521,1,0,0:0:0:0:
192,192,224771,1,0,0:0:0:0:
320,192,224771,1,0,0:0:0:0:
64,192,225021,1,0,0:0:0:0:
192,192,225021,1,0,0:0:0:0:
448,192,225021,1,0,0:0:0:0:
192,192,225271,1,0,0:0:0:0:
320,192,225271,1,0,0:0:0:0:
64,192,225521,1,0,0:0:0:0:
448,192,225521,1,0,0:0:0:0:
192,192,225521,1,0,0:0:0:0:
320,192,225771,1,0,0:0:0:0:
448,192,225771,1,0,0:0:0:0:
192,192,225896,1,0,0:0:0:0:
64,192,226021,1,0,0:0:0:0:
320,192,226021,1,0,0:0:0:0:
448,192,226021,1,0,0:0:0:0:
192,192,226271,1,0,0:0:0:0:
320,192,226271,1,0,0:0:0:0:
64,192,226521,1,0,0:0:0:0:
192,192,226521,1,0,0:0:0:0:
448,192,226521,1,0,0:0:0:0:
448,192,226771,1,0,0:0:0:0:
320,192,226771,1,0,0:0:0:0:
64,192,227021,1,0,0:0:0:0:
192,192,227021,1,0,0:0:0:0:
320,192,227021,1,0,0:0:0:0:
64,192,227271,1,0,0:0:0:0:
192,192,227271,1,0,0:0:0:0:
320,192,227521,128,0,228021:0:0:0:0:
448,192,227521,1,0,0:0:0:0:
64,192,227521,1,0,0:0:0:0:
192,192,227771,1,0,0:0:0:0:
64,192,227771,1,0,0:0:0:0:
64,192,228021,1,0,0:0:0:0:
448,192,228021,1,0,0:0:0:0:
192,192,228021,1,0,0:0:0:0:
192,192,228271,1,0,0:0:0:0:
320,192,228271,1,0,0:0:0:0:
64,192,228521,1,0,0:0:0:0:
448,192,228521,1,0,0:0:0:0:
320,192,228521,1,0,0:0:0:0:
192,192,228771,1,0,0:0:0:0:
448,192,228771,1,0,0:0:0:0:
64,192,229021,1,0,0:0:0:0:
192,192,229021,1,0,0:0:0:0:
320,192,229021,1,0,0:0:0:0:
192,192,229271,1,0,0:0:0:0:
320,192,229271,1,0,0:0:0:0:
64,192,229521,1,0,0:0:0:0:
320,192,229521,1,0,0:0:0:0:
448,192,229521,1,0,0:0:0:0:
64,192,229771,1,0,0:0:0:0:
192,192,229771,1,0,0:0:0:0:
448,192,230021,1,0,0:0:0:0:
192,192,230021,1,0,0:0:0:0:
64,192,230021,1,0,0:0:0:0:
320,192,230146,1,0,0:0:0:0:
64,192,230271,1,0,0:0:0:0:
192,192,230271,1,0,0:0:0:0:
320,192,230396,1,0,0:0:0:0:
448,192,230521,1,0,0:0:0:0:
64,192,230521,1,0,0:0:0:0:
192,192,230521,1,0,0:0:0:0:
320,192,230646,1,0,0:0:0:0:
192,192,230771,1,0,0:0:0:0:
448,192,230771,1,0,0:0:0:0:
64,192,230896,1,0,0:0:0:0:
192,192,231021,1,0,0:0:0:0:
320,192,231021,1,0,0:0:0:0:
448,192,231021,1,0,0:0:0:0:
320,192,231271,1,0,0:0:0:0:
192,192,231271,1,0,0:0:0:0:
64,192,231271,1,0,0:0:0:0:
192,192,231521,1,0,0:0:0:0:
448,192,231521,1,0,0:0:0:0:
320,192,231521,128,0,232021:0:0:0:0:
448,192,231771,1,0,0:0:0:0:
64,192,231771,1,0,0:0:0:0:
192,192,231896,1,0,0:0:0:0:
64,192,232021,1,0,0:0:0:0:
448,192,232021,1,0,0:0:0:0:
320,192,232271,1,0,0:0:0:0:
64,192,232271,1,0,0:0:0:0:
192,192,232396,1,0,0:0:0:0:
64,192,232521,1,0,0:0:0:0:
320,192,232521,1,0,0:0:0:0:
448,192,232521,1,0,0:0:0:0:
192,192,232646,1,0,0:0:0:0:
448,192,232771,1,0,0:0:0:0:
320,192,232771,1,0,0:0:0:0:
192,192,232896,1,0,0:0:0:0:
64,192,233021,1,0,0:0:0:0:
320,192,233021,128,0,234021:0:0:0:0:
448,192,233021,1,0,0:0:0:0:
192,192,233146,1,0,0:0:0:0:
64,192,233271,1,0,0:0:0:0:
448,192,233271,1,0,0:0:0:0:
192,192,233396,1,0,0:0:0:0:
64,192,233521,1,0,0:0:0:0:
448,192,233521,1,0,0:0:0:0:
64,192,233771,1,0,0:0:0:0:
448,192,233771,1,0,0:0:0:0:
192,192,233896,1,0,0:0:0:0:
64,192,234021,1,0,0:0:0:0:
448,192,234021,1,0,0:0:0:0:
320,192,234271,1,0,0:0:0:0:
192,192,234521,1,0,0:0:0:0:
64,192,234771,1,0,0:0:0:0:
192,192,235021,128,0,235521:0:0:0:0:
64,192,235521,1,0,0:0:0:0:
448,192,235521,1,0,0:0:0:0:
320,192,235521,1,0,0:0:0:0:
