osu file format v14

[General]
AudioFilename: Super Hero.mp3
AudioLeadIn: 0
PreviewTime: 72607
Countdown: 0
SampleSet: None
StackLeniency: 0.7
Mode: 3
LetterboxInBreaks: 0
SpecialStyle: 0
WidescreenStoryboard: 1

[Editor]
Bookmarks: 192831
DistanceSpacing: 1.3
BeatDivisor: 4
GridSize: 4
TimelineZoom: 1.599999

[Metadata]
Title:Kagamine mania pack 1
TitleUnicode:Kagamine mania pack 1
Artist:Kagamine Rin & Len
ArtistUnicode:Kagamine Rin & Len
Creator:paperlens
Version:SUPER HERO - 4k HD
Source:
Tags:VOCALOID 鏡音レン tangjinxi cosran ギガP giga-P アシンメトリー しんでしまうとはなさけない Jesus-P じーざすP Vocaloid WONDERFUL ☆ OPPORTUNITY ぼうけんのしょがきえました Nem スーパーヒーロー 人間失格 Neru 押入れP No Longer Human potchi
BeatmapID:1055866
BeatmapSetID:496040

[Difficulty]
HPDrainRate:8
CircleSize:4
OverallDifficulty:8
ApproachRate:5
SliderMultiplier:1.4
SliderTickRate:1

[Events]
//Background and Video events
0,0,"1.jpg",0,0
//Break Periods
//Storyboard Layer 0 (Background)
//Storyboard Layer 1 (Fail)
//Storyboard Layer 2 (Pass)
//Storyboard Layer 3 (Foreground)
//Storyboard Sound Samples

[TimingPoints]
988,447.761194029851,4,2,0,10,1,0
72629,-100,4,2,0,10,0,1
94122,-100,4,2,0,10,0,0
138898,-100,4,2,0,10,0,1
181883,-100,4,2,0,10,0,0

[HitObjects]
192,192,987,5,0,0:0:0:0:
448,192,987,1,0,0:0:0:0:
64,192,1435,128,0,1659:0:0:0:0:
320,192,1435,1,0,0:0:0:0:
192,192,1659,1,0,0:0:0:0:
64,192,1883,1,0,0:0:0:0:
448,192,1883,128,0,2107:0:0:0:0:
320,192,2107,1,0,0:0:0:0:
192,192,2555,1,0,0:0:0:0:
320,192,2667,1,0,0:0:0:0:
64,192,2779,1,0,0:0:0:0:
448,192,2779,1,0,0:0:0:0:
192,192,3002,1,0,0:0:0:0:
320,192,3002,1,0,0:0:0:0:
448,192,3226,1,0,0:0:0:0:
192,192,3226,1,0,0:0:0:0:
64,192,3450,1,0,0:0:0:0:
320,192,3450,1,0,0:0:0:0:
448,192,3674,1,0,0:0:0:0:
320,192,3674,1,0,0:0:0:0:
320,192,3898,1,0,0:0:0:0:
192,192,3898,1,0,0:0:0:0:
64,192,4122,1,0,0:0:0:0:
192,192,4122,1,0,0:0:0:0:
192,192,4346,1,0,0:0:0:0:
320,192,4346,1,0,0:0:0:0:
448,192,4570,1,0,0:0:0:0:
192,192,4570,1,0,0:0:0:0:
320,192,5017,1,0,0:0:0:0:
64,192,5017,128,0,5241:0:0:0:0:
192,192,5241,1,0,0:0:0:0:
64,192,5465,1,0,0:0:0:0:
448,192,5465,128,0,5689:0:0:0:0:
320,192,5689,1,0,0:0:0:0:
192,192,6137,1,0,0:0:0:0:
320,192,6249,1,0,0:0:0:0:
448,192,6361,1,0,0:0:0:0:
64,192,6361,1,0,0:0:0:0:
192,192,6585,1,0,0:0:0:0:
320,192,6585,1,0,0:0:0:0:
448,192,6808,1,0,0:0:0:0:
192,192,6808,1,0,0:0:0:0:
320,192,7032,1,0,0:0:0:0:
64,192,7032,1,0,0:0:0:0:
64,192,7256,1,0,0:0:0:0:
448,192,7256,1,0,0:0:0:0:
192,192,7480,1,0,0:0:0:0:
320,192,7480,1,0,0:0:0:0:
192,192,7704,1,0,0:0:0:0:
64,192,7704,128,0,8152:0:0:0:0:
320,192,8152,1,0,0:0:0:0:
448,192,8152,1,0,0:0:0:0:
192,192,8376,1,0,0:0:0:0:
320,192,8488,1,0,0:0:0:0:
192,192,8599,1,0,0:0:0:0:
64,192,8599,1,0,0:0:0:0:
192,192,8823,1,0,0:0:0:0:
320,192,8823,1,0,0:0:0:0:
320,192,9047,1,0,0:0:0:0:
448,192,9047,1,0,0:0:0:0:
192,192,9159,1,0,0:0:0:0:
320,192,9271,1,0,0:0:0:0:
64,192,9271,1,0,0:0:0:0:
448,192,9495,1,0,0:0:0:0:
192,192,9719,1,0,0:0:0:0:
320,192,9831,1,0,0:0:0:0:
192,192,9943,1,0,0:0:0:0:
64,192,9943,1,0,0:0:0:0:
320,192,10167,1,0,0:0:0:0:
448,192,10167,1,0,0:0:0:0:
192,192,10279,1,0,0:0:0:0:
448,192,10390,1,0,0:0:0:0:
64,192,10390,1,0,0:0:0:0:
320,192,10614,1,0,0:0:0:0:
64,192,10614,1,0,0:0:0:0:
448,192,10838,1,0,0:0:0:0:
192,192,10838,1,0,0:0:0:0:
448,192,11062,1,0,0:0:0:0:
320,192,11062,1,0,0:0:0:0:
64,192,11286,1,0,0:0:0:0:
320,192,11286,1,0,0:0:0:0:
320,192,11510,1,0,0:0:0:0:
448,192,11510,1,0,0:0:0:0:
192,192,11734,1,0,0:0:0:0:
64,192,11734,1,0,0:0:0:0:
320,192,11958,1,0,0:0:0:0:
192,192,12070,1,0,0:0:0:0:
448,192,12182,1,0,0:0:0:0:
320,192,12182,1,0,0:0:0:0:
192,192,12405,1,0,0:0:0:0:
320,192,12405,1,0,0:0:0:0:
192,192,12629,1,0,0:0:0:0:
64,192,12629,1,0,0:0:0:0:
320,192,12741,1,0,0:0:0:0:
192,192,12853,1,0,0:0:0:0:
448,192,12853,1,0,0:0:0:0:
64,192,13077,1,0,0:0:0:0:
320,192,13301,1,0,0:0:0:0:
192,192,13413,1,0,0:0:0:0:
448,192,13525,1,0,0:0:0:0:
320,192,13525,1,0,0:0:0:0:
192,192,13749,1,0,0:0:0:0:
64,192,13749,1,0,0:0:0:0:
320,192,13861,1,0,0:0:0:0:
448,192,13973,1,0,0:0:0:0:
64,192,13973,1,0,0:0:0:0:
320,192,14196,1,0,0:0:0:0:
192,192,14196,1,0,0:0:0:0:
64,192,14420,1,0,0:0:0:0:
192,192,14420,1,0,0:0:0:0:
448,192,14420,1,0,0:0:0:0:
192,192,14644,1,0,0:0:0:0:
320,192,14756,1,0,0:0:0:0:
192,192,14868,1,0,0:0:0:0:
64,192,14868,1,0,0:0:0:0:
320,192,14980,1,0,0:0:0:0:
448,192,14980,1,0,0:0:0:0:
192,192,15092,1,0,0:0:0:0:
64,192,15092,1,0,0:0:0:0:
320,192,15204,1,0,0:0:0:0:
448,192,15204,1,0,0:0:0:0:
192,192,15316,1,0,0:0:0:0:
64,192,15316,1,0,0:0:0:0:
320,192,15764,1,0,0:0:0:0:
64,192,15764,1,0,0:0:0:0:
192,192,15988,1,0,0:0:0:0:
320,192,16099,1,0,0:0:0:0:
448,192,16211,1,0,0:0:0:0:
64,192,16211,1,0,0:0:0:0:
320,192,16323,1,0,0:0:0:0:
192,192,16435,1,0,0:0:0:0:
64,192,16659,1,0,0:0:0:0:
448,192,16659,1,0,0:0:0:0:
192,192,16883,1,0,0:0:0:0:
320,192,16995,1,0,0:0:0:0:
192,192,17107,1,0,0:0:0:0:
64,192,17107,1,0,0:0:0:0:
192,192,17331,1,0,0:0:0:0:
320,192,17331,1,0,0:0:0:0:
448,192,17555,1,0,0:0:0:0:
192,192,17555,1,0,0:0:0:0:
320,192,17779,1,0,0:0:0:0:
64,192,17779,1,0,0:0:0:0:
448,192,18002,1,0,0:0:0:0:
64,192,18002,1,0,0:0:0:0:
192,192,18226,1,0,0:0:0:0:
320,192,18226,1,0,0:0:0:0:
192,192,18450,1,0,0:0:0:0:
64,192,18450,1,0,0:0:0:0:
320,192,18674,1,0,0:0:0:0:
448,192,18674,1,0,0:0:0:0:
64,192,18898,1,0,0:0:0:0:
192,192,18898,1,0,0:0:0:0:
320,192,19346,1,0,0:0:0:0:
64,192,19346,1,0,0:0:0:0:
192,192,19570,1,0,0:0:0:0:
320,192,19682,1,0,0:0:0:0:
64,192,19793,1,0,0:0:0:0:
448,192,19793,1,0,0:0:0:0:
320,192,19905,1,0,0:0:0:0:
192,192,20017,1,0,0:0:0:0:
64,192,20241,1,0,0:0:0:0:
448,192,20241,1,0,0:0:0:0:
320,192,20465,1,0,0:0:0:0:
192,192,20577,1,0,0:0:0:0:
448,192,20689,1,0,0:0:0:0:
320,192,20689,1,0,0:0:0:0:
320,192,20913,1,0,0:0:0:0:
192,192,20913,1,0,0:0:0:0:
64,192,21137,1,0,0:0:0:0:
320,192,21137,1,0,0:0:0:0:
192,192,21361,1,0,0:0:0:0:
448,192,21361,1,0,0:0:0:0:
448,192,21585,1,0,0:0:0:0:
64,192,21585,1,0,0:0:0:0:
192,192,21808,1,0,0:0:0:0:
320,192,21808,1,0,0:0:0:0:
448,192,22032,1,0,0:0:0:0:
320,192,22032,1,0,0:0:0:0:
64,192,22032,128,0,22480:0:0:0:0:
448,192,22480,1,0,0:0:0:0:
320,192,22480,1,0,0:0:0:0:
448,192,22928,1,0,0:0:0:0:
192,192,22928,1,0,0:0:0:0:
320,192,23152,1,0,0:0:0:0:
192,192,23264,1,0,0:0:0:0:
64,192,23376,1,0,0:0:0:0:
448,192,23376,1,0,0:0:0:0:
192,192,23488,1,0,0:0:0:0:
320,192,23599,1,0,0:0:0:0:
448,192,23823,1,0,0:0:0:0:
64,192,23823,1,0,0:0:0:0:
320,192,24047,1,0,0:0:0:0:
192,192,24159,1,0,0:0:0:0:
320,192,24271,1,0,0:0:0:0:
448,192,24271,1,0,0:0:0:0:
192,192,24495,1,0,0:0:0:0:
320,192,24495,1,0,0:0:0:0:
64,192,24719,1,0,0:0:0:0:
320,192,24719,1,0,0:0:0:0:
448,192,24943,1,0,0:0:0:0:
192,192,24943,1,0,0:0:0:0:
64,192,25167,1,0,0:0:0:0:
448,192,25167,1,0,0:0:0:0:
192,192,25390,1,0,0:0:0:0:
320,192,25390,1,0,0:0:0:0:
448,192,25614,1,0,0:0:0:0:
320,192,25614,1,0,0:0:0:0:
64,192,25838,1,0,0:0:0:0:
192,192,25838,1,0,0:0:0:0:
448,192,26062,1,0,0:0:0:0:
320,192,26062,1,0,0:0:0:0:
448,192,26510,1,0,0:0:0:0:
192,192,26510,1,0,0:0:0:0:
320,192,26734,1,0,0:0:0:0:
192,192,26846,1,0,0:0:0:0:
64,192,26958,1,0,0:0:0:0:
448,192,26958,1,0,0:0:0:0:
192,192,27070,1,0,0:0:0:0:
320,192,27182,1,0,0:0:0:0:
448,192,27405,1,0,0:0:0:0:
64,192,27405,1,0,0:0:0:0:
320,192,27629,1,0,0:0:0:0:
192,192,27741,1,0,0:0:0:0:
448,192,27853,1,0,0:0:0:0:
320,192,27853,1,0,0:0:0:0:
320,192,28077,1,0,0:0:0:0:
192,192,28077,1,0,0:0:0:0:
64,192,28301,1,0,0:0:0:0:
320,192,28301,1,0,0:0:0:0:
448,192,28525,1,0,0:0:0:0:
192,192,28525,1,0,0:0:0:0:
64,192,28749,1,0,0:0:0:0:
448,192,28749,1,0,0:0:0:0:
320,192,28973,1,0,0:0:0:0:
192,192,28973,1,0,0:0:0:0:
320,192,29196,1,0,0:0:0:0:
448,192,29196,128,0,29644:0:0:0:0:
192,192,29644,1,0,0:0:0:0:
64,192,29644,1,0,0:0:0:0:
320,192,29868,1,0,0:0:0:0:
192,192,29980,1,0,0:0:0:0:
320,192,30092,1,0,0:0:0:0:
448,192,30092,1,0,0:0:0:0:
448,192,30316,1,0,0:0:0:0:
64,192,30540,1,0,0:0:0:0:
320,192,30652,1,0,0:0:0:0:
192,192,30764,1,0,0:0:0:0:
64,192,30764,1,0,0:0:0:0:
320,192,30988,1,0,0:0:0:0:
448,192,30988,1,0,0:0:0:0:
192,192,31211,1,0,0:0:0:0:
64,192,31211,1,0,0:0:0:0:
448,192,31435,1,0,0:0:0:0:
320,192,31659,1,0,0:0:0:0:
192,192,31771,1,0,0:0:0:0:
320,192,31883,1,0,0:0:0:0:
448,192,31883,1,0,0:0:0:0:
64,192,32107,1,0,0:0:0:0:
192,192,32107,1,0,0:0:0:0:
448,192,32331,1,0,0:0:0:0:
192,192,32331,1,0,0:0:0:0:
320,192,32555,1,0,0:0:0:0:
64,192,32555,1,0,0:0:0:0:
320,192,32779,1,0,0:0:0:0:
192,192,32779,128,0,33226:0:0:0:0:
320,192,33226,1,0,0:0:0:0:
448,192,33226,1,0,0:0:0:0:
192,192,33450,1,0,0:0:0:0:
320,192,33562,1,0,0:0:0:0:
64,192,33674,1,0,0:0:0:0:
192,192,33674,1,0,0:0:0:0:
64,192,33898,1,0,0:0:0:0:
448,192,34122,1,0,0:0:0:0:
192,192,34234,1,0,0:0:0:0:
320,192,34346,1,0,0:0:0:0:
448,192,34346,1,0,0:0:0:0:
64,192,34570,1,0,0:0:0:0:
192,192,34570,1,0,0:0:0:0:
448,192,34793,1,0,0:0:0:0:
320,192,34793,1,0,0:0:0:0:
64,192,35017,1,0,0:0:0:0:
192,192,35241,1,0,0:0:0:0:
320,192,35353,1,0,0:0:0:0:
64,192,35465,1,0,0:0:0:0:
192,192,35465,1,0,0:0:0:0:
448,192,35689,1,0,0:0:0:0:
320,192,35689,1,0,0:0:0:0:
64,192,35913,1,0,0:0:0:0:
448,192,35913,1,0,0:0:0:0:
320,192,36137,1,0,0:0:0:0:
64,192,36137,1,0,0:0:0:0:
448,192,36249,1,0,0:0:0:0:
192,192,36361,1,0,0:0:0:0:
320,192,36361,128,0,36808:0:0:0:0:
64,192,36585,1,0,0:0:0:0:
64,192,36808,1,0,0:0:0:0:
192,192,36808,1,0,0:0:0:0:
320,192,37032,1,0,0:0:0:0:
192,192,37144,1,0,0:0:0:0:
320,192,37256,1,0,0:0:0:0:
448,192,37256,1,0,0:0:0:0:
448,192,37480,1,0,0:0:0:0:
64,192,37704,1,0,0:0:0:0:
320,192,37816,1,0,0:0:0:0:
64,192,37928,1,0,0:0:0:0:
192,192,37928,1,0,0:0:0:0:
320,192,38152,1,0,0:0:0:0:
448,192,38152,1,0,0:0:0:0:
192,192,38376,1,0,0:0:0:0:
64,192,38376,1,0,0:0:0:0:
448,192,38599,1,0,0:0:0:0:
320,192,38823,1,0,0:0:0:0:
192,192,38935,1,0,0:0:0:0:
320,192,39047,1,0,0:0:0:0:
448,192,39047,1,0,0:0:0:0:
192,192,39271,1,0,0:0:0:0:
64,192,39271,1,0,0:0:0:0:
192,192,39495,1,0,0:0:0:0:
448,192,39495,1,0,0:0:0:0:
320,192,39719,1,0,0:0:0:0:
64,192,39719,1,0,0:0:0:0:
320,192,39943,1,0,0:0:0:0:
192,192,39943,128,0,40390:0:0:0:0:
320,192,40390,1,0,0:0:0:0:
448,192,40390,1,0,0:0:0:0:
192,192,40614,1,0,0:0:0:0:
320,192,40726,1,0,0:0:0:0:
64,192,40838,1,0,0:0:0:0:
192,192,40838,1,0,0:0:0:0:
64,192,41062,1,0,0:0:0:0:
448,192,41286,1,0,0:0:0:0:
192,192,41398,1,0,0:0:0:0:
320,192,41510,1,0,0:0:0:0:
448,192,41510,1,0,0:0:0:0:
64,192,41734,1,0,0:0:0:0:
192,192,41734,1,0,0:0:0:0:
448,192,41958,1,0,0:0:0:0:
320,192,41958,1,0,0:0:0:0:
64,192,42182,1,0,0:0:0:0:
192,192,42405,1,0,0:0:0:0:
320,192,42517,1,0,0:0:0:0:
64,192,42629,1,0,0:0:0:0:
192,192,42629,1,0,0:0:0:0:
448,192,42853,1,0,0:0:0:0:
320,192,42853,1,0,0:0:0:0:
64,192,43077,1,0,0:0:0:0:
320,192,43077,1,0,0:0:0:0:
448,192,43301,1,0,0:0:0:0:
192,192,43525,128,0,43973:0:0:0:0:
320,192,43525,128,0,43973:0:0:0:0:
448,192,43973,1,0,0:0:0:0:
64,192,43973,1,0,0:0:0:0:
320,192,44420,1,0,0:0:0:0:
64,192,44420,1,0,0:0:0:0:
192,192,44644,1,0,0:0:0:0:
320,192,44756,1,0,0:0:0:0:
448,192,44868,1,0,0:0:0:0:
64,192,44868,1,0,0:0:0:0:
320,192,44980,1,0,0:0:0:0:
192,192,45092,1,0,0:0:0:0:
64,192,45316,1,0,0:0:0:0:
448,192,45316,1,0,0:0:0:0:
192,192,45540,1,0,0:0:0:0:
320,192,45652,1,0,0:0:0:0:
192,192,45764,1,0,0:0:0:0:
64,192,45764,1,0,0:0:0:0:
192,192,45988,1,0,0:0:0:0:
320,192,45988,1,0,0:0:0:0:
192,192,46211,1,0,0:0:0:0:
448,192,46211,1,0,0:0:0:0:
64,192,46435,1,0,0:0:0:0:
320,192,46435,1,0,0:0:0:0:
448,192,46659,1,0,0:0:0:0:
64,192,46659,1,0,0:0:0:0:
192,192,46883,1,0,0:0:0:0:
320,192,46883,1,0,0:0:0:0:
192,192,47107,1,0,0:0:0:0:
64,192,47107,1,0,0:0:0:0:
448,192,47331,1,0,0:0:0:0:
320,192,47331,1,0,0:0:0:0:
64,192,47555,1,0,0:0:0:0:
192,192,47555,1,0,0:0:0:0:
64,192,48002,1,0,0:0:0:0:
320,192,48002,1,0,0:0:0:0:
192,192,48226,1,0,0:0:0:0:
320,192,48338,1,0,0:0:0:0:
64,192,48450,1,0,0:0:0:0:
448,192,48450,1,0,0:0:0:0:
320,192,48562,1,0,0:0:0:0:
192,192,48674,1,0,0:0:0:0:
448,192,48898,1,0,0:0:0:0:
64,192,48898,1,0,0:0:0:0:
192,192,49122,1,0,0:0:0:0:
320,192,49234,1,0,0:0:0:0:
64,192,49346,1,0,0:0:0:0:
192,192,49346,1,0,0:0:0:0:
320,192,49570,1,0,0:0:0:0:
192,192,49570,1,0,0:0:0:0:
448,192,49793,1,0,0:0:0:0:
192,192,49793,1,0,0:0:0:0:
320,192,50017,1,0,0:0:0:0:
64,192,50017,1,0,0:0:0:0:
64,192,50241,1,0,0:0:0:0:
448,192,50241,1,0,0:0:0:0:
448,192,50465,1,0,0:0:0:0:
192,192,50465,1,0,0:0:0:0:
192,192,50689,1,0,0:0:0:0:
64,192,50689,128,0,51137:0:0:0:0:
320,192,51137,1,0,0:0:0:0:
448,192,51137,1,0,0:0:0:0:
192,192,51361,1,0,0:0:0:0:
320,192,51473,1,0,0:0:0:0:
192,192,51585,1,0,0:0:0:0:
64,192,51585,1,0,0:0:0:0:
448,192,51585,1,0,0:0:0:0:
64,192,51808,1,0,0:0:0:0:
448,192,52032,1,0,0:0:0:0:
192,192,52144,1,0,0:0:0:0:
320,192,52256,1,0,0:0:0:0:
448,192,52256,1,0,0:0:0:0:
64,192,52256,1,0,0:0:0:0:
192,192,52480,1,0,0:0:0:0:
64,192,52480,1,0,0:0:0:0:
448,192,52704,1,0,0:0:0:0:
320,192,52704,1,0,0:0:0:0:
192,192,52704,1,0,0:0:0:0:
64,192,52928,1,0,0:0:0:0:
192,192,53152,1,0,0:0:0:0:
320,192,53264,1,0,0:0:0:0:
192,192,53376,1,0,0:0:0:0:
64,192,53376,1,0,0:0:0:0:
448,192,53376,1,0,0:0:0:0:
320,192,53599,1,0,0:0:0:0:
448,192,53599,1,0,0:0:0:0:
64,192,53823,1,0,0:0:0:0:
320,192,53823,1,0,0:0:0:0:
448,192,54047,1,0,0:0:0:0:
192,192,54047,1,0,0:0:0:0:
64,192,54047,1,0,0:0:0:0:
320,192,54271,128,0,54719:0:0:0:0:
192,192,54271,1,0,0:0:0:0:
448,192,54495,1,0,0:0:0:0:
64,192,54719,1,0,0:0:0:0:
192,192,54719,1,0,0:0:0:0:
320,192,54943,1,0,0:0:0:0:
192,192,55055,1,0,0:0:0:0:
448,192,55167,1,0,0:0:0:0:
320,192,55167,1,0,0:0:0:0:
64,192,55167,1,0,0:0:0:0:
448,192,55390,1,0,0:0:0:0:
64,192,55614,1,0,0:0:0:0:
320,192,55726,1,0,0:0:0:0:
64,192,55838,1,0,0:0:0:0:
192,192,55838,1,0,0:0:0:0:
448,192,55838,1,0,0:0:0:0:
448,192,56062,1,0,0:0:0:0:
320,192,56062,1,0,0:0:0:0:
192,192,56286,1,0,0:0:0:0:
64,192,56286,1,0,0:0:0:0:
320,192,56286,1,0,0:0:0:0:
448,192,56510,1,0,0:0:0:0:
320,192,56734,1,0,0:0:0:0:
192,192,56846,1,0,0:0:0:0:
448,192,56958,1,0,0:0:0:0:
320,192,56958,1,0,0:0:0:0:
64,192,56958,1,0,0:0:0:0:
64,192,57182,1,0,0:0:0:0:
192,192,57182,1,0,0:0:0:0:
192,192,57405,1,0,0:0:0:0:
448,192,57405,1,0,0:0:0:0:
320,192,57629,1,0,0:0:0:0:
64,192,57629,1,0,0:0:0:0:
448,192,57629,1,0,0:0:0:0:
320,192,57853,1,0,0:0:0:0:
192,192,57853,128,0,58301:0:0:0:0:
64,192,57853,1,0,0:0:0:0:
448,192,58077,1,0,0:0:0:0:
320,192,58301,1,0,0:0:0:0:
448,192,58301,1,0,0:0:0:0:
192,192,58525,1,0,0:0:0:0:
320,192,58637,1,0,0:0:0:0:
192,192,58749,1,0,0:0:0:0:
64,192,58749,1,0,0:0:0:0:
448,192,58749,1,0,0:0:0:0:
64,192,58973,1,0,0:0:0:0:
448,192,59196,1,0,0:0:0:0:
192,192,59308,1,0,0:0:0:0:
320,192,59420,1,0,0:0:0:0:
448,192,59420,1,0,0:0:0:0:
64,192,59420,1,0,0:0:0:0:
192,192,59644,1,0,0:0:0:0:
64,192,59644,1,0,0:0:0:0:
448,192,59868,1,0,0:0:0:0:
320,192,59868,1,0,0:0:0:0:
192,192,59868,1,0,0:0:0:0:
64,192,60092,1,0,0:0:0:0:
192,192,60316,1,0,0:0:0:0:
320,192,60428,1,0,0:0:0:0:
192,192,60540,1,0,0:0:0:0:
64,192,60540,1,0,0:0:0:0:
448,192,60540,1,0,0:0:0:0:
320,192,60764,1,0,0:0:0:0:
448,192,60764,1,0,0:0:0:0:
64,192,60988,1,0,0:0:0:0:
320,192,60988,1,0,0:0:0:0:
448,192,61211,1,0,0:0:0:0:
192,192,61211,1,0,0:0:0:0:
320,192,61211,1,0,0:0:0:0:
320,192,61435,128,0,61883:0:0:0:0:
192,192,61435,1,0,0:0:0:0:
64,192,61659,1,0,0:0:0:0:
64,192,61883,1,0,0:0:0:0:
192,192,61883,1,0,0:0:0:0:
320,192,62107,1,0,0:0:0:0:
192,192,62219,1,0,0:0:0:0:
448,192,62331,1,0,0:0:0:0:
320,192,62331,1,0,0:0:0:0:
64,192,62331,1,0,0:0:0:0:
448,192,62555,1,0,0:0:0:0:
64,192,62779,1,0,0:0:0:0:
320,192,62890,1,0,0:0:0:0:
192,192,63002,1,0,0:0:0:0:
64,192,63002,1,0,0:0:0:0:
448,192,63002,1,0,0:0:0:0:
448,192,63226,1,0,0:0:0:0:
320,192,63226,1,0,0:0:0:0:
192,192,63450,1,0,0:0:0:0:
64,192,63450,1,0,0:0:0:0:
320,192,63450,1,0,0:0:0:0:
448,192,63674,1,0,0:0:0:0:
320,192,63898,1,0,0:0:0:0:
192,192,64010,1,0,0:0:0:0:
320,192,64122,1,0,0:0:0:0:
448,192,64122,1,0,0:0:0:0:
64,192,64122,1,0,0:0:0:0:
192,192,64346,1,0,0:0:0:0:
64,192,64346,1,0,0:0:0:0:
448,192,64570,1,0,0:0:0:0:
192,192,64570,1,0,0:0:0:0:
320,192,64793,1,0,0:0:0:0:
64,192,64793,1,0,0:0:0:0:
448,192,64793,1,0,0:0:0:0:
320,192,65017,1,0,0:0:0:0:
192,192,65017,128,0,65465:0:0:0:0:
448,192,65241,1,0,0:0:0:0:
64,192,65241,1,0,0:0:0:0:
320,192,65465,1,0,0:0:0:0:
448,192,65465,1,0,0:0:0:0:
64,192,65689,1,0,0:0:0:0:
192,192,65913,1,0,0:0:0:0:
448,192,65913,1,0,0:0:0:0:
448,192,66137,1,0,0:0:0:0:
192,192,66361,1,0,0:0:0:0:
64,192,66361,1,0,0:0:0:0:
192,192,66585,1,0,0:0:0:0:
64,192,66808,1,0,0:0:0:0:
448,192,66808,1,0,0:0:0:0:
192,192,67032,1,0,0:0:0:0:
320,192,67032,128,0,67480:0:0:0:0:
64,192,67480,1,0,0:0:0:0:
448,192,67480,1,0,0:0:0:0:
192,192,67704,1,0,0:0:0:0:
448,192,67704,1,0,0:0:0:0:
320,192,67928,1,0,0:0:0:0:
64,192,67928,1,0,0:0:0:0:
192,192,68152,1,0,0:0:0:0:
64,192,68152,1,0,0:0:0:0:
448,192,68376,1,0,0:0:0:0:
320,192,68599,1,0,0:0:0:0:
64,192,68599,1,0,0:0:0:0:
192,192,68823,1,0,0:0:0:0:
64,192,69047,1,0,0:0:0:0:
320,192,69047,1,0,0:0:0:0:
448,192,69047,1,0,0:0:0:0:
192,192,69271,1,0,0:0:0:0:
448,192,69495,1,0,0:0:0:0:
320,192,69495,1,0,0:0:0:0:
64,192,69719,1,0,0:0:0:0:
192,192,69719,1,0,0:0:0:0:
448,192,69943,1,0,0:0:0:0:
192,192,69943,1,0,0:0:0:0:
320,192,70167,1,0,0:0:0:0:
192,192,70390,1,0,0:0:0:0:
64,192,70390,1,0,0:0:0:0:
192,192,70614,1,0,0:0:0:0:
320,192,70614,1,0,0:0:0:0:
448,192,70614,128,0,72629:0:0:0:0:
64,192,71062,1,0,0:0:0:0:
320,192,71286,1,0,0:0:0:0:
64,192,71510,1,0,0:0:0:0:
320,192,71734,1,0,0:0:0:0:
192,192,71734,1,0,0:0:0:0:
64,192,71958,1,0,0:0:0:0:
192,192,71958,1,0,0:0:0:0:
320,192,72182,1,0,0:0:0:0:
192,192,72182,1,0,0:0:0:0:
64,192,72405,1,0,0:0:0:0:
192,192,72405,1,0,0:0:0:0:
320,192,72629,1,0,0:0:0:0:
64,192,72629,1,0,0:0:0:0:
320,192,72965,1,0,0:0:0:0:
192,192,73077,1,0,0:0:0:0:
64,192,73077,1,0,0:0:0:0:
64,192,73301,1,0,0:0:0:0:
192,192,73413,1,0,0:0:0:0:
320,192,73525,1,0,0:0:0:0:
448,192,73525,1,0,0:0:0:0:
192,192,73637,1,0,0:0:0:0:
64,192,73749,1,0,0:0:0:0:
448,192,73749,1,0,0:0:0:0:
192,192,73973,1,0,0:0:0:0:
320,192,73973,1,0,0:0:0:0:
448,192,74196,1,0,0:0:0:0:
192,192,74196,1,0,0:0:0:0:
64,192,74196,128,0,74644:0:0:0:0:
448,192,74644,1,0,0:0:0:0:
320,192,74644,1,0,0:0:0:0:
192,192,74868,1,0,0:0:0:0:
64,192,74868,1,0,0:0:0:0:
64,192,75092,1,0,0:0:0:0:
320,192,75204,1,0,0:0:0:0:
192,192,75316,1,0,0:0:0:0:
448,192,75316,1,0,0:0:0:0:
320,192,75428,1,0,0:0:0:0:
64,192,75540,1,0,0:0:0:0:
448,192,75540,1,0,0:0:0:0:
64,192,75764,1,0,0:0:0:0:
192,192,75764,1,0,0:0:0:0:
320,192,75988,1,0,0:0:0:0:
64,192,75988,1,0,0:0:0:0:
192,192,76211,1,0,0:0:0:0:
320,192,76211,1,0,0:0:0:0:
448,192,76211,128,0,76659:0:0:0:0:
192,192,76659,1,0,0:0:0:0:
64,192,76659,1,0,0:0:0:0:
64,192,76883,1,0,0:0:0:0:
192,192,76995,1,0,0:0:0:0:
448,192,77107,1,0,0:0:0:0:
64,192,77107,1,0,0:0:0:0:
320,192,77219,1,0,0:0:0:0:
448,192,77331,1,0,0:0:0:0:
192,192,77555,1,0,0:0:0:0:
320,192,77555,1,0,0:0:0:0:
64,192,77779,1,0,0:0:0:0:
448,192,77779,1,0,0:0:0:0:
192,192,77779,128,0,78226:0:0:0:0:
320,192,78226,1,0,0:0:0:0:
448,192,78450,1,0,0:0:0:0:
64,192,78450,1,0,0:0:0:0:
192,192,78674,1,0,0:0:0:0:
448,192,78674,1,0,0:0:0:0:
320,192,78786,1,0,0:0:0:0:
192,192,78898,1,0,0:0:0:0:
64,192,78898,1,0,0:0:0:0:
320,192,79010,1,0,0:0:0:0:
448,192,79122,1,0,0:0:0:0:
192,192,79122,1,0,0:0:0:0:
64,192,79346,1,0,0:0:0:0:
320,192,79346,1,0,0:0:0:0:
192,192,79570,1,0,0:0:0:0:
320,192,79570,1,0,0:0:0:0:
448,192,79793,1,0,0:0:0:0:
192,192,79793,1,0,0:0:0:0:
192,192,80129,1,0,0:0:0:0:
448,192,80241,1,0,0:0:0:0:
320,192,80241,1,0,0:0:0:0:
448,192,80465,1,0,0:0:0:0:
320,192,80577,1,0,0:0:0:0:
64,192,80689,1,0,0:0:0:0:
192,192,80689,1,0,0:0:0:0:
320,192,80801,1,0,0:0:0:0:
64,192,80913,1,0,0:0:0:0:
448,192,80913,1,0,0:0:0:0:
192,192,81137,1,0,0:0:0:0:
320,192,81137,1,0,0:0:0:0:
448,192,81361,128,0,81808:0:0:0:0:
64,192,81361,1,0,0:0:0:0:
320,192,81361,1,0,0:0:0:0:
192,192,81808,1,0,0:0:0:0:
64,192,81808,1,0,0:0:0:0:
320,192,82032,1,0,0:0:0:0:
448,192,82032,1,0,0:0:0:0:
448,192,82256,1,0,0:0:0:0:
192,192,82368,1,0,0:0:0:0:
320,192,82480,1,0,0:0:0:0:
64,192,82480,1,0,0:0:0:0:
192,192,82592,1,0,0:0:0:0:
448,192,82704,1,0,0:0:0:0:
64,192,82704,1,0,0:0:0:0:
448,192,82928,1,0,0:0:0:0:
320,192,82928,1,0,0:0:0:0:
192,192,83152,1,0,0:0:0:0:
448,192,83152,1,0,0:0:0:0:
320,192,83376,1,0,0:0:0:0:
192,192,83376,1,0,0:0:0:0:
64,192,83376,1,0,0:0:0:0:
64,192,83711,1,0,0:0:0:0:
320,192,83823,1,0,0:0:0:0:
448,192,83823,1,0,0:0:0:0:
448,192,84047,1,0,0:0:0:0:
320,192,84159,1,0,0:0:0:0:
448,192,84271,1,0,0:0:0:0:
64,192,84271,1,0,0:0:0:0:
192,192,84383,1,0,0:0:0:0:
64,192,84495,1,0,0:0:0:0:
320,192,84719,1,0,0:0:0:0:
192,192,84719,1,0,0:0:0:0:
448,192,84943,1,0,0:0:0:0:
320,192,84943,128,0,85390:0:0:0:0:
64,192,84943,1,0,0:0:0:0:
192,192,85390,1,0,0:0:0:0:
448,192,85614,1,0,0:0:0:0:
64,192,85614,1,0,0:0:0:0:
64,192,85838,1,0,0:0:0:0:
320,192,85838,1,0,0:0:0:0:
192,192,85950,1,0,0:0:0:0:
448,192,86062,1,0,0:0:0:0:
320,192,86062,1,0,0:0:0:0:
192,192,86174,1,0,0:0:0:0:
64,192,86286,1,0,0:0:0:0:
320,192,86286,1,0,0:0:0:0:
448,192,86510,1,0,0:0:0:0:
192,192,86510,1,0,0:0:0:0:
320,192,86734,1,0,0:0:0:0:
192,192,86734,1,0,0:0:0:0:
320,192,86958,1,0,0:0:0:0:
448,192,86958,1,0,0:0:0:0:
64,192,86958,128,0,87405:0:0:0:0:
192,192,87405,1,0,0:0:0:0:
448,192,87405,1,0,0:0:0:0:
448,192,87629,1,0,0:0:0:0:
320,192,87741,1,0,0:0:0:0:
192,192,87853,1,0,0:0:0:0:
64,192,87853,1,0,0:0:0:0:
320,192,87965,1,0,0:0:0:0:
448,192,88077,1,0,0:0:0:0:
192,192,88189,1,0,0:0:0:0:
320,192,88301,1,0,0:0:0:0:
448,192,88301,1,0,0:0:0:0:
448,192,88525,1,0,0:0:0:0:
64,192,88525,128,0,89196:0:0:0:0:
320,192,88637,1,0,0:0:0:0:
448,192,88749,1,0,0:0:0:0:
320,192,88973,1,0,0:0:0:0:
192,192,88973,1,0,0:0:0:0:
448,192,89196,1,0,0:0:0:0:
64,192,89420,1,0,0:0:0:0:
192,192,89532,1,0,0:0:0:0:
448,192,89644,1,0,0:0:0:0:
320,192,89644,1,0,0:0:0:0:
192,192,89756,1,0,0:0:0:0:
64,192,89868,1,0,0:0:0:0:
192,192,90092,1,0,0:0:0:0:
320,192,90092,1,0,0:0:0:0:
448,192,90316,1,0,0:0:0:0:
320,192,90428,1,0,0:0:0:0:
192,192,90540,1,0,0:0:0:0:
64,192,90540,128,0,91883:0:0:0:0:
320,192,90764,1,0,0:0:0:0:
448,192,90988,1,0,0:0:0:0:
192,192,90988,1,0,0:0:0:0:
320,192,91211,1,0,0:0:0:0:
448,192,91323,1,0,0:0:0:0:
192,192,91435,1,0,0:0:0:0:
448,192,91547,1,0,0:0:0:0:
320,192,91659,1,0,0:0:0:0:
448,192,91883,1,0,0:0:0:0:
192,192,91883,1,0,0:0:0:0:
320,192,92107,1,0,0:0:0:0:
192,192,92107,128,0,92779:0:0:0:0:
64,192,92555,1,0,0:0:0:0:
320,192,92779,1,0,0:0:0:0:
448,192,92779,1,0,0:0:0:0:
320,192,93226,1,0,0:0:0:0:
192,192,93226,1,0,0:0:0:0:
192,192,93674,1,0,0:0:0:0:
64,192,93674,1,0,0:0:0:0:
192,192,94122,1,0,0:0:0:0:
64,192,94122,1,0,0:0:0:0:
448,192,94570,1,0,0:0:0:0:
192,192,94570,1,0,0:0:0:0:
320,192,94793,1,0,0:0:0:0:
192,192,94905,1,0,0:0:0:0:
448,192,95017,1,0,0:0:0:0:
64,192,95017,1,0,0:0:0:0:
192,192,95129,1,0,0:0:0:0:
320,192,95241,1,0,0:0:0:0:
64,192,95465,1,0,0:0:0:0:
448,192,95465,1,0,0:0:0:0:
320,192,95689,1,0,0:0:0:0:
192,192,95801,1,0,0:0:0:0:
320,192,95913,1,0,0:0:0:0:
448,192,95913,1,0,0:0:0:0:
192,192,96137,1,0,0:0:0:0:
320,192,96137,1,0,0:0:0:0:
320,192,96361,1,0,0:0:0:0:
64,192,96361,1,0,0:0:0:0:
192,192,96585,1,0,0:0:0:0:
448,192,96585,1,0,0:0:0:0:
64,192,96808,1,0,0:0:0:0:
448,192,96808,1,0,0:0:0:0:
320,192,97032,1,0,0:0:0:0:
192,192,97032,1,0,0:0:0:0:
448,192,97256,1,0,0:0:0:0:
320,192,97256,1,0,0:0:0:0:
192,192,97480,1,0,0:0:0:0:
64,192,97480,1,0,0:0:0:0:
448,192,97704,1,0,0:0:0:0:
320,192,97704,1,0,0:0:0:0:
320,192,98152,1,0,0:0:0:0:
64,192,98152,1,0,0:0:0:0:
192,192,98376,1,0,0:0:0:0:
320,192,98488,1,0,0:0:0:0:
448,192,98599,1,0,0:0:0:0:
64,192,98599,1,0,0:0:0:0:
320,192,98711,1,0,0:0:0:0:
192,192,98823,1,0,0:0:0:0:
64,192,99047,1,0,0:0:0:0:
448,192,99047,1,0,0:0:0:0:
192,192,99271,1,0,0:0:0:0:
320,192,99383,1,0,0:0:0:0:
64,192,99495,1,0,0:0:0:0:
192,192,99495,1,0,0:0:0:0:
192,192,99719,1,0,0:0:0:0:
320,192,99719,1,0,0:0:0:0:
448,192,99943,1,0,0:0:0:0:
192,192,99943,1,0,0:0:0:0:
64,192,100167,1,0,0:0:0:0:
320,192,100167,1,0,0:0:0:0:
64,192,100390,1,0,0:0:0:0:
448,192,100390,1,0,0:0:0:0:
320,192,100614,1,0,0:0:0:0:
192,192,100614,1,0,0:0:0:0:
192,192,100838,1,0,0:0:0:0:
64,192,100838,128,0,101286:0:0:0:0:
448,192,101062,1,0,0:0:0:0:
320,192,101174,1,0,0:0:0:0:
192,192,101286,1,0,0:0:0:0:
448,192,101286,1,0,0:0:0:0:
64,192,101734,1,0,0:0:0:0:
320,192,101734,1,0,0:0:0:0:
192,192,101958,1,0,0:0:0:0:
320,192,102070,1,0,0:0:0:0:
64,192,102182,1,0,0:0:0:0:
448,192,102182,1,0,0:0:0:0:
320,192,102293,1,0,0:0:0:0:
192,192,102405,1,0,0:0:0:0:
448,192,102629,1,0,0:0:0:0:
64,192,102629,1,0,0:0:0:0:
192,192,102853,1,0,0:0:0:0:
320,192,102965,1,0,0:0:0:0:
192,192,103077,1,0,0:0:0:0:
64,192,103077,1,0,0:0:0:0:
320,192,103301,1,0,0:0:0:0:
192,192,103301,1,0,0:0:0:0:
192,192,103525,1,0,0:0:0:0:
448,192,103525,1,0,0:0:0:0:
320,192,103749,1,0,0:0:0:0:
64,192,103749,1,0,0:0:0:0:
448,192,103973,1,0,0:0:0:0:
64,192,103973,1,0,0:0:0:0:
192,192,104196,1,0,0:0:0:0:
320,192,104196,1,0,0:0:0:0:
64,192,104420,1,0,0:0:0:0:
192,192,104420,1,0,0:0:0:0:
320,192,104644,1,0,0:0:0:0:
448,192,104644,1,0,0:0:0:0:
192,192,104868,1,0,0:0:0:0:
64,192,104868,1,0,0:0:0:0:
192,192,105316,1,0,0:0:0:0:
448,192,105316,1,0,0:0:0:0:
320,192,105540,1,0,0:0:0:0:
192,192,105652,1,0,0:0:0:0:
64,192,105764,1,0,0:0:0:0:
448,192,105764,1,0,0:0:0:0:
192,192,105876,1,0,0:0:0:0:
320,192,105988,1,0,0:0:0:0:
448,192,106211,1,0,0:0:0:0:
64,192,106211,1,0,0:0:0:0:
320,192,106435,1,0,0:0:0:0:
192,192,106547,1,0,0:0:0:0:
448,192,106659,1,0,0:0:0:0:
320,192,106659,1,0,0:0:0:0:
320,192,106883,1,0,0:0:0:0:
192,192,106883,1,0,0:0:0:0:
64,192,107107,1,0,0:0:0:0:
320,192,107107,1,0,0:0:0:0:
448,192,107331,1,0,0:0:0:0:
192,192,107331,1,0,0:0:0:0:
448,192,107555,1,0,0:0:0:0:
64,192,107555,1,0,0:0:0:0:
320,192,107555,1,0,0:0:0:0:
192,192,107779,1,0,0:0:0:0:
320,192,107779,1,0,0:0:0:0:
64,192,107779,1,0,0:0:0:0:
320,192,108002,1,0,0:0:0:0:
448,192,108002,1,0,0:0:0:0:
192,192,108002,1,0,0:0:0:0:
64,192,108114,1,0,0:0:0:0:
192,192,108226,1,0,0:0:0:0:
320,192,108338,1,0,0:0:0:0:
448,192,108450,1,0,0:0:0:0:
64,192,108450,1,0,0:0:0:0:
