osu file format v14

[General]
AudioFilename: 1en.mp3
AudioLeadIn: 0
PreviewTime: 88564
Countdown: 0
SampleSet: None
StackLeniency: 0.7
Mode: 3
LetterboxInBreaks: 0
SpecialStyle: 0
WidescreenStoryboard: 0

[Editor]
Bookmarks: 159735
DistanceSpacing: 0.7
BeatDivisor: 4
GridSize: 4
TimelineZoom: 4.199999

[Metadata]
Title:Kagamine mania pack 1
TitleUnicode:Kagamine mania pack 1
Artist:Kagamine Rin & Len
ArtistUnicode:Kagamine Rin & Len
Creator:paperlens
Version:Ningen Shikkaku - 4k Sayonara
Source:
Tags:VOCALOID 鏡音レン tangjinxi cosran ギガP giga-P アシンメトリー しんでしまうとはなさけない Jesus-P じーざすP Vocaloid WONDERFUL ☆ OPPORTUNITY ぼうけんのしょがきえました Nem スーパーヒーロー 人間失格 Neru 押入れP No Longer Human potchi
BeatmapID:1055865
BeatmapSetID:496040

[Difficulty]
HPDrainRate:8
CircleSize:4
OverallDifficulty:8
ApproachRate:5
SliderMultiplier:1.4
SliderTickRate:1

[Events]
//Background and Video events
0,0,"SakuraTree.jpg",0,0
//Break Periods
//Storyboard Layer 0 (Background)
//Storyboard Layer 1 (Fail)
//Storyboard Layer 2 (Pass)
//Storyboard Layer 3 (Foreground)
//Storyboard Sound Samples

[TimingPoints]
5790,444.444444444444,3,2,0,5,1,0
5790,-70.4225352112676,3,2,0,5,0,0
16436,451.127819548872,3,2,0,5,1,0
16436,-70.4225352112676,3,2,0,5,0,0
17112,444.444444444444,3,2,0,5,1,0
17112,-70.4225352112676,3,2,0,5,0,0
17778,447.761194029851,3,2,0,5,1,0
17778,-70.4225352112676,3,2,0,5,0,0
21857,500,3,2,0,5,1,0
21857,-70.4225352112676,3,2,0,5,0,0
22597,600,3,2,0,5,1,0
22597,-70.4225352112676,3,2,0,5,0,0
22897,571.428571428571,3,2,0,5,1,0
22897,-70.4225352112676,3,2,0,5,0,0
23468,705.882352941176,3,2,0,5,1,0
23468,-70.4225352112676,3,2,0,5,0,0
24133,705.882352941176,3,2,0,5,1,0
24133,-70.4225352112676,3,2,0,5,0,0
24458,1000,3,2,0,5,1,0
24458,-70.4225352112676,3,2,0,5,0,0
24958,1500,3,2,0,5,1,0
24958,-70.4225352112676,3,2,0,5,0,0
26689,312.5,4,2,0,5,1,0
89189,-100,4,2,0,5,0,1
91689,-100,4,2,0,5,0,1
108564,-100,4,2,0,5,0,0
159189,-100,4,2,0,5,0,1
178876,-100,4,2,0,5,0,0
250439,-100,4,2,0,5,0,1
271376,-100,4,2,0,5,0,0

[HitObjects]
320,192,5790,5,0,0:0:0:0:
64,192,5790,1,0,0:0:0:0:
192,192,6012,1,0,0:0:0:0:
320,192,6234,1,0,0:0:0:0:
448,192,6456,1,0,0:0:0:0:
192,192,6678,1,0,0:0:0:0:
320,192,6901,1,0,0:0:0:0:
448,192,7123,1,0,0:0:0:0:
64,192,7123,1,0,0:0:0:0:
192,192,7345,1,0,0:0:0:0:
320,192,7567,1,0,0:0:0:0:
448,192,7789,1,0,0:0:0:0:
320,192,8012,1,0,0:0:0:0:
192,192,8234,1,0,0:0:0:0:
64,192,8456,1,0,0:0:0:0:
320,192,8456,1,0,0:0:0:0:
192,192,8678,1,0,0:0:0:0:
320,192,8901,1,0,0:0:0:0:
64,192,9123,1,0,0:0:0:0:
192,192,9345,1,0,0:0:0:0:
448,192,9567,1,0,0:0:0:0:
320,192,9789,1,0,0:0:0:0:
192,192,9789,1,0,0:0:0:0:
64,192,10012,1,0,0:0:0:0:
192,192,10234,1,0,0:0:0:0:
320,192,10234,1,0,0:0:0:0:
192,192,10456,1,0,0:0:0:0:
448,192,10456,1,0,0:0:0:0:
64,192,11123,1,0,0:0:0:0:
320,192,11123,1,0,0:0:0:0:
192,192,11345,1,0,0:0:0:0:
320,192,11567,1,0,0:0:0:0:
448,192,11789,1,0,0:0:0:0:
192,192,12012,1,0,0:0:0:0:
320,192,12234,1,0,0:0:0:0:
448,192,12456,1,0,0:0:0:0:
64,192,12456,1,0,0:0:0:0:
192,192,12678,1,0,0:0:0:0:
320,192,12901,1,0,0:0:0:0:
448,192,13123,1,0,0:0:0:0:
320,192,13345,1,0,0:0:0:0:
192,192,13567,1,0,0:0:0:0:
64,192,13789,1,0,0:0:0:0:
320,192,13789,1,0,0:0:0:0:
192,192,14012,1,0,0:0:0:0:
320,192,14234,1,0,0:0:0:0:
64,192,14456,1,0,0:0:0:0:
192,192,14678,1,0,0:0:0:0:
448,192,14901,1,0,0:0:0:0:
320,192,15123,1,0,0:0:0:0:
64,192,15123,1,0,0:0:0:0:
192,192,15345,1,0,0:0:0:0:
320,192,15567,1,0,0:0:0:0:
448,192,15789,1,0,0:0:0:0:
64,192,16436,1,0,0:0:0:0:
320,192,16436,1,0,0:0:0:0:
192,192,16661,1,0,0:0:0:0:
320,192,16887,1,0,0:0:0:0:
448,192,17112,1,0,0:0:0:0:
192,192,17334,1,0,0:0:0:0:
320,192,17556,1,0,0:0:0:0:
448,192,17778,1,0,0:0:0:0:
64,192,17778,1,0,0:0:0:0:
192,192,18001,1,0,0:0:0:0:
320,192,18225,1,0,0:0:0:0:
448,192,18449,1,0,0:0:0:0:
320,192,18673,1,0,0:0:0:0:
192,192,18897,1,0,0:0:0:0:
448,192,19121,1,0,0:0:0:0:
64,192,19121,1,0,0:0:0:0:
192,192,19345,1,0,0:0:0:0:
320,192,19569,1,0,0:0:0:0:
192,192,19792,1,0,0:0:0:0:
320,192,20016,1,0,0:0:0:0:
448,192,20240,1,0,0:0:0:0:
320,192,20464,1,0,0:0:0:0:
192,192,20464,1,0,0:0:0:0:
64,192,20688,1,0,0:0:0:0:
192,192,20912,1,0,0:0:0:0:
320,192,20912,1,0,0:0:0:0:
192,192,21136,1,0,0:0:0:0:
448,192,21136,1,0,0:0:0:0:
192,192,21857,1,0,0:0:0:0:
64,192,21857,1,0,0:0:0:0:
320,192,22107,1,0,0:0:0:0:
448,192,22357,1,0,0:0:0:0:
64,192,22597,1,0,0:0:0:0:
320,192,22597,1,0,0:0:0:0:
192,192,22897,1,0,0:0:0:0:
320,192,23182,1,0,0:0:0:0:
448,192,23468,1,0,0:0:0:0:
64,192,23468,1,0,0:0:0:0:
192,192,23820,1,0,0:0:0:0:
320,192,24133,1,0,0:0:0:0:
448,192,24458,1,0,0:0:0:0:
64,192,24458,1,0,0:0:0:0:
320,192,24958,1,0,0:0:0:0:
192,192,25708,1,0,0:0:0:0:
192,192,26689,1,0,0:0:0:0:
64,192,26689,1,0,0:0:0:0:
448,192,26689,128,0,27001:0:0:0:0:
192,192,27001,128,0,27314:0:0:0:0:
448,192,27314,1,0,0:0:0:0:
64,192,27314,128,0,27626:0:0:0:0:
320,192,27314,1,0,0:0:0:0:
320,192,27626,128,0,27939:0:0:0:0:
192,192,28095,1,0,0:0:0:0:
64,192,28095,1,0,0:0:0:0:
448,192,28095,1,0,0:0:0:0:
64,192,28251,1,0,0:0:0:0:
192,192,28251,1,0,0:0:0:0:
448,192,28251,1,0,0:0:0:0:
448,192,28407,1,0,0:0:0:0:
192,192,28407,1,0,0:0:0:0:
64,192,28407,1,0,0:0:0:0:
64,192,28564,1,0,0:0:0:0:
448,192,28564,1,0,0:0:0:0:
192,192,28564,1,0,0:0:0:0:
320,192,28876,1,0,0:0:0:0:
192,192,28876,1,0,0:0:0:0:
64,192,29189,1,0,0:0:0:0:
448,192,29189,1,0,0:0:0:0:
192,192,29189,128,0,29657:0:0:0:0:
320,192,29501,1,0,0:0:0:0:
448,192,29657,128,0,30126:0:0:0:0:
64,192,29657,1,0,0:0:0:0:
192,192,29814,1,0,0:0:0:0:
64,192,29970,1,0,0:0:0:0:
320,192,30126,1,0,0:0:0:0:
192,192,30126,128,0,30439:0:0:0:0:
448,192,30282,1,0,0:0:0:0:
320,192,30439,1,0,0:0:0:0:
64,192,30439,128,0,30907:0:0:0:0:
448,192,30751,1,0,0:0:0:0:
192,192,30907,1,0,0:0:0:0:
320,192,30907,128,0,31376:0:0:0:0:
64,192,31064,1,0,0:0:0:0:
192,192,31220,1,0,0:0:0:0:
64,192,31376,128,0,31689:0:0:0:0:
448,192,31376,1,0,0:0:0:0:
320,192,31532,1,0,0:0:0:0:
448,192,31689,128,0,32157:0:0:0:0:
192,192,31689,1,0,0:0:0:0:
64,192,32001,1,0,0:0:0:0:
192,192,32157,128,0,32626:0:0:0:0:
320,192,32157,1,0,0:0:0:0:
448,192,32314,1,0,0:0:0:0:
320,192,32470,1,0,0:0:0:0:
448,192,32626,128,0,32939:0:0:0:0:
64,192,32626,1,0,0:0:0:0:
192,192,32782,1,0,0:0:0:0:
320,192,32939,1,0,0:0:0:0:
64,192,32939,1,0,0:0:0:0:
320,192,33095,1,0,0:0:0:0:
192,192,33251,1,0,0:0:0:0:
448,192,33251,1,0,0:0:0:0:
64,192,33251,1,0,0:0:0:0:
448,192,33407,1,0,0:0:0:0:
320,192,33564,1,0,0:0:0:0:
64,192,33564,1,0,0:0:0:0:
320,192,33720,1,0,0:0:0:0:
64,192,33876,1,0,0:0:0:0:
192,192,33876,1,0,0:0:0:0:
448,192,33876,1,0,0:0:0:0:
64,192,34032,1,0,0:0:0:0:
192,192,34189,128,0,34657:0:0:0:0:
320,192,34189,1,0,0:0:0:0:
448,192,34189,1,0,0:0:0:0:
64,192,34501,1,0,0:0:0:0:
448,192,34657,128,0,35126:0:0:0:0:
320,192,34657,1,0,0:0:0:0:
192,192,34814,1,0,0:0:0:0:
320,192,34970,1,0,0:0:0:0:
192,192,35126,128,0,35439:0:0:0:0:
64,192,35126,1,0,0:0:0:0:
448,192,35282,1,0,0:0:0:0:
64,192,35439,128,0,35907:0:0:0:0:
320,192,35439,1,0,0:0:0:0:
448,192,35751,1,0,0:0:0:0:
320,192,35907,128,0,36376:0:0:0:0:
192,192,35907,1,0,0:0:0:0:
64,192,36064,1,0,0:0:0:0:
192,192,36220,1,0,0:0:0:0:
64,192,36376,128,0,36689:0:0:0:0:
448,192,36376,1,0,0:0:0:0:
320,192,36532,1,0,0:0:0:0:
192,192,36689,128,0,37314:0:0:0:0:
448,192,36689,1,0,0:0:0:0:
320,192,37001,1,0,0:0:0:0:
448,192,37157,1,0,0:0:0:0:
320,192,37314,1,0,0:0:0:0:
64,192,37314,1,0,0:0:0:0:
192,192,37470,1,0,0:0:0:0:
448,192,37626,1,0,0:0:0:0:
320,192,37626,1,0,0:0:0:0:
192,192,37782,1,0,0:0:0:0:
64,192,37939,1,0,0:0:0:0:
320,192,37939,128,0,38720:0:0:0:0:
448,192,38251,1,0,0:0:0:0:
192,192,38251,1,0,0:0:0:0:
64,192,38407,1,0,0:0:0:0:
192,192,38564,1,0,0:0:0:0:
64,192,38720,1,0,0:0:0:0:
448,192,38720,1,0,0:0:0:0:
320,192,38876,1,0,0:0:0:0:
192,192,39032,1,0,0:0:0:0:
64,192,39032,1,0,0:0:0:0:
320,192,39110,1,0,0:0:0:0:
448,192,39189,1,0,0:0:0:0:
192,192,39189,128,0,39657:0:0:0:0:
64,192,39189,1,0,0:0:0:0:
320,192,39501,1,0,0:0:0:0:
64,192,39657,1,0,0:0:0:0:
448,192,39657,128,0,40126:0:0:0:0:
192,192,39814,1,0,0:0:0:0:
64,192,39970,1,0,0:0:0:0:
320,192,40126,1,0,0:0:0:0:
192,192,40126,128,0,40439:0:0:0:0:
448,192,40282,1,0,0:0:0:0:
64,192,40439,128,0,40907:0:0:0:0:
320,192,40439,1,0,0:0:0:0:
448,192,40751,1,0,0:0:0:0:
320,192,40907,128,0,41376:0:0:0:0:
192,192,40907,1,0,0:0:0:0:
64,192,41064,1,0,0:0:0:0:
192,192,41220,1,0,0:0:0:0:
448,192,41376,1,0,0:0:0:0:
64,192,41376,128,0,41689:0:0:0:0:
320,192,41532,1,0,0:0:0:0:
448,192,41689,128,0,42157:0:0:0:0:
192,192,41689,1,0,0:0:0:0:
64,192,42001,1,0,0:0:0:0:
320,192,42157,1,0,0:0:0:0:
192,192,42157,128,0,42626:0:0:0:0:
448,192,42314,1,0,0:0:0:0:
320,192,42470,1,0,0:0:0:0:
448,192,42626,128,0,42939:0:0:0:0:
64,192,42626,1,0,0:0:0:0:
192,192,42782,1,0,0:0:0:0:
64,192,42939,1,0,0:0:0:0:
320,192,42939,1,0,0:0:0:0:
320,192,43095,1,0,0:0:0:0:
64,192,43251,1,0,0:0:0:0:
192,192,43251,1,0,0:0:0:0:
448,192,43251,1,0,0:0:0:0:
448,192,43407,1,0,0:0:0:0:
320,192,43564,1,0,0:0:0:0:
64,192,43564,1,0,0:0:0:0:
320,192,43720,1,0,0:0:0:0:
192,192,43876,1,0,0:0:0:0:
448,192,43876,1,0,0:0:0:0:
64,192,43876,1,0,0:0:0:0:
64,192,44032,1,0,0:0:0:0:
320,192,44189,1,0,0:0:0:0:
192,192,44189,128,0,44657:0:0:0:0:
448,192,44189,1,0,0:0:0:0:
64,192,44501,1,0,0:0:0:0:
320,192,44657,1,0,0:0:0:0:
448,192,44657,128,0,45126:0:0:0:0:
192,192,44814,1,0,0:0:0:0:
320,192,44970,1,0,0:0:0:0:
64,192,45126,1,0,0:0:0:0:
192,192,45126,128,0,45439:0:0:0:0:
448,192,45282,1,0,0:0:0:0:
320,192,45439,1,0,0:0:0:0:
64,192,45439,128,0,45907:0:0:0:0:
448,192,45751,1,0,0:0:0:0:
320,192,45907,128,0,46376:0:0:0:0:
192,192,45907,1,0,0:0:0:0:
64,192,46064,1,0,0:0:0:0:
192,192,46220,1,0,0:0:0:0:
448,192,46376,1,0,0:0:0:0:
64,192,46376,128,0,46689:0:0:0:0:
320,192,46532,1,0,0:0:0:0:
192,192,46689,128,0,47314:0:0:0:0:
448,192,46689,1,0,0:0:0:0:
320,192,47001,1,0,0:0:0:0:
448,192,47157,1,0,0:0:0:0:
64,192,47314,1,0,0:0:0:0:
320,192,47314,1,0,0:0:0:0:
192,192,47470,1,0,0:0:0:0:
64,192,47626,1,0,0:0:0:0:
320,192,47626,1,0,0:0:0:0:
192,192,47782,1,0,0:0:0:0:
320,192,47939,128,0,48720:0:0:0:0:
448,192,47939,1,0,0:0:0:0:
192,192,48251,1,0,0:0:0:0:
448,192,48251,1,0,0:0:0:0:
64,192,48407,1,0,0:0:0:0:
192,192,48564,1,0,0:0:0:0:
448,192,48720,1,0,0:0:0:0:
64,192,48720,1,0,0:0:0:0:
192,192,48876,1,0,0:0:0:0:
320,192,49032,1,0,0:0:0:0:
448,192,49032,1,0,0:0:0:0:
192,192,49110,1,0,0:0:0:0:
64,192,49189,1,0,0:0:0:0:
320,192,49189,1,0,0:0:0:0:
448,192,49189,1,0,0:0:0:0:
192,192,49345,1,0,0:0:0:0:
192,192,49501,1,0,0:0:0:0:
64,192,49501,1,0,0:0:0:0:
448,192,49501,1,0,0:0:0:0:
192,192,49657,1,0,0:0:0:0:
320,192,49657,128,0,49814:0:0:0:0:
192,192,49814,1,0,0:0:0:0:
448,192,49814,128,0,49970:0:0:0:0:
192,192,49970,1,0,0:0:0:0:
320,192,49970,128,0,50126:0:0:0:0:
192,192,50126,1,0,0:0:0:0:
448,192,50126,1,0,0:0:0:0:
64,192,50126,1,0,0:0:0:0:
192,192,50282,1,0,0:0:0:0:
448,192,50282,128,0,50439:0:0:0:0:
192,192,50439,1,0,0:0:0:0:
320,192,50439,1,0,0:0:0:0:
192,192,50595,1,0,0:0:0:0:
320,192,50595,128,0,50751:0:0:0:0:
192,192,50751,1,0,0:0:0:0:
64,192,50751,1,0,0:0:0:0:
448,192,50751,1,0,0:0:0:0:
192,192,50907,1,0,0:0:0:0:
320,192,51064,128,0,51376:0:0:0:0:
448,192,51064,1,0,0:0:0:0:
64,192,51064,1,0,0:0:0:0:
64,192,51376,1,0,0:0:0:0:
192,192,51376,1,0,0:0:0:0:
448,192,51376,128,0,51689:0:0:0:0:
64,192,51689,1,0,0:0:0:0:
192,192,51689,1,0,0:0:0:0:
320,192,51845,1,0,0:0:0:0:
320,192,52001,1,0,0:0:0:0:
448,192,52001,1,0,0:0:0:0:
64,192,52001,1,0,0:0:0:0:
320,192,52157,1,0,0:0:0:0:
192,192,52157,128,0,52314:0:0:0:0:
320,192,52314,1,0,0:0:0:0:
64,192,52314,128,0,52470:0:0:0:0:
320,192,52470,1,0,0:0:0:0:
192,192,52470,128,0,52626:0:0:0:0:
320,192,52626,1,0,0:0:0:0:
448,192,52626,1,0,0:0:0:0:
64,192,52626,1,0,0:0:0:0:
320,192,52782,1,0,0:0:0:0:
64,192,52782,128,0,52939:0:0:0:0:
320,192,52939,1,0,0:0:0:0:
192,192,52939,1,0,0:0:0:0:
320,192,53095,1,0,0:0:0:0:
192,192,53095,128,0,53251:0:0:0:0:
320,192,53251,1,0,0:0:0:0:
64,192,53251,1,0,0:0:0:0:
448,192,53251,1,0,0:0:0:0:
320,192,53407,1,0,0:0:0:0:
192,192,53564,1,0,0:0:0:0:
448,192,53564,1,0,0:0:0:0:
64,192,53564,128,0,53876:0:0:0:0:
320,192,53876,1,0,0:0:0:0:
448,192,53876,1,0,0:0:0:0:
192,192,53876,128,0,54189:0:0:0:0:
320,192,54189,1,0,0:0:0:0:
448,192,54189,1,0,0:0:0:0:
64,192,54345,1,0,0:0:0:0:
192,192,54423,1,0,0:0:0:0:
64,192,54501,1,0,0:0:0:0:
448,192,54501,1,0,0:0:0:0:
320,192,54501,1,0,0:0:0:0:
320,192,54657,128,0,54814:0:0:0:0:
64,192,54814,1,0,0:0:0:0:
448,192,54814,128,0,54970:0:0:0:0:
192,192,54892,1,0,0:0:0:0:
320,192,54970,128,0,55126:0:0:0:0:
64,192,54970,1,0,0:0:0:0:
192,192,55126,1,0,0:0:0:0:
448,192,55126,1,0,0:0:0:0:
64,192,55282,1,0,0:0:0:0:
448,192,55282,128,0,55439:0:0:0:0:
192,192,55360,1,0,0:0:0:0:
64,192,55439,1,0,0:0:0:0:
320,192,55439,1,0,0:0:0:0:
320,192,55595,128,0,55751:0:0:0:0:
64,192,55751,1,0,0:0:0:0:
448,192,55751,1,0,0:0:0:0:
192,192,55751,1,0,0:0:0:0:
64,192,55907,1,0,0:0:0:0:
320,192,56064,1,0,0:0:0:0:
448,192,56064,1,0,0:0:0:0:
192,192,56064,128,0,56376:0:0:0:0:
320,192,56376,1,0,0:0:0:0:
64,192,56376,1,0,0:0:0:0:
448,192,56376,128,0,56689:0:0:0:0:
64,192,56689,128,0,57314:0:0:0:0:
320,192,56689,1,0,0:0:0:0:
448,192,57001,1,0,0:0:0:0:
192,192,57001,1,0,0:0:0:0:
320,192,57314,128,0,57626:0:0:0:0:
192,192,57314,1,0,0:0:0:0:
448,192,57626,128,0,57939:0:0:0:0:
192,192,57626,1,0,0:0:0:0:
64,192,57626,1,0,0:0:0:0:
64,192,57939,128,0,58251:0:0:0:0:
192,192,57939,128,0,58564:0:0:0:0:
320,192,58251,1,0,0:0:0:0:
448,192,58251,128,0,58564:0:0:0:0:
320,192,58564,128,0,59189:0:0:0:0:
64,192,58564,128,0,58876:0:0:0:0:
192,192,58876,1,0,0:0:0:0:
448,192,58876,1,0,0:0:0:0:
64,192,59032,1,0,0:0:0:0:
192,192,59110,1,0,0:0:0:0:
64,192,59189,1,0,0:0:0:0:
448,192,59189,1,0,0:0:0:0:
320,192,59345,1,0,0:0:0:0:
448,192,59501,1,0,0:0:0:0:
320,192,59501,1,0,0:0:0:0:
64,192,59501,1,0,0:0:0:0:
192,192,59657,128,0,59814:0:0:0:0:
320,192,59657,1,0,0:0:0:0:
64,192,59814,128,0,59970:0:0:0:0:
320,192,59814,1,0,0:0:0:0:
320,192,59970,1,0,0:0:0:0:
192,192,59970,128,0,60126:0:0:0:0:
448,192,60126,1,0,0:0:0:0:
320,192,60126,1,0,0:0:0:0:
64,192,60126,1,0,0:0:0:0:
320,192,60282,1,0,0:0:0:0:
64,192,60282,128,0,60439:0:0:0:0:
320,192,60439,1,0,0:0:0:0:
192,192,60439,1,0,0:0:0:0:
192,192,60595,128,0,60751:0:0:0:0:
320,192,60595,1,0,0:0:0:0:
448,192,60751,1,0,0:0:0:0:
64,192,60751,1,0,0:0:0:0:
320,192,60751,1,0,0:0:0:0:
320,192,60907,1,0,0:0:0:0:
192,192,61064,128,0,61376:0:0:0:0:
448,192,61064,1,0,0:0:0:0:
64,192,61064,1,0,0:0:0:0:
64,192,61376,128,0,61689:0:0:0:0:
320,192,61376,1,0,0:0:0:0:
448,192,61376,1,0,0:0:0:0:
448,192,61689,1,0,0:0:0:0:
320,192,61689,1,0,0:0:0:0:
192,192,61845,1,0,0:0:0:0:
192,192,62001,1,0,0:0:0:0:
64,192,62001,1,0,0:0:0:0:
448,192,62001,1,0,0:0:0:0:
320,192,62157,128,0,62314:0:0:0:0:
192,192,62157,1,0,0:0:0:0:
448,192,62314,128,0,62470:0:0:0:0:
192,192,62314,1,0,0:0:0:0:
320,192,62470,128,0,62626:0:0:0:0:
192,192,62470,1,0,0:0:0:0:
448,192,62626,1,0,0:0:0:0:
192,192,62626,1,0,0:0:0:0:
64,192,62626,1,0,0:0:0:0:
192,192,62782,1,0,0:0:0:0:
448,192,62782,128,0,62939:0:0:0:0:
320,192,62939,1,0,0:0:0:0:
192,192,62939,1,0,0:0:0:0:
320,192,63095,128,0,63251:0:0:0:0:
192,192,63095,1,0,0:0:0:0:
448,192,63251,1,0,0:0:0:0:
64,192,63251,1,0,0:0:0:0:
192,192,63251,1,0,0:0:0:0:
192,192,63407,1,0,0:0:0:0:
320,192,63564,1,0,0:0:0:0:
64,192,63564,1,0,0:0:0:0:
448,192,63564,128,0,63876:0:0:0:0:
64,192,63876,1,0,0:0:0:0:
192,192,63876,1,0,0:0:0:0:
320,192,63876,128,0,64189:0:0:0:0:
64,192,64189,1,0,0:0:0:0:
192,192,64189,1,0,0:0:0:0:
448,192,64345,1,0,0:0:0:0:
320,192,64423,1,0,0:0:0:0:
448,192,64501,1,0,0:0:0:0:
192,192,64501,1,0,0:0:0:0:
64,192,64501,1,0,0:0:0:0:
192,192,64657,128,0,64814:0:0:0:0:
448,192,64657,1,0,0:0:0:0:
64,192,64814,128,0,64970:0:0:0:0:
448,192,64814,1,0,0:0:0:0:
320,192,64892,1,0,0:0:0:0:
192,192,64970,128,0,65126:0:0:0:0:
448,192,64970,1,0,0:0:0:0:
64,192,65126,1,0,0:0:0:0:
448,192,65126,1,0,0:0:0:0:
320,192,65204,1,0,0:0:0:0:
64,192,65282,128,0,65439:0:0:0:0:
448,192,65282,1,0,0:0:0:0:
320,192,65360,1,0,0:0:0:0:
192,192,65439,1,0,0:0:0:0:
448,192,65439,1,0,0:0:0:0:
192,192,65595,128,0,65751:0:0:0:0:
448,192,65595,1,0,0:0:0:0:
64,192,65751,1,0,0:0:0:0:
320,192,65751,1,0,0:0:0:0:
448,192,65751,1,0,0:0:0:0:
448,192,65907,1,0,0:0:0:0:
192,192,66064,1,0,0:0:0:0:
64,192,66064,1,0,0:0:0:0:
320,192,66064,128,0,66376:0:0:0:0:
448,192,66376,1,0,0:0:0:0:
192,192,66376,1,0,0:0:0:0:
64,192,66376,128,0,66689:0:0:0:0:
192,192,66689,1,0,0:0:0:0:
448,192,66689,128,0,67314:0:0:0:0:
320,192,67001,1,0,0:0:0:0:
64,192,67001,1,0,0:0:0:0:
192,192,67314,128,0,67626:0:0:0:0:
320,192,67314,1,0,0:0:0:0:
64,192,67626,128,0,67939:0:0:0:0:
448,192,67626,1,0,0:0:0:0:
320,192,67626,1,0,0:0:0:0:
448,192,67939,128,0,68251:0:0:0:0:
320,192,67939,1,0,0:0:0:0:
64,192,68251,128,0,68564:0:0:0:0:
192,192,68251,1,0,0:0:0:0:
448,192,68564,128,0,68876:0:0:0:0:
192,192,68564,1,0,0:0:0:0:
64,192,68876,1,0,0:0:0:0:
320,192,68876,1,0,0:0:0:0:
192,192,68876,1,0,0:0:0:0:
448,192,69032,1,0,0:0:0:0:
64,192,69032,1,0,0:0:0:0:
320,192,69110,1,0,0:0:0:0:
192,192,69189,1,0,0:0:0:0:
64,192,69189,1,0,0:0:0:0:
320,192,69293,1,0,0:0:0:0:
448,192,69397,1,0,0:0:0:0:
64,192,69501,1,0,0:0:0:0:
320,192,69501,1,0,0:0:0:0:
192,192,69605,1,0,0:0:0:0:
320,192,69709,1,0,0:0:0:0:
448,192,69814,1,0,0:0:0:0:
64,192,69814,1,0,0:0:0:0:
320,192,69918,1,0,0:0:0:0:
192,192,70022,1,0,0:0:0:0:
320,192,70126,1,0,0:0:0:0:
64,192,70126,1,0,0:0:0:0:
192,192,70230,1,0,0:0:0:0:
64,192,70334,1,0,0:0:0:0:
320,192,70439,1,0,0:0:0:0:
448,192,70439,1,0,0:0:0:0:
192,192,70543,1,0,0:0:0:0:
64,192,70647,1,0,0:0:0:0:
192,192,70751,1,0,0:0:0:0:
448,192,70751,1,0,0:0:0:0:
320,192,70855,1,0,0:0:0:0:
192,192,70959,1,0,0:0:0:0:
64,192,71064,1,0,0:0:0:0:
448,192,71064,1,0,0:0:0:0:
192,192,71168,1,0,0:0:0:0:
320,192,71272,1,0,0:0:0:0:
192,192,71376,1,0,0:0:0:0:
448,192,71376,1,0,0:0:0:0:
320,192,71480,1,0,0:0:0:0:
448,192,71584,1,0,0:0:0:0:
64,192,71689,1,0,0:0:0:0:
192,192,71689,1,0,0:0:0:0:
320,192,71793,1,0,0:0:0:0:
448,192,71897,1,0,0:0:0:0:
64,192,72001,1,0,0:0:0:0:
320,192,72001,1,0,0:0:0:0:
192,192,72105,1,0,0:0:0:0:
320,192,72209,1,0,0:0:0:0:
64,192,72314,1,0,0:0:0:0:
448,192,72314,1,0,0:0:0:0:
320,192,72418,1,0,0:0:0:0:
192,192,72522,1,0,0:0:0:0:
320,192,72626,1,0,0:0:0:0:
64,192,72626,1,0,0:0:0:0:
192,192,72730,1,0,0:0:0:0:
64,192,72834,1,0,0:0:0:0:
320,192,72939,1,0,0:0:0:0:
448,192,72939,1,0,0:0:0:0:
192,192,73043,1,0,0:0:0:0:
64,192,73147,1,0,0:0:0:0:
192,192,73251,1,0,0:0:0:0:
448,192,73251,1,0,0:0:0:0:
320,192,73355,1,0,0:0:0:0:
192,192,73459,1,0,0:0:0:0:
64,192,73564,1,0,0:0:0:0:
448,192,73564,1,0,0:0:0:0:
192,192,73668,1,0,0:0:0:0:
320,192,73772,1,0,0:0:0:0:
192,192,73876,1,0,0:0:0:0:
448,192,73876,1,0,0:0:0:0:
320,192,73980,1,0,0:0:0:0:
448,192,74084,1,0,0:0:0:0:
64,192,74189,1,0,0:0:0:0:
192,192,74189,1,0,0:0:0:0:
320,192,74293,1,0,0:0:0:0:
448,192,74397,1,0,0:0:0:0:
64,192,74501,1,0,0:0:0:0:
320,192,74501,1,0,0:0:0:0:
192,192,74605,1,0,0:0:0:0:
320,192,74709,1,0,0:0:0:0:
448,192,74814,1,0,0:0:0:0:
64,192,74814,1,0,0:0:0:0:
320,192,74918,1,0,0:0:0:0:
192,192,75022,1,0,0:0:0:0:
320,192,75126,1,0,0:0:0:0:
64,192,75126,1,0,0:0:0:0:
192,192,75230,1,0,0:0:0:0:
64,192,75334,1,0,0:0:0:0:
320,192,75439,1,0,0:0:0:0:
448,192,75439,1,0,0:0:0:0:
192,192,75543,1,0,0:0:0:0:
64,192,75647,1,0,0:0:0:0:
192,192,75751,1,0,0:0:0:0:
448,192,75751,1,0,0:0:0:0:
320,192,75855,1,0,0:0:0:0:
192,192,75959,1,0,0:0:0:0:
64,192,76064,1,0,0:0:0:0:
448,192,76064,1,0,0:0:0:0:
192,192,76168,1,0,0:0:0:0:
320,192,76272,1,0,0:0:0:0:
448,192,76376,1,0,0:0:0:0:
192,192,76376,1,0,0:0:0:0:
320,192,76480,1,0,0:0:0:0:
448,192,76584,1,0,0:0:0:0:
64,192,76689,1,0,0:0:0:0:
192,192,76689,1,0,0:0:0:0:
320,192,76793,1,0,0:0:0:0:
448,192,76897,1,0,0:0:0:0:
64,192,77001,1,0,0:0:0:0:
320,192,77001,1,0,0:0:0:0:
192,192,77105,1,0,0:0:0:0:
320,192,77209,1,0,0:0:0:0:
448,192,77314,1,0,0:0:0:0:
64,192,77314,1,0,0:0:0:0:
320,192,77418,1,0,0:0:0:0:
192,192,77522,1,0,0:0:0:0:
320,192,77626,1,0,0:0:0:0:
64,192,77626,1,0,0:0:0:0:
192,192,77730,1,0,0:0:0:0:
64,192,77834,1,0,0:0:0:0:
320,192,77939,1,0,0:0:0:0:
448,192,77939,1,0,0:0:0:0:
192,192,78043,1,0,0:0:0:0:
64,192,78147,1,0,0:0:0:0:
192,192,78251,1,0,0:0:0:0:
448,192,78251,1,0,0:0:0:0:
320,192,78355,1,0,0:0:0:0:
192,192,78459,1,0,0:0:0:0:
64,192,78564,1,0,0:0:0:0:
448,192,78564,1,0,0:0:0:0:
192,192,78668,1,0,0:0:0:0:
320,192,78772,1,0,0:0:0:0:
192,192,78876,1,0,0:0:0:0:
448,192,78876,1,0,0:0:0:0:
320,192,78980,1,0,0:0:0:0:
448,192,79084,1,0,0:0:0:0:
64,192,79189,1,0,0:0:0:0:
192,192,79189,1,0,0:0:0:0:
320,192,79293,1,0,0:0:0:0:
448,192,79397,1,0,0:0:0:0:
64,192,79501,1,0,0:0:0:0:
320,192,79501,1,0,0:0:0:0:
192,192,79605,1,0,0:0:0:0:
320,192,79709,1,0,0:0:0:0:
448,192,79814,1,0,0:0:0:0:
64,192,79814,1,0,0:0:0:0:
320,192,79918,1,0,0:0:0:0:
192,192,80022,1,0,0:0:0:0:
64,192,80126,1,0,0:0:0:0:
320,192,80126,1,0,0:0:0:0:
192,192,80230,1,0,0:0:0:0:
64,192,80334,1,0,0:0:0:0:
320,192,80439,1,0,0:0:0:0:
448,192,80439,1,0,0:0:0:0:
192,192,80543,1,0,0:0:0:0:
64,192,80647,1,0,0:0:0:0:
192,192,80751,1,0,0:0:0:0:
448,192,80751,1,0,0:0:0:0:
320,192,80855,1,0,0:0:0:0:
192,192,80959,1,0,0:0:0:0:
64,192,81064,1,0,0:0:0:0:
448,192,81064,1,0,0:0:0:0:
192,192,81168,1,0,0:0:0:0:
320,192,81272,1,0,0:0:0:0:
448,192,81376,1,0,0:0:0:0:
192,192,81376,1,0,0:0:0:0:
320,192,81480,1,0,0:0:0:0:
448,192,81584,1,0,0:0:0:0:
64,192,81689,1,0,0:0:0:0:
192,192,81689,1,0,0:0:0:0:
320,192,81793,1,0,0:0:0:0:
448,192,81897,1,0,0:0:0:0:
64,192,82001,1,0,0:0:0:0:
320,192,82001,1,0,0:0:0:0:
192,192,82105,1,0,0:0:0:0:
320,192,82209,1,0,0:0:0:0:
448,192,82314,1,0,0:0:0:0:
64,192,82314,1,0,0:0:0:0:
320,192,82418,1,0,0:0:0:0:
192,192,82522,1,0,0:0:0:0:
64,192,82626,1,0,0:0:0:0:
320,192,82626,1,0,0:0:0:0:
192,192,82730,1,0,0:0:0:0:
64,192,82834,1,0,0:0:0:0:
320,192,82939,1,0,0:0:0:0:
448,192,82939,1,0,0:0:0:0:
192,192,83043,1,0,0:0:0:0:
64,192,83147,1,0,0:0:0:0:
192,192,83251,1,0,0:0:0:0:
448,192,83251,1,0,0:0:0:0:
320,192,83355,1,0,0:0:0:0:
192,192,83459,1,0,0:0:0:0:
64,192,83564,1,0,0:0:0:0:
448,192,83564,1,0,0:0:0:0:
192,192,83668,1,0,0:0:0:0:
320,192,83772,1,0,0:0:0:0:
448,192,83876,1,0,0:0:0:0:
192,192,83876,1,0,0:0:0:0:
320,192,83980,1,0,0:0:0:0:
448,192,84084,1,0,0:0:0:0:
64,192,84189,1,0,0:0:0:0:
192,192,84189,1,0,0:0:0:0:
320,192,84189,1,0,0:0:0:0:
64,192,84501,1,0,0:0:0:0:
64,192,84814,1,0,0:0:0:0:
64,192,85126,1,0,0:0:0:0:
192,192,85439,1,0,0:0:0:0:
320,192,85439,1,0,0:0:0:0:
448,192,85439,1,0,0:0:0:0:
192,192,85751,1,0,0:0:0:0:
320,192,86064,1,0,0:0:0:0:
448,192,86064,1,0,0:0:0:0:
192,192,86064,1,0,0:0:0:0:
64,192,86064,1,0,0:0:0:0:
320,192,86376,1,0,0:0:0:0:
192,192,86376,1,0,0:0:0:0:
448,192,86689,1,0,0:0:0:0:
192,192,86689,1,0,0:0:0:0:
64,192,86689,1,0,0:0:0:0:
320,192,86689,1,0,0:0:0:0:
448,192,86845,1,0,0:0:0:0:
320,192,87001,1,0,0:0:0:0:
192,192,87001,1,0,0:0:0:0:
320,192,87157,1,0,0:0:0:0:
64,192,87157,1,0,0:0:0:0:
192,192,87314,1,0,0:0:0:0:
192,192,87470,1,0,0:0:0:0:
64,192,87626,1,0,0:0:0:0:
448,192,87626,1,0,0:0:0:0:
64,192,87782,1,0,0:0:0:0:
192,192,87939,1,0,0:0:0:0:
320,192,87939,1,0,0:0:0:0:
448,192,87939,1,0,0:0:0:0:
64,192,88173,1,0,0:0:0:0:
192,192,88173,1,0,0:0:0:0:
320,192,88251,1,0,0:0:0:0:
448,192,88251,1,0,0:0:0:0:
192,192,88407,1,0,0:0:0:0:
448,192,88564,1,0,0:0:0:0:
64,192,88564,1,0,0:0:0:0:
320,192,88603,1,0,0:0:0:0:
192,192,88642,1,0,0:0:0:0:
64,192,88681,1,0,0:0:0:0:
320,192,88720,1,0,0:0:0:0:
448,192,88720,1,0,0:0:0:0:
192,192,88798,1,0,0:0:0:0:
64,192,88798,1,0,0:0:0:0:
320,192,88876,1,0,0:0:0:0:
448,192,88876,1,0,0:0:0:0:
192,192,88954,1,0,0:0:0:0:
64,192,88954,1,0,0:0:0:0:
448,192,89032,1,0,0:0:0:0:
320,192,89032,1,0,0:0:0:0:
192,192,89110,1,0,0:0:0:0:
64,192,89110,1,0,0:0:0:0:
320,192,89189,1,0,0:0:0:0:
448,192,89189,1,0,0:0:0:0:
192,192,89345,1,0,0:0:0:0:
448,192,89501,1,0,0:0:0:0:
64,192,89501,1,0,0:0:0:0:
320,192,89501,1,0,0:0:0:0:
192,192,89657,1,0,0:0:0:0:
320,192,89735,1,0,0:0:0:0:
64,192,89814,1,0,0:0:0:0:
448,192,89814,1,0,0:0:0:0:
192,192,89814,1,0,0:0:0:0:
320,192,90048,1,0,0:0:0:0:
64,192,90048,1,0,0:0:0:0:
448,192,90126,1,0,0:0:0:0:
192,192,90126,1,0,0:0:0:0:
192,192,90282,1,0,0:0:0:0:
320,192,90282,1,0,0:0:0:0:
320,192,90439,1,0,0:0:0:0:
448,192,90439,1,0,0:0:0:0:
64,192,90595,1,0,0:0:0:0:
192,192,90751,1,0,0:0:0:0:
448,192,90751,1,0,0:0:0:0:
320,192,90751,1,0,0:0:0:0:
64,192,90907,1,0,0:0:0:0:
192,192,90985,1,0,0:0:0:0:
64,192,91064,1,0,0:0:0:0:
320,192,91064,1,0,0:0:0:0:
448,192,91064,1,0,0:0:0:0:
192,192,91298,1,0,0:0:0:0:
448,192,91298,1,0,0:0:0:0:
64,192,91376,1,0,0:0:0:0:
320,192,91376,1,0,0:0:0:0:
192,192,91532,1,0,0:0:0:0:
320,192,91532,1,0,0:0:0:0:
64,192,91689,1,0,0:0:0:0:
192,192,91689,1,0,0:0:0:0:
448,192,91845,1,0,0:0:0:0:
64,192,92001,1,0,0:0:0:0:
320,192,92001,1,0,0:0:0:0:
192,192,92001,1,0,0:0:0:0:
448,192,92157,1,0,0:0:0:0:
320,192,92235,1,0,0:0:0:0:
448,192,92314,1,0,0:0:0:0:
64,192,92314,1,0,0:0:0:0:
192,192,92314,1,0,0:0:0:0:
192,192,92548,1,0,0:0:0:0:
320,192,92548,1,0,0:0:0:0:
64,192,92626,1,0,0:0:0:0:
448,192,92626,1,0,0:0:0:0:
192,192,92782,1,0,0:0:0:0:
448,192,92782,1,0,0:0:0:0:
320,192,92939,1,0,0:0:0:0:
64,192,92939,1,0,0:0:0:0:
192,192,93095,1,0,0:0:0:0:
448,192,93251,1,0,0:0:0:0:
64,192,93251,1,0,0:0:0:0:
320,192,93251,1,0,0:0:0:0:
448,192,93407,1,0,0:0:0:0:
320,192,93485,1,0,0:0:0:0:
64,192,93564,1,0,0:0:0:0:
192,192,93564,1,0,0:0:0:0:
448,192,93642,1,0,0:0:0:0:
320,192,93720,1,0,0:0:0:0:
192,192,93798,1,0,0:0:0:0:
448,192,93876,1,0,0:0:0:0:
64,192,93876,1,0,0:0:0:0:
320,192,93876,1,0,0:0:0:0:
192,192,93954,1,0,0:0:0:0:
320,192,94032,1,0,0:0:0:0:
448,192,94110,1,0,0:0:0:0:
64,192,94189,1,0,0:0:0:0:
192,192,94189,1,0,0:0:0:0:
320,192,94345,1,0,0:0:0:0:
448,192,94501,1,0,0:0:0:0:
64,192,94501,1,0,0:0:0:0:
192,192,94501,1,0,0:0:0:0:
320,192,94657,1,0,0:0:0:0:
192,192,94735,1,0,0:0:0:0:
64,192,94814,1,0,0:0:0:0:
448,192,94814,1,0,0:0:0:0:
320,192,94814,1,0,0:0:0:0:
320,192,95048,1,0,0:0:0:0:
64,192,95048,1,0,0:0:0:0:
192,192,95126,1,0,0:0:0:0:
448,192,95126,1,0,0:0:0:0:
192,192,95282,1,0,0:0:0:0:
320,192,95282,1,0,0:0:0:0:
448,192,95439,1,0,0:0:0:0:
320,192,95439,1,0,0:0:0:0:
64,192,95595,1,0,0:0:0:0:
448,192,95751,1,0,0:0:0:0:
320,192,95751,1,0,0:0:0:0:
192,192,95751,1,0,0:0:0:0:
448,192,95907,1,0,0:0:0:0:
320,192,95985,1,0,0:0:0:0:
448,192,96064,1,0,0:0:0:0:
192,192,96064,1,0,0:0:0:0:
64,192,96064,1,0,0:0:0:0:
192,192,96298,1,0,0:0:0:0:
448,192,96298,1,0,0:0:0:0:
64,192,96376,1,0,0:0:0:0:
320,192,96376,1,0,0:0:0:0:
192,192,96532,1,0,0:0:0:0:
320,192,96532,1,0,0:0:0:0:
64,192,96689,1,0,0:0:0:0:
192,192,96689,1,0,0:0:0:0:
448,192,96845,1,0,0:0:0:0:
320,192,97001,1,0,0:0:0:0:
192,192,97001,1,0,0:0:0:0:
64,192,97001,1,0,0:0:0:0:
64,192,97157,1,0,0:0:0:0:
192,192,97235,1,0,0:0:0:0:
64,192,97314,1,0,0:0:0:0:
320,192,97314,1,0,0:0:0:0:
448,192,97314,1,0,0:0:0:0:
320,192,97548,1,0,0:0:0:0:
192,192,97548,1,0,0:0:0:0:
448,192,97626,1,0,0:0:0:0:
64,192,97626,1,0,0:0:0:0:
448,192,97782,1,0,0:0:0:0:
320,192,97782,1,0,0:0:0:0:
192,192,97939,1,0,0:0:0:0:
64,192,97939,1,0,0:0:0:0:
448,192,98095,1,0,0:0:0:0:
192,192,98095,1,0,0:0:0:0:
320,192,98095,1,0,0:0:0:0:
320,192,98251,1,0,0:0:0:0:
64,192,98251,1,0,0:0:0:0:
448,192,98407,1,0,0:0:0:0:
192,192,98407,1,0,0:0:0:0:
320,192,98485,1,0,0:0:0:0:
192,192,98564,1,0,0:0:0:0:
64,192,98564,1,0,0:0:0:0:
448,192,98564,1,0,0:0:0:0:
320,192,98720,1,0,0:0:0:0:
192,192,98720,1,0,0:0:0:0:
448,192,98876,1,0,0:0:0:0:
64,192,98876,1,0,0:0:0:0:
320,192,98954,1,0,0:0:0:0:
192,192,99032,1,0,0:0:0:0:
64,192,99110,1,0,0:0:0:0:
448,192,99189,1,0,0:0:0:0:
320,192,99189,1,0,0:0:0:0:
192,192,99345,1,0,0:0:0:0:
448,192,99501,1,0,0:0:0:0:
64,192,99501,1,0,0:0:0:0:
320,192,99501,1,0,0:0:0:0:
192,192,99657,1,0,0:0:0:0:
320,192,99735,1,0,0:0:0:0:
448,192,99814,1,0,0:0:0:0:
64,192,99814,1,0,0:0:0:0:
192,192,99814,1,0,0:0:0:0:
64,192,100048,1,0,0:0:0:0:
320,192,100048,1,0,0:0:0:0:
192,192,100126,1,0,0:0:0:0:
448,192,100126,1,0,0:0:0:0:
320,192,100282,1,0,0:0:0:0:
192,192,100282,1,0,0:0:0:0:
320,192,100439,1,0,0:0:0:0:
448,192,100439,1,0,0:0:0:0:
64,192,100595,1,0,0:0:0:0:
320,192,100751,1,0,0:0:0:0:
448,192,100751,1,0,0:0:0:0:
192,192,100751,1,0,0:0:0:0:
64,192,100907,1,0,0:0:0:0:
192,192,100985,1,0,0:0:0:0:
320,192,101064,1,0,0:0:0:0:
64,192,101064,1,0,0:0:0:0:
448,192,101064,1,0,0:0:0:0:
448,192,101298,1,0,0:0:0:0:
192,192,101298,1,0,0:0:0:0:
320,192,101376,1,0,0:0:0:0:
64,192,101376,1,0,0:0:0:0:
192,192,101532,1,0,0:0:0:0:
320,192,101532,1,0,0:0:0:0:
192,192,101689,1,0,0:0:0:0:
64,192,101689,1,0,0:0:0:0:
448,192,101845,1,0,0:0:0:0:
64,192,102001,1,0,0:0:0:0:
192,192,102001,1,0,0:0:0:0:
320,192,102001,1,0,0:0:0:0:
448,192,102157,1,0,0:0:0:0:
320,192,102235,1,0,0:0:0:0:
192,192,102314,1,0,0:0:0:0:
448,192,102314,1,0,0:0:0:0:
64,192,102314,1,0,0:0:0:0:
320,192,102548,1,0,0:0:0:0:
192,192,102548,1,0,0:0:0:0:
64,192,102626,1,0,0:0:0:0:
448,192,102626,1,0,0:0:0:0:
192,192,102782,1,0,0:0:0:0:
448,192,102782,1,0,0:0:0:0:
64,192,102939,1,0,0:0:0:0:
320,192,102939,1,0,0:0:0:0:
192,192,103095,1,0,0:0:0:0:
448,192,103251,1,0,0:0:0:0:
64,192,103251,1,0,0:0:0:0:
320,192,103251,1,0,0:0:0:0:
448,192,103407,1,0,0:0:0:0:
320,192,103485,1,0,0:0:0:0:
192,192,103564,1,0,0:0:0:0:
64,192,103564,1,0,0:0:0:0:
448,192,103642,1,0,0:0:0:0:
320,192,103720,1,0,0:0:0:0:
192,192,103798,1,0,0:0:0:0:
448,192,103876,1,0,0:0:0:0:
320,192,103876,1,0,0:0:0:0:
64,192,103876,1,0,0:0:0:0:
192,192,103954,1,0,0:0:0:0:
320,192,104032,1,0,0:0:0:0:
448,192,104110,1,0,0:0:0:0:
192,192,104189,1,0,0:0:0:0:
64,192,104189,1,0,0:0:0:0:
320,192,104345,1,0,0:0:0:0:
448,192,104501,1,0,0:0:0:0:
64,192,104501,1,0,0:0:0:0:
192,192,104501,1,0,0:0:0:0:
320,192,104657,1,0,0:0:0:0:
192,192,104735,1,0,0:0:0:0:
448,192,104814,1,0,0:0:0:0:
64,192,104814,1,0,0:0:0:0:
320,192,104814,1,0,0:0:0:0:
320,192,105048,1,0,0:0:0:0:
64,192,105048,1,0,0:0:0:0:
448,192,105126,1,0,0:0:0:0:
192,192,105126,1,0,0:0:0:0:
320,192,105282,1,0,0:0:0:0:
192,192,105282,1,0,0:0:0:0:
448,192,105439,1,0,0:0:0:0:
320,192,105439,1,0,0:0:0:0:
64,192,105595,1,0,0:0:0:0:
448,192,105751,1,0,0:0:0:0:
192,192,105751,1,0,0:0:0:0:
320,192,105751,1,0,0:0:0:0:
448,192,105907,1,0,0:0:0:0:
320,192,105985,1,0,0:0:0:0:
192,192,106064,1,0,0:0:0:0:
64,192,106064,1,0,0:0:0:0:
448,192,106064,1,0,0:0:0:0:
448,192,106298,1,0,0:0:0:0:
192,192,106298,1,0,0:0:0:0:
64,192,106376,1,0,0:0:0:0:
320,192,106376,1,0,0:0:0:0:
192,192,106532,1,0,0:0:0:0:
320,192,106532,1,0,0:0:0:0:
192,192,106689,1,0,0:0:0:0:
64,192,106689,1,0,0:0:0:0:
448,192,106689,1,0,0:0:0:0:
448,192,106845,1,0,0:0:0:0:
320,192,107001,1,0,0:0:0:0:
64,192,107001,1,0,0:0:0:0:
192,192,107001,1,0,0:0:0:0:
192,192,107157,1,0,0:0:0:0:
448,192,107314,1,0,0:0:0:0:
64,192,107314,1,0,0:0:0:0:
320,192,107314,1,0,0:0:0:0:
320,192,107470,1,0,0:0:0:0:
448,192,107626,1,0,0:0:0:0:
64,192,107626,1,0,0:0:0:0:
192,192,107626,1,0,0:0:0:0:
64,192,107782,1,0,0:0:0:0:
448,192,108095,1,0,0:0:0:0:
192,192,108095,1,0,0:0:0:0:
320,192,108095,1,0,0:0:0:0:
64,192,108251,1,0,0:0:0:0:
320,192,108251,1,0,0:0:0:0:
192,192,108251,1,0,0:0:0:0:
192,192,108407,1,0,0:0:0:0:
448,192,108407,1,0,0:0:0:0:
320,192,108407,1,0,0:0:0:0:
192,192,108564,1,0,0:0:0:0:
64,192,108564,1,0,0:0:0:0:
320,192,108564,1,0,0:0:0:0:
320,192,108720,1,0,0:0:0:0:
448,192,108876,1,0,0:0:0:0:
64,192,108876,1,0,0:0:0:0:
320,192,108954,1,0,0:0:0:0:
192,192,109032,1,0,0:0:0:0:
320,192,109110,1,0,0:0:0:0:
192,192,109189,128,0,109657:0:0:0:0:
448,192,109189,1,0,0:0:0:0:
64,192,109189,1,0,0:0:0:0:
320,192,109501,1,0,0:0:0:0:
448,192,109501,1,0,0:0:0:0:
448,192,109657,128,0,110126:0:0:0:0:
64,192,109657,1,0,0:0:0:0:
192,192,109814,1,0,0:0:0:0:
64,192,109970,1,0,0:0:0:0:
192,192,110126,128,0,110439:0:0:0:0:
320,192,110126,1,0,0:0:0:0:
448,192,110282,1,0,0:0:0:0:
64,192,110439,128,0,110907:0:0:0:0:
320,192,110439,1,0,0:0:0:0:
448,192,110751,1,0,0:0:0:0:
320,192,110751,1,0,0:0:0:0:
192,192,110907,1,0,0:0:0:0:
320,192,110907,128,0,111376:0:0:0:0:
64,192,111064,1,0,0:0:0:0:
192,192,111220,1,0,0:0:0:0:
448,192,111376,1,0,0:0:0:0:
64,192,111376,128,0,111689:0:0:0:0:
320,192,111532,1,0,0:0:0:0:
192,192,111689,1,0,0:0:0:0:
448,192,111689,128,0,112157:0:0:0:0:
64,192,112001,1,0,0:0:0:0:
192,192,112001,1,0,0:0:0:0:
320,192,112157,1,0,0:0:0:0:
192,192,112157,128,0,112626:0:0:0:0:
448,192,112314,1,0,0:0:0:0:
320,192,112470,1,0,0:0:0:0:
448,192,112626,128,0,112939:0:0:0:0:
64,192,112626,1,0,0:0:0:0:
192,192,112782,1,0,0:0:0:0:
320,192,112939,1,0,0:0:0:0:
64,192,112939,1,0,0:0:0:0:
320,192,113095,1,0,0:0:0:0:
192,192,113251,1,0,0:0:0:0:
64,192,113251,1,0,0:0:0:0:
448,192,113251,1,0,0:0:0:0:
448,192,113407,1,0,0:0:0:0:
320,192,113564,1,0,0:0:0:0:
64,192,113564,1,0,0:0:0:0:
320,192,113720,1,0,0:0:0:0:
64,192,113876,1,0,0:0:0:0:
192,192,113876,1,0,0:0:0:0:
448,192,113876,1,0,0:0:0:0:
64,192,114032,1,0,0:0:0:0:
192,192,114189,128,0,114657:0:0:0:0:
448,192,114189,1,0,0:0:0:0:
320,192,114189,1,0,0:0:0:0:
64,192,114501,1,0,0:0:0:0:
448,192,114501,1,0,0:0:0:0:
448,192,114657,128,0,115126:0:0:0:0:
320,192,114657,1,0,0:0:0:0:
192,192,114814,1,0,0:0:0:0:
320,192,114970,1,0,0:0:0:0:
64,192,115126,1,0,0:0:0:0:
192,192,115126,128,0,115439:0:0:0:0:
448,192,115282,1,0,0:0:0:0:
64,192,115439,128,0,115907:0:0:0:0:
320,192,115439,1,0,0:0:0:0:
448,192,115751,1,0,0:0:0:0:
320,192,115751,1,0,0:0:0:0:
320,192,115907,128,0,116376:0:0:0:0:
192,192,115907,1,0,0:0:0:0:
64,192,116064,1,0,0:0:0:0:
192,192,116220,1,0,0:0:0:0:
448,192,116376,1,0,0:0:0:0:
64,192,116376,128,0,116689:0:0:0:0:
320,192,116532,1,0,0:0:0:0:
448,192,116689,1,0,0:0:0:0:
192,192,116689,128,0,117314:0:0:0:0:
320,192,117001,1,0,0:0:0:0:
64,192,117001,1,0,0:0:0:0:
448,192,117157,1,0,0:0:0:0:
64,192,117314,1,0,0:0:0:0:
320,192,117314,1,0,0:0:0:0:
192,192,117470,1,0,0:0:0:0:
320,192,117626,1,0,0:0:0:0:
64,192,117626,1,0,0:0:0:0:
192,192,117782,1,0,0:0:0:0:
64,192,117939,1,0,0:0:0:0:
448,192,117939,128,0,118720:0:0:0:0:
320,192,118251,1,0,0:0:0:0:
192,192,118251,1,0,0:0:0:0:
64,192,118407,1,0,0:0:0:0:
192,192,118564,1,0,0:0:0:0:
64,192,118720,1,0,0:0:0:0:
320,192,118720,1,0,0:0:0:0:
64,192,119032,1,0,0:0:0:0:
320,192,119032,1,0,0:0:0:0:
192,192,119110,1,0,0:0:0:0:
320,192,119189,1,0,0:0:0:0:
448,192,119189,1,0,0:0:0:0:
64,192,119189,1,0,0:0:0:0:
448,192,119345,1,0,0:0:0:0:
320,192,119345,1,0,0:0:0:0:
64,192,119345,1,0,0:0:0:0:
192,192,119501,1,0,0:0:0:0:
448,192,119657,1,0,0:0:0:0:
320,192,119735,1,0,0:0:0:0:
192,192,119814,1,0,0:0:0:0:
320,192,119892,1,0,0:0:0:0:
448,192,119970,1,0,0:0:0:0:
64,192,120126,1,0,0:0:0:0:
192,192,120126,1,0,0:0:0:0:
320,192,120126,1,0,0:0:0:0:
192,192,120282,1,0,0:0:0:0:
64,192,120282,1,0,0:0:0:0:
320,192,120282,1,0,0:0:0:0:
448,192,120439,1,0,0:0:0:0:
64,192,120595,1,0,0:0:0:0:
192,192,120673,1,0,0:0:0:0:
320,192,120751,1,0,0:0:0:0:
192,192,120907,1,0,0:0:0:0:
320,192,120985,1,0,0:0:0:0:
448,192,121064,1,0,0:0:0:0:
64,192,121064,1,0,0:0:0:0:
64,192,121220,1,0,0:0:0:0:
448,192,121220,1,0,0:0:0:0:
192,192,121376,1,0,0:0:0:0:
320,192,121376,1,0,0:0:0:0:
320,192,121532,1,0,0:0:0:0:
192,192,121532,1,0,0:0:0:0:
320,192,121689,1,0,0:0:0:0:
448,192,121689,1,0,0:0:0:0:
64,192,121689,1,0,0:0:0:0:
448,192,121845,1,0,0:0:0:0:
320,192,121845,1,0,0:0:0:0:
64,192,121845,1,0,0:0:0:0:
192,192,122001,1,0,0:0:0:0:
64,192,122157,1,0,0:0:0:0:
192,192,122235,1,0,0:0:0:0:
320,192,122314,1,0,0:0:0:0:
192,192,122392,1,0,0:0:0:0:
64,192,122470,1,0,0:0:0:0:
192,192,122626,1,0,0:0:0:0:
320,192,122626,1,0,0:0:0:0:
448,192,122626,1,0,0:0:0:0:
320,192,122782,1,0,0:0:0:0:
192,192,122782,1,0,0:0:0:0:
448,192,122782,1,0,0:0:0:0:
64,192,122939,1,0,0:0:0:0:
448,192,123095,1,0,0:0:0:0:
320,192,123173,1,0,0:0:0:0:
192,192,123251,1,0,0:0:0:0:
320,192,123407,1,0,0:0:0:0:
192,192,123485,1,0,0:0:0:0:
64,192,123564,1,0,0:0:0:0:
448,192,123564,1,0,0:0:0:0:
448,192,123720,1,0,0:0:0:0:
64,192,123720,1,0,0:0:0:0:
192,192,123876,1,0,0:0:0:0:
320,192,123876,1,0,0:0:0:0:
320,192,124032,1,0,0:0:0:0:
192,192,124032,1,0,0:0:0:0:
64,192,124189,1,0,0:0:0:0:
320,192,124189,1,0,0:0:0:0:
448,192,124189,1,0,0:0:0:0:
320,192,124345,1,0,0:0:0:0:
64,192,124345,1,0,0:0:0:0:
448,192,124345,1,0,0:0:0:0:
192,192,124501,1,0,0:0:0:0:
448,192,124657,1,0,0:0:0:0:
320,192,124735,1,0,0:0:0:0:
192,192,124814,1,0,0:0:0:0:
320,192,124892,1,0,0:0:0:0:
448,192,124970,1,0,0:0:0:0:
64,192,125126,1,0,0:0:0:0:
192,192,125126,1,0,0:0:0:0:
320,192,125126,1,0,0:0:0:0:
192,192,125282,1,0,0:0:0:0:
64,192,125282,1,0,0:0:0:0:
320,192,125282,1,0,0:0:0:0:
448,192,125439,1,0,0:0:0:0:
64,192,125595,1,0,0:0:0:0:
192,192,125673,1,0,0:0:0:0:
320,192,125751,1,0,0:0:0:0:
192,192,125907,1,0,0:0:0:0:
320,192,125985,1,0,0:0:0:0:
64,192,126064,1,0,0:0:0:0:
448,192,126064,1,0,0:0:0:0:
64,192,126220,1,0,0:0:0:0:
448,192,126220,1,0,0:0:0:0:
192,192,126376,1,0,0:0:0:0:
320,192,126376,1,0,0:0:0:0:
320,192,126532,1,0,0:0:0:0:
192,192,126532,1,0,0:0:0:0:
448,192,126689,1,0,0:0:0:0:
320,192,126689,1,0,0:0:0:0:
64,192,126689,1,0,0:0:0:0:
64,192,126845,1,0,0:0:0:0:
448,192,126845,1,0,0:0:0:0:
320,192,126845,1,0,0:0:0:0:
192,192,127001,1,0,0:0:0:0:
64,192,127157,1,0,0:0:0:0:
192,192,127235,1,0,0:0:0:0:
320,192,127314,1,0,0:0:0:0:
192,192,127392,1,0,0:0:0:0:
64,192,127470,1,0,0:0:0:0:
448,192,127626,1,0,0:0:0:0:
192,192,127626,1,0,0:0:0:0:
320,192,127626,1,0,0:0:0:0:
320,192,127782,1,0,0:0:0:0:
192,192,127782,1,0,0:0:0:0:
448,192,127782,1,0,0:0:0:0:
64,192,127939,1,0,0:0:0:0:
192,192,128095,1,0,0:0:0:0:
320,192,128173,1,0,0:0:0:0:
64,192,128251,1,0,0:0:0:0:
448,192,128251,1,0,0:0:0:0:
320,192,128407,1,0,0:0:0:0:
192,192,128485,1,0,0:0:0:0:
64,192,128564,1,0,0:0:0:0:
448,192,128564,1,0,0:0:0:0:
448,192,128720,1,0,0:0:0:0:
64,192,128720,1,0,0:0:0:0:
192,192,128876,1,0,0:0:0:0:
320,192,128876,1,0,0:0:0:0:
192,192,129032,1,0,0:0:0:0:
320,192,129032,1,0,0:0:0:0:
448,192,129032,1,0,0:0:0:0:
64,192,129032,1,0,0:0:0:0:
192,192,129345,1,0,0:0:0:0:
320,192,129423,1,0,0:0:0:0:
64,192,129501,1,0,0:0:0:0:
192,192,129501,1,0,0:0:0:0:
448,192,129501,1,0,0:0:0:0:
192,192,129657,1,0,0:0:0:0:
320,192,129657,128,0,129814:0:0:0:0:
192,192,129814,1,0,0:0:0:0:
448,192,129814,128,0,129970:0:0:0:0:
192,192,129970,1,0,0:0:0:0:
320,192,129970,128,0,130126:0:0:0:0:
192,192,130126,1,0,0:0:0:0:
448,192,130126,1,0,0:0:0:0:
64,192,130126,1,0,0:0:0:0:
192,192,130282,1,0,0:0:0:0:
448,192,130282,128,0,130439:0:0:0:0:
320,192,130439,1,0,0:0:0:0:
192,192,130439,1,0,0:0:0:0:
64,192,130517,1,0,0:0:0:0:
320,192,130595,128,0,130751:0:0:0:0:
192,192,130595,1,0,0:0:0:0:
448,192,130751,1,0,0:0:0:0:
192,192,130751,1,0,0:0:0:0:
64,192,130751,1,0,0:0:0:0:
192,192,130907,1,0,0:0:0:0:
64,192,131064,1,0,0:0:0:0:
320,192,131064,128,0,131376:0:0:0:0:
448,192,131064,1,0,0:0:0:0:
448,192,131376,128,0,131689:0:0:0:0:
64,192,131376,1,0,0:0:0:0:
192,192,131376,1,0,0:0:0:0:
192,192,131689,1,0,0:0:0:0:
64,192,131689,1,0,0:0:0:0:
320,192,131845,1,0,0:0:0:0:
320,192,132001,1,0,0:0:0:0:
64,192,132001,1,0,0:0:0:0:
448,192,132001,1,0,0:0:0:0:
320,192,132157,1,0,0:0:0:0:
192,192,132157,128,0,132314:0:0:0:0:
320,192,132314,1,0,0:0:0:0:
64,192,132314,128,0,132470:0:0:0:0:
448,192,132392,1,0,0:0:0:0:
320,192,132470,1,0,0:0:0:0:
192,192,132470,128,0,132626:0:0:0:0:
448,192,132626,1,0,0:0:0:0:
320,192,132626,1,0,0:0:0:0:
64,192,132626,1,0,0:0:0:0:
320,192,132782,1,0,0:0:0:0:
64,192,132782,128,0,132939:0:0:0:0:
192,192,132939,1,0,0:0:0:0:
320,192,132939,1,0,0:0:0:0:
448,192,133017,1,0,0:0:0:0:
320,192,133095,1,0,0:0:0:0:
192,192,133095,128,0,133251:0:0:0:0:
320,192,133251,1,0,0:0:0:0:
64,192,133251,1,0,0:0:0:0:
448,192,133251,1,0,0:0:0:0:
320,192,133407,1,0,0:0:0:0:
64,192,133564,128,0,133876:0:0:0:0:
448,192,133564,1,0,0:0:0:0:
192,192,133564,1,0,0:0:0:0:
320,192,133876,1,0,0:0:0:0:
448,192,133876,1,0,0:0:0:0:
192,192,133876,128,0,134189:0:0:0:0:
448,192,134189,1,0,0:0:0:0:
320,192,134189,1,0,0:0:0:0:
64,192,134345,1,0,0:0:0:0:
448,192,134501,1,0,0:0:0:0:
64,192,134501,1,0,0:0:0:0:
320,192,134501,1,0,0:0:0:0:
320,192,134657,128,0,134814:0:0:0:0:
64,192,134657,1,0,0:0:0:0:
448,192,134814,128,0,134970:0:0:0:0:
64,192,134814,1,0,0:0:0:0:
320,192,134970,128,0,135126:0:0:0:0:
64,192,134970,1,0,0:0:0:0:
192,192,135048,1,0,0:0:0:0:
64,192,135126,1,0,0:0:0:0:
448,192,135126,1,0,0:0:0:0:
64,192,135282,1,0,0:0:0:0:
448,192,135282,128,0,135439:0:0:0:0:
192,192,135360,1,0,0:0:0:0:
320,192,135439,1,0,0:0:0:0:
64,192,135439,1,0,0:0:0:0:
192,192,135517,1,0,0:0:0:0:
320,192,135595,128,0,135751:0:0:0:0:
64,192,135595,1,0,0:0:0:0:
448,192,135751,1,0,0:0:0:0:
192,192,135751,1,0,0:0:0:0:
64,192,135751,1,0,0:0:0:0:
64,192,135907,1,0,0:0:0:0:
448,192,136064,1,0,0:0:0:0:
320,192,136064,1,0,0:0:0:0:
192,192,136064,128,0,136376:0:0:0:0:
320,192,136376,1,0,0:0:0:0:
64,192,136376,1,0,0:0:0:0:
448,192,136376,128,0,136689:0:0:0:0:
64,192,136689,128,0,137314:0:0:0:0:
320,192,136689,1,0,0:0:0:0:
320,192,136845,1,0,0:0:0:0:
448,192,137001,1,0,0:0:0:0:
192,192,137001,1,0,0:0:0:0:
448,192,137157,1,0,0:0:0:0:
192,192,137314,1,0,0:0:0:0:
320,192,137314,128,0,137626:0:0:0:0:
192,192,137470,1,0,0:0:0:0:
448,192,137626,128,0,137939:0:0:0:0:
64,192,137626,1,0,0:0:0:0:
192,192,137626,1,0,0:0:0:0:
64,192,137782,1,0,0:0:0:0:
64,192,137939,1,0,0:0:0:0:
192,192,137939,1,0,0:0:0:0:
192,192,138095,1,0,0:0:0:0:
320,192,138251,1,0,0:0:0:0:
448,192,138251,1,0,0:0:0:0:
64,192,138251,1,0,0:0:0:0:
320,192,138407,1,0,0:0:0:0:
64,192,138564,1,0,0:0:0:0:
192,192,138564,1,0,0:0:0:0:
192,192,138720,1,0,0:0:0:0:
448,192,138876,1,0,0:0:0:0:
320,192,138876,1,0,0:0:0:0:
192,192,138876,1,0,0:0:0:0:
64,192,139032,1,0,0:0:0:0:
448,192,139032,1,0,0:0:0:0:
192,192,139110,1,0,0:0:0:0:
320,192,139189,1,0,0:0:0:0:
448,192,139189,1,0,0:0:0:0:
192,192,139293,1,0,0:0:0:0:
64,192,139397,1,0,0:0:0:0:
192,192,139501,1,0,0:0:0:0:
448,192,139501,1,0,0:0:0:0:
320,192,139605,1,0,0:0:0:0:
192,192,139709,1,0,0:0:0:0:
64,192,139814,1,0,0:0:0:0:
448,192,139814,1,0,0:0:0:0:
192,192,139918,1,0,0:0:0:0:
320,192,140022,1,0,0:0:0:0:
448,192,140126,1,0,0:0:0:0:
192,192,140126,1,0,0:0:0:0:
320,192,140230,1,0,0:0:0:0:
448,192,140334,1,0,0:0:0:0:
192,192,140439,1,0,0:0:0:0:
64,192,140439,1,0,0:0:0:0:
320,192,140543,1,0,0:0:0:0:
448,192,140647,1,0,0:0:0:0:
320,192,140751,1,0,0:0:0:0:
64,192,140751,1,0,0:0:0:0:
192,192,140855,1,0,0:0:0:0:
320,192,140959,1,0,0:0:0:0:
448,192,141064,1,0,0:0:0:0:
64,192,141064,1,0,0:0:0:0:
192,192,141168,1,0,0:0:0:0:
320,192,141272,1,0,0:0:0:0:
192,192,141376,1,0,0:0:0:0:
448,192,141376,1,0,0:0:0:0:
320,192,141480,1,0,0:0:0:0:
448,192,141584,1,0,0:0:0:0:
64,192,141689,1,0,0:0:0:0:
192,192,141689,1,0,0:0:0:0:
320,192,141793,1,0,0:0:0:0:
448,192,141897,1,0,0:0:0:0:
64,192,142001,1,0,0:0:0:0:
320,192,142001,1,0,0:0:0:0:
192,192,142105,1,0,0:0:0:0:
320,192,142209,1,0,0:0:0:0:
64,192,142314,1,0,0:0:0:0:
448,192,142314,1,0,0:0:0:0:
320,192,142418,1,0,0:0:0:0:
192,192,142522,1,0,0:0:0:0:
64,192,142626,1,0,0:0:0:0:
320,192,142626,1,0,0:0:0:0:
192,192,142730,1,0,0:0:0:0:
64,192,142834,1,0,0:0:0:0:
448,192,142939,1,0,0:0:0:0:
320,192,142939,1,0,0:0:0:0:
192,192,143043,1,0,0:0:0:0:
64,192,143147,1,0,0:0:0:0:
448,192,143251,1,0,0:0:0:0:
192,192,143251,1,0,0:0:0:0:
320,192,143355,1,0,0:0:0:0:
192,192,143459,1,0,0:0:0:0:
64,192,143564,1,0,0:0:0:0:
448,192,143564,1,0,0:0:0:0:
192,192,143668,1,0,0:0:0:0:
320,192,143772,1,0,0:0:0:0:
192,192,143876,1,0,0:0:0:0:
448,192,143876,1,0,0:0:0:0:
320,192,143980,1,0,0:0:0:0:
448,192,144084,1,0,0:0:0:0:
64,192,144189,1,0,0:0:0:0:
192,192,144189,1,0,0:0:0:0:
320,192,144293,1,0,0:0:0:0:
448,192,144397,1,0,0:0:0:0:
320,192,144501,1,0,0:0:0:0:
64,192,144501,1,0,0:0:0:0:
192,192,144605,1,0,0:0:0:0:
320,192,144709,1,0,0:0:0:0:
64,192,144814,1,0,0:0:0:0:
448,192,144814,1,0,0:0:0:0:
320,192,144918,1,0,0:0:0:0:
192,192,145022,1,0,0:0:0:0:
64,192,145126,1,0,0:0:0:0:
320,192,145126,1,0,0:0:0:0:
192,192,145230,1,0,0:0:0:0:
64,192,145334,1,0,0:0:0:0:
448,192,145439,1,0,0:0:0:0:
320,192,145439,1,0,0:0:0:0:
192,192,145543,1,0,0:0:0:0:
64,192,145647,1,0,0:0:0:0:
448,192,145751,1,0,0:0:0:0:
192,192,145751,1,0,0:0:0:0:
320,192,145855,1,0,0:0:0:0:
192,192,145959,1,0,0:0:0:0:
64,192,146064,1,0,0:0:0:0:
448,192,146064,1,0,0:0:0:0:
192,192,146168,1,0,0:0:0:0:
320,192,146272,1,0,0:0:0:0:
192,192,146376,1,0,0:0:0:0:
448,192,146376,1,0,0:0:0:0:
320,192,146480,1,0,0:0:0:0:
448,192,146584,1,0,0:0:0:0:
64,192,146689,1,0,0:0:0:0:
192,192,146689,1,0,0:0:0:0:
320,192,146793,1,0,0:0:0:0:
448,192,146897,1,0,0:0:0:0:
320,192,147001,1,0,0:0:0:0:
64,192,147001,1,0,0:0:0:0:
192,192,147105,1,0,0:0:0:0:
320,192,147209,1,0,0:0:0:0:
64,192,147314,1,0,0:0:0:0:
448,192,147314,1,0,0:0:0:0:
320,192,147418,1,0,0:0:0:0:
192,192,147522,1,0,0:0:0:0:
64,192,147626,1,0,0:0:0:0:
320,192,147626,1,0,0:0:0:0:
192,192,147730,1,0,0:0:0:0:
64,192,147834,1,0,0:0:0:0:
320,192,147939,1,0,0:0:0:0:
448,192,147939,1,0,0:0:0:0:
192,192,148043,1,0,0:0:0:0:
64,192,148147,1,0,0:0:0:0:
192,192,148251,1,0,0:0:0:0:
448,192,148251,1,0,0:0:0:0:
320,192,148355,1,0,0:0:0:0:
192,192,148459,1,0,0:0:0:0:
448,192,148564,1,0,0:0:0:0:
64,192,148564,1,0,0:0:0:0:
192,192,148668,1,0,0:0:0:0:
320,192,148772,1,0,0:0:0:0:
192,192,148876,1,0,0:0:0:0:
448,192,148876,1,0,0:0:0:0:
320,192,148980,1,0,0:0:0:0:
448,192,149084,1,0,0:0:0:0:
192,192,149189,1,0,0:0:0:0:
64,192,149189,1,0,0:0:0:0:
320,192,149293,1,0,0:0:0:0:
448,192,149397,1,0,0:0:0:0:
64,192,149501,1,0,0:0:0:0:
320,192,149501,1,0,0:0:0:0:
192,192,149605,1,0,0:0:0:0:
320,192,149709,1,0,0:0:0:0:
448,192,149814,1,0,0:0:0:0:
64,192,149814,1,0,0:0:0:0:
320,192,149918,1,0,0:0:0:0:
192,192,150022,1,0,0:0:0:0:
64,192,150126,1,0,0:0:0:0:
320,192,150126,1,0,0:0:0:0:
192,192,150230,1,0,0:0:0:0:
64,192,150334,1,0,0:0:0:0:
448,192,150439,1,0,0:0:0:0:
320,192,150439,1,0,0:0:0:0:
192,192,150543,1,0,0:0:0:0:
64,192,150647,1,0,0:0:0:0:
448,192,150751,1,0,0:0:0:0:
192,192,150751,1,0,0:0:0:0:
320,192,150855,1,0,0:0:0:0:
192,192,150959,1,0,0:0:0:0:
448,192,151064,1,0,0:0:0:0:
64,192,151064,1,0,0:0:0:0:
192,192,151168,1,0,0:0:0:0:
320,192,151272,1,0,0:0:0:0:
448,192,151376,1,0,0:0:0:0:
192,192,151376,1,0,0:0:0:0:
320,192,151480,1,0,0:0:0:0:
448,192,151584,1,0,0:0:0:0:
64,192,151689,1,0,0:0:0:0:
192,192,151689,1,0,0:0:0:0:
320,192,151793,1,0,0:0:0:0:
448,192,151897,1,0,0:0:0:0:
64,192,152001,1,0,0:0:0:0:
320,192,152001,1,0,0:0:0:0:
192,192,152105,1,0,0:0:0:0:
320,192,152209,1,0,0:0:0:0:
64,192,152314,1,0,0:0:0:0:
448,192,152314,1,0,0:0:0:0:
320,192,152418,1,0,0:0:0:0:
192,192,152522,1,0,0:0:0:0:
64,192,152626,1,0,0:0:0:0:
320,192,152626,1,0,0:0:0:0:
192,192,152730,1,0,0:0:0:0:
64,192,152834,1,0,0:0:0:0:
320,192,152939,1,0,0:0:0:0:
448,192,152939,1,0,0:0:0:0:
192,192,153043,1,0,0:0:0:0:
64,192,153147,1,0,0:0:0:0:
192,192,153251,1,0,0:0:0:0:
448,192,153251,1,0,0:0:0:0:
320,192,153355,1,0,0:0:0:0:
192,192,153459,1,0,0:0:0:0:
448,192,153564,1,0,0:0:0:0:
64,192,153564,1,0,0:0:0:0:
192,192,153668,1,0,0:0:0:0:
320,192,153772,1,0,0:0:0:0:
448,192,153876,1,0,0:0:0:0:
192,192,153876,1,0,0:0:0:0:
320,192,153980,1,0,0:0:0:0:
448,192,154084,1,0,0:0:0:0:
320,192,154189,1,0,0:0:0:0:
192,192,154189,1,0,0:0:0:0:
64,192,154189,1,0,0:0:0:0:
64,192,154501,1,0,0:0:0:0:
64,192,154814,1,0,0:0:0:0:
64,192,155126,1,0,0:0:0:0:
192,192,155439,1,0,0:0:0:0:
320,192,155439,1,0,0:0:0:0:
448,192,155439,1,0,0:0:0:0:
192,192,155751,1,0,0:0:0:0:
320,192,156064,1,0,0:0:0:0:
64,192,156064,1,0,0:0:0:0:
192,192,156064,1,0,0:0:0:0:
448,192,156064,1,0,0:0:0:0:
320,192,156376,1,0,0:0:0:0:
192,192,156376,1,0,0:0:0:0:
448,192,156689,1,0,0:0:0:0:
192,192,156689,1,0,0:0:0:0:
64,192,156689,1,0,0:0:0:0:
320,192,156689,1,0,0:0:0:0:
448,192,156845,1,0,0:0:0:0:
192,192,157001,1,0,0:0:0:0:
320,192,157001,1,0,0:0:0:0:
320,192,157157,1,0,0:0:0:0:
64,192,157157,1,0,0:0:0:0:
192,192,157314,1,0,0:0:0:0:
192,192,157470,1,0,0:0:0:0:
64,192,157626,1,0,0:0:0:0:
448,192,157626,1,0,0:0:0:0:
64,192,157782,1,0,0:0:0:0:
320,192,157939,1,0,0:0:0:0:
192,192,157939,1,0,0:0:0:0:
448,192,157939,1,0,0:0:0:0:
192,192,158173,1,0,0:0:0:0:
64,192,158173,1,0,0:0:0:0:
448,192,158251,1,0,0:0:0:0:
320,192,158251,1,0,0:0:0:0:
192,192,158407,1,0,0:0:0:0:
64,192,158564,1,0,0:0:0:0:
448,192,158564,1,0,0:0:0:0:
320,192,158603,1,0,0:0:0:0:
192,192,158642,1,0,0:0:0:0:
64,192,158681,1,0,0:0:0:0:
448,192,158720,1,0,0:0:0:0:
320,192,158720,1,0,0:0:0:0:
192,192,158798,1,0,0:0:0:0:
64,192,158798,1,0,0:0:0:0:
320,192,158876,1,0,0:0:0:0:
448,192,158876,1,0,0:0:0:0:
192,192,158954,1,0,0:0:0:0:
64,192,158954,1,0,0:0:0:0:
448,192,159032,1,0,0:0:0:0:
320,192,159032,1,0,0:0:0:0:
64,192,159110,1,0,0:0:0:0:
192,192,159110,1,0,0:0:0:0:
320,192,159189,1,0,0:0:0:0:
448,192,159189,1,0,0:0:0:0:
64,192,159189,1,0,0:0:0:0:
320,192,159345,1,0,0:0:0:0:
64,192,159501,1,0,0:0:0:0:
448,192,159501,1,0,0:0:0:0:
192,192,159501,1,0,0:0:0:0:
320,192,159657,1,0,0:0:0:0:
192,192,159735,1,0,0:0:0:0:
448,192,159814,1,0,0:0:0:0:
64,192,159814,1,0,0:0:0:0:
320,192,159814,1,0,0:0:0:0:
192,192,159970,1,0,0:0:0:0:
64,192,160048,1,0,0:0:0:0:
320,192,160048,1,0,0:0:0:0:
192,192,160126,1,0,0:0:0:0:
448,192,160126,1,0,0:0:0:0:
320,192,160282,1,0,0:0:0:0:
192,192,160282,1,0,0:0:0:0:
320,192,160439,1,0,0:0:0:0:
448,192,160439,1,0,0:0:0:0:
320,192,160595,1,0,0:0:0:0:
192,192,160751,1,0,0:0:0:0:
448,192,160751,1,0,0:0:0:0:
64,192,160751,1,0,0:0:0:0:
320,192,160907,1,0,0:0:0:0:
192,192,160985,1,0,0:0:0:0:
64,192,161064,1,0,0:0:0:0:
320,192,161064,1,0,0:0:0:0:
448,192,161064,1,0,0:0:0:0:
320,192,161220,1,0,0:0:0:0:
448,192,161298,1,0,0:0:0:0:
192,192,161298,1,0,0:0:0:0:
64,192,161376,1,0,0:0:0:0:
320,192,161376,1,0,0:0:0:0:
192,192,161532,1,0,0:0:0:0:
320,192,161532,1,0,0:0:0:0:
64,192,161689,1,0,0:0:0:0:
192,192,161689,1,0,0:0:0:0:
64,192,161845,1,0,0:0:0:0:
192,192,162001,1,0,0:0:0:0:
320,192,162001,1,0,0:0:0:0:
448,192,162001,1,0,0:0:0:0:
64,192,162157,1,0,0:0:0:0:
192,192,162235,1,0,0:0:0:0:
64,192,162314,1,0,0:0:0:0:
448,192,162314,1,0,0:0:0:0:
320,192,162314,1,0,0:0:0:0:
64,192,162470,1,0,0:0:0:0:
320,192,162548,1,0,0:0:0:0:
192,192,162548,1,0,0:0:0:0:
448,192,162626,1,0,0:0:0:0:
64,192,162626,1,0,0:0:0:0:
448,192,162782,1,0,0:0:0:0:
320,192,162782,1,0,0:0:0:0:
64,192,162939,1,0,0:0:0:0:
320,192,162939,1,0,0:0:0:0:
192,192,163095,1,0,0:0:0:0:
320,192,163173,1,0,0:0:0:0:
448,192,163251,1,0,0:0:0:0:
64,192,163251,1,0,0:0:0:0:
192,192,163251,1,0,0:0:0:0:
64,192,163407,1,0,0:0:0:0:
320,192,163407,1,0,0:0:0:0:
64,192,163564,1,0,0:0:0:0:
320,192,163564,1,0,0:0:0:0:
448,192,163642,1,0,0:0:0:0:
320,192,163720,1,0,0:0:0:0:
192,192,163798,1,0,0:0:0:0:
448,192,163876,1,0,0:0:0:0:
64,192,163876,1,0,0:0:0:0:
320,192,163876,1,0,0:0:0:0:
192,192,163954,1,0,0:0:0:0:
320,192,164032,1,0,0:0:0:0:
448,192,164110,1,0,0:0:0:0:
64,192,164189,1,0,0:0:0:0:
192,192,164189,1,0,0:0:0:0:
320,192,164189,1,0,0:0:0:0:
192,192,164345,1,0,0:0:0:0:
448,192,164501,1,0,0:0:0:0:
64,192,164501,1,0,0:0:0:0:
320,192,164501,1,0,0:0:0:0:
192,192,164657,1,0,0:0:0:0:
320,192,164735,1,0,0:0:0:0:
448,192,164814,1,0,0:0:0:0:
64,192,164814,1,0,0:0:0:0:
192,192,164814,1,0,0:0:0:0:
448,192,164970,1,0,0:0:0:0:
320,192,165048,1,0,0:0:0:0:
64,192,165048,1,0,0:0:0:0:
192,192,165126,1,0,0:0:0:0:
448,192,165126,1,0,0:0:0:0:
192,192,165282,1,0,0:0:0:0:
320,192,165282,1,0,0:0:0:0:
448,192,165439,1,0,0:0:0:0:
320,192,165439,1,0,0:0:0:0:
448,192,165595,1,0,0:0:0:0:
320,192,165751,1,0,0:0:0:0:
192,192,165751,1,0,0:0:0:0:
64,192,165751,1,0,0:0:0:0:
448,192,165907,1,0,0:0:0:0:
320,192,165985,1,0,0:0:0:0:
64,192,166064,1,0,0:0:0:0:
192,192,166064,1,0,0:0:0:0:
448,192,166064,1,0,0:0:0:0:
64,192,166220,1,0,0:0:0:0:
192,192,166298,1,0,0:0:0:0:
448,192,166298,1,0,0:0:0:0:
320,192,166376,1,0,0:0:0:0:
64,192,166376,1,0,0:0:0:0:
192,192,166532,1,0,0:0:0:0:
320,192,166532,1,0,0:0:0:0:
192,192,166689,1,0,0:0:0:0:
64,192,166689,1,0,0:0:0:0:
64,192,166845,1,0,0:0:0:0:
320,192,167001,1,0,0:0:0:0:
192,192,167001,1,0,0:0:0:0:
448,192,167001,1,0,0:0:0:0:
64,192,167157,1,0,0:0:0:0:
192,192,167235,1,0,0:0:0:0:
448,192,167314,1,0,0:0:0:0:
320,192,167314,1,0,0:0:0:0:
64,192,167314,1,0,0:0:0:0:
448,192,167470,1,0,0:0:0:0:
320,192,167548,1,0,0:0:0:0:
192,192,167548,1,0,0:0:0:0:
64,192,167626,1,0,0:0:0:0:
448,192,167626,1,0,0:0:0:0:
448,192,167782,1,0,0:0:0:0:
192,192,167782,1,0,0:0:0:0:
320,192,167860,1,0,0:0:0:0:
64,192,167939,1,0,0:0:0:0:
192,192,167939,1,0,0:0:0:0:
320,192,168095,1,0,0:0:0:0:
448,192,168095,1,0,0:0:0:0:
192,192,168095,1,0,0:0:0:0:
64,192,168251,1,0,0:0:0:0:
320,192,168251,1,0,0:0:0:0:
448,192,168407,1,0,0:0:0:0:
192,192,168407,1,0,0:0:0:0:
320,192,168485,1,0,0:0:0:0:
192,192,168564,1,0,0:0:0:0:
64,192,168564,1,0,0:0:0:0:
448,192,168564,1,0,0:0:0:0:
320,192,168720,1,0,0:0:0:0:
192,192,168720,1,0,0:0:0:0:
448,192,168876,1,0,0:0:0:0:
64,192,168876,1,0,0:0:0:0:
320,192,168954,1,0,0:0:0:0:
192,192,169032,1,0,0:0:0:0:
64,192,169110,1,0,0:0:0:0:
448,192,169189,1,0,0:0:0:0:
192,192,169189,1,0,0:0:0:0:
320,192,169189,1,0,0:0:0:0:
320,192,169345,1,0,0:0:0:0:
64,192,169501,1,0,0:0:0:0:
192,192,169501,1,0,0:0:0:0:
448,192,169501,1,0,0:0:0:0:
320,192,169657,1,0,0:0:0:0:
192,192,169735,1,0,0:0:0:0:
64,192,169814,1,0,0:0:0:0:
320,192,169814,1,0,0:0:0:0:
448,192,169814,1,0,0:0:0:0:
192,192,169970,1,0,0:0:0:0:
320,192,170048,1,0,0:0:0:0:
64,192,170048,1,0,0:0:0:0:
192,192,170126,1,0,0:0:0:0:
448,192,170126,1,0,0:0:0:0:
192,192,170282,1,0,0:0:0:0:
320,192,170282,1,0,0:0:0:0:
320,192,170439,1,0,0:0:0:0:
448,192,170439,1,0,0:0:0:0:
320,192,170595,1,0,0:0:0:0:
64,192,170751,1,0,0:0:0:0:
448,192,170751,1,0,0:0:0:0:
192,192,170751,1,0,0:0:0:0:
320,192,170907,1,0,0:0:0:0:
192,192,170985,1,0,0:0:0:0:
448,192,171064,1,0,0:0:0:0:
64,192,171064,1,0,0:0:0:0:
320,192,171064,1,0,0:0:0:0:
320,192,171220,1,0,0:0:0:0:
192,192,171298,1,0,0:0:0:0:
448,192,171298,1,0,0:0:0:0:
64,192,171376,1,0,0:0:0:0:
320,192,171376,1,0,0:0:0:0:
192,192,171532,1,0,0:0:0:0:
320,192,171532,1,0,0:0:0:0:
192,192,171689,1,0,0:0:0:0:
64,192,171689,1,0,0:0:0:0:
64,192,171845,1,0,0:0:0:0:
448,192,172001,1,0,0:0:0:0:
320,192,172001,1,0,0:0:0:0:
192,192,172001,1,0,0:0:0:0:
64,192,172157,1,0,0:0:0:0:
192,192,172235,1,0,0:0:0:0:
64,192,172314,1,0,0:0:0:0:
320,192,172314,1,0,0:0:0:0:
448,192,172314,1,0,0:0:0:0:
64,192,172470,1,0,0:0:0:0:
192,192,172548,1,0,0:0:0:0:
320,192,172548,1,0,0:0:0:0:
448,192,172626,1,0,0:0:0:0:
64,192,172626,1,0,0:0:0:0:
320,192,172782,1,0,0:0:0:0:
448,192,172782,1,0,0:0:0:0:
320,192,172939,1,0,0:0:0:0:
64,192,172939,1,0,0:0:0:0:
192,192,173095,1,0,0:0:0:0:
320,192,173173,1,0,0:0:0:0:
192,192,173251,1,0,0:0:0:0:
64,192,173251,1,0,0:0:0:0:
448,192,173251,1,0,0:0:0:0:
64,192,173407,1,0,0:0:0:0:
320,192,173407,1,0,0:0:0:0:
64,192,173564,1,0,0:0:0:0:
320,192,173564,1,0,0:0:0:0:
448,192,173642,1,0,0:0:0:0:
320,192,173720,1,0,0:0:0:0:
192,192,173798,1,0,0:0:0:0:
320,192,173876,1,0,0:0:0:0:
448,192,173876,1,0,0:0:0:0:
64,192,173876,1,0,0:0:0:0:
192,192,173954,1,0,0:0:0:0:
320,192,174032,1,0,0:0:0:0:
448,192,174110,1,0,0:0:0:0:
64,192,174189,1,0,0:0:0:0:
320,192,174189,1,0,0:0:0:0:
192,192,174189,1,0,0:0:0:0:
192,192,174345,1,0,0:0:0:0:
64,192,174501,1,0,0:0:0:0:
320,192,174501,1,0,0:0:0:0:
448,192,174501,1,0,0:0:0:0:
192,192,174657,1,0,0:0:0:0:
320,192,174735,1,0,0:0:0:0:
192,192,174814,1,0,0:0:0:0:
448,192,174814,1,0,0:0:0:0:
64,192,174814,1,0,0:0:0:0:
448,192,174970,1,0,0:0:0:0:
64,192,175048,1,0,0:0:0:0:
320,192,175048,1,0,0:0:0:0:
192,192,175126,1,0,0:0:0:0:
448,192,175126,1,0,0:0:0:0:
320,192,175282,1,0,0:0:0:0:
192,192,175282,1,0,0:0:0:0:
448,192,175439,1,0,0:0:0:0:
320,192,175439,1,0,0:0:0:0:
448,192,175595,1,0,0:0:0:0:
64,192,175751,1,0,0:0:0:0:
320,192,175751,1,0,0:0:0:0:
192,192,175751,1,0,0:0:0:0:
448,192,175907,1,0,0:0:0:0:
320,192,175985,1,0,0:0:0:0:
448,192,176064,1,0,0:0:0:0:
192,192,176064,1,0,0:0:0:0:
64,192,176064,1,0,0:0:0:0:
64,192,176220,1,0,0:0:0:0:
448,192,176298,1,0,0:0:0:0:
192,192,176298,1,0,0:0:0:0:
64,192,176376,1,0,0:0:0:0:
320,192,176376,1,0,0:0:0:0:
192,192,176532,1,0,0:0:0:0:
320,192,176532,1,0,0:0:0:0:
448,192,176689,1,0,0:0:0:0:
192,192,176689,1,0,0:0:0:0:
64,192,176689,1,0,0:0:0:0:
448,192,176845,1,0,0:0:0:0:
64,192,176845,1,0,0:0:0:0:
64,192,177001,1,0,0:0:0:0:
192,192,177001,1,0,0:0:0:0:
320,192,177001,1,0,0:0:0:0:
192,192,177157,1,0,0:0:0:0:
448,192,177314,1,0,0:0:0:0:
64,192,177314,1,0,0:0:0:0:
320,192,177314,1,0,0:0:0:0:
320,192,177470,1,0,0:0:0:0:
64,192,177626,1,0,0:0:0:0:
192,192,177626,1,0,0:0:0:0:
448,192,177626,1,0,0:0:0:0:
64,192,177782,1,0,0:0:0:0:
192,192,178095,1,0,0:0:0:0:
448,192,178095,1,0,0:0:0:0:
320,192,178095,1,0,0:0:0:0:
192,192,178251,1,0,0:0:0:0:
320,192,178251,1,0,0:0:0:0:
64,192,178251,1,0,0:0:0:0:
320,192,178407,1,0,0:0:0:0:
192,192,178407,1,0,0:0:0:0:
448,192,178407,1,0,0:0:0:0:
64,192,178564,1,0,0:0:0:0:
320,192,178564,1,0,0:0:0:0:
192,192,178564,1,0,0:0:0:0:
320,192,178720,1,0,0:0:0:0:
448,192,178876,1,0,0:0:0:0:
64,192,178876,1,0,0:0:0:0:
320,192,178954,1,0,0:0:0:0:
192,192,179032,1,0,0:0:0:0:
320,192,179110,1,0,0:0:0:0:
448,192,179189,128,0,180230:0:0:0:0:
192,192,179189,128,0,179397:0:0:0:0:
64,192,179189,128,0,179605:0:0:0:0:
320,192,179397,128,0,180022:0:0:0:0:
192,192,179605,128,0,179814:0:0:0:0:
64,192,179814,128,0,180855:0:0:0:0:
192,192,180022,128,0,180647:0:0:0:0:
320,192,180230,128,0,180439:0:0:0:0:
448,192,180439,128,0,180855:0:0:0:0:
320,192,180647,128,0,180855:0:0:0:0:
192,192,180855,128,0,181064:0:0:0:0:
448,192,181064,1,0,0:0:0:0:
320,192,181064,1,0,0:0:0:0:
64,192,181064,1,0,0:0:0:0:
192,192,181272,1,0,0:0:0:0:
64,192,181272,1,0,0:0:0:0:
448,192,181272,1,0,0:0:0:0:
320,192,181480,1,0,0:0:0:0:
192,192,181480,1,0,0:0:0:0:
64,192,181480,1,0,0:0:0:0:
448,192,181689,128,0,182730:0:0:0:0:
192,192,181689,128,0,181897:0:0:0:0:
64,192,181689,128,0,182105:0:0:0:0:
320,192,181897,128,0,182522:0:0:0:0:
192,192,182105,128,0,182314:0:0:0:0:
64,192,182314,128,0,183355:0:0:0:0:
192,192,182522,128,0,183147:0:0:0:0:
320,192,182730,128,0,182939:0:0:0:0:
448,192,182939,128,0,183355:0:0:0:0:
320,192,183147,128,0,183355:0:0:0:0:
192,192,183355,128,0,183564:0:0:0:0:
320,192,183564,1,0,0:0:0:0:
448,192,183564,1,0,0:0:0:0:
64,192,183564,1,0,0:0:0:0:
448,192,183772,1,0,0:0:0:0:
320,192,183772,1,0,0:0:0:0:
192,192,183772,1,0,0:0:0:0:
64,192,183980,1,0,0:0:0:0:
448,192,183980,1,0,0:0:0:0:
320,192,183980,1,0,0:0:0:0:
448,192,184189,128,0,185230:0:0:0:0:
192,192,184189,128,0,184397:0:0:0:0:
64,192,184189,128,0,184605:0:0:0:0:
320,192,184397,128,0,185022:0:0:0:0:
192,192,184605,128,0,184814:0:0:0:0:
64,192,184814,128,0,185855:0:0:0:0:
192,192,185022,128,0,185647:0:0:0:0:
320,192,185230,128,0,185439:0:0:0:0:
448,192,185439,128,0,185855:0:0:0:0:
320,192,185647,128,0,185855:0:0:0:0:
192,192,185855,128,0,186064:0:0:0:0:
448,192,186064,1,0,0:0:0:0:
320,192,186064,1,0,0:0:0:0:
64,192,186064,1,0,0:0:0:0:
448,192,186272,1,0,0:0:0:0:
192,192,186272,1,0,0:0:0:0:
64,192,186272,1,0,0:0:0:0:
64,192,186480,1,0,0:0:0:0:
192,192,186480,1,0,0:0:0:0:
320,192,186480,1,0,0:0:0:0:
448,192,186689,128,0,187730:0:0:0:0:
192,192,186689,128,0,186897:0:0:0:0:
64,192,186689,128,0,187105:0:0:0:0:
320,192,186897,128,0,187522:0:0:0:0:
192,192,187105,128,0,187314:0:0:0:0:
64,192,187314,128,0,188355:0:0:0:0:
192,192,187522,128,0,188147:0:0:0:0:
320,192,187730,128,0,187939:0:0:0:0:
448,192,187939,128,0,188355:0:0:0:0:
320,192,188147,128,0,188355:0:0:0:0:
192,192,188355,128,0,188564:0:0:0:0:
320,192,188564,1,0,0:0:0:0:
448,192,188564,1,0,0:0:0:0:
64,192,188564,1,0,0:0:0:0:
192,192,188772,1,0,0:0:0:0:
320,192,188772,1,0,0:0:0:0:
448,192,188772,1,0,0:0:0:0:
448,192,188980,1,0,0:0:0:0:
320,192,188980,1,0,0:0:0:0:
64,192,188980,1,0,0:0:0:0:
64,192,189189,1,0,0:0:0:0:
448,192,189189,1,0,0:0:0:0:
192,192,189189,128,0,189501:0:0:0:0:
320,192,189345,1,0,0:0:0:0:
64,192,189501,1,0,0:0:0:0:
448,192,189501,1,0,0:0:0:0:
320,192,189501,1,0,0:0:0:0:
192,192,189657,1,0,0:0:0:0:
320,192,189735,1,0,0:0:0:0:
64,192,189814,1,0,0:0:0:0:
448,192,189814,128,0,189970:0:0:0:0:
192,192,189970,1,0,0:0:0:0:
320,192,189970,128,0,190126:0:0:0:0:
64,192,190126,128,0,190282:0:0:0:0:
448,192,190126,1,0,0:0:0:0:
192,192,190126,1,0,0:0:0:0:
192,192,190282,128,0,190439:0:0:0:0:
448,192,190282,1,0,0:0:0:0:
64,192,190439,1,0,0:0:0:0:
320,192,190439,128,0,190751:0:0:0:0:
192,192,190595,1,0,0:0:0:0:
64,192,190751,1,0,0:0:0:0:
448,192,190751,1,0,0:0:0:0:
192,192,190751,1,0,0:0:0:0:
320,192,190907,1,0,0:0:0:0:
192,192,190985,1,0,0:0:0:0:
64,192,191064,128,0,191220:0:0:0:0:
448,192,191064,1,0,0:0:0:0:
192,192,191220,128,0,191376:0:0:0:0:
320,192,191220,1,0,0:0:0:0:
448,192,191376,128,0,191532:0:0:0:0:
320,192,191376,1,0,0:0:0:0:
64,192,191376,1,0,0:0:0:0:
320,192,191532,128,0,191689:0:0:0:0:
64,192,191532,1,0,0:0:0:0:
448,192,191689,1,0,0:0:0:0:
192,192,191689,128,0,192001:0:0:0:0:
320,192,191845,1,0,0:0:0:0:
448,192,192001,1,0,0:0:0:0:
320,192,192001,1,0,0:0:0:0:
64,192,192001,1,0,0:0:0:0:
192,192,192157,1,0,0:0:0:0:
320,192,192235,1,0,0:0:0:0:
192,192,192314,1,0,0:0:0:0:
448,192,192314,128,0,192470:0:0:0:0:
320,192,192470,128,0,192626:0:0:0:0:
64,192,192470,1,0,0:0:0:0:
64,192,192626,128,0,192782:0:0:0:0:
192,192,192626,1,0,0:0:0:0:
448,192,192626,1,0,0:0:0:0:
192,192,192782,128,0,192939:0:0:0:0:
320,192,192782,1,0,0:0:0:0:
448,192,192939,128,0,193095:0:0:0:0:
64,192,192939,1,0,0:0:0:0:
320,192,193095,1,0,0:0:0:0:
192,192,193173,1,0,0:0:0:0:
320,192,193251,1,0,0:0:0:0:
448,192,193251,1,0,0:0:0:0:
64,192,193251,128,0,193407:0:0:0:0:
448,192,193407,128,0,193564:0:0:0:0:
192,192,193407,1,0,0:0:0:0:
320,192,193564,128,0,193876:0:0:0:0:
64,192,193564,1,0,0:0:0:0:
192,192,193720,1,0,0:0:0:0:
448,192,193876,128,0,194189:0:0:0:0:
192,192,193876,1,0,0:0:0:0:
64,192,193876,1,0,0:0:0:0:
64,192,194032,1,0,0:0:0:0:
64,192,194189,1,0,0:0:0:0:
320,192,194189,1,0,0:0:0:0:
192,192,194189,128,0,194501:0:0:0:0:
320,192,194345,1,0,0:0:0:0:
448,192,194501,1,0,0:0:0:0:
320,192,194501,1,0,0:0:0:0:
64,192,194501,1,0,0:0:0:0:
192,192,194657,1,0,0:0:0:0:
320,192,194735,1,0,0:0:0:0:
64,192,194814,1,0,0:0:0:0:
448,192,194814,128,0,194970:0:0:0:0:
192,192,194970,1,0,0:0:0:0:
320,192,194970,128,0,195126:0:0:0:0:
448,192,195126,1,0,0:0:0:0:
64,192,195126,128,0,195282:0:0:0:0:
192,192,195126,1,0,0:0:0:0:
192,192,195282,128,0,195439:0:0:0:0:
448,192,195282,1,0,0:0:0:0:
64,192,195439,1,0,0:0:0:0:
320,192,195439,128,0,195751:0:0:0:0:
192,192,195595,1,0,0:0:0:0:
64,192,195751,1,0,0:0:0:0:
448,192,195751,1,0,0:0:0:0:
192,192,195751,1,0,0:0:0:0:
320,192,195907,1,0,0:0:0:0:
192,192,195985,1,0,0:0:0:0:
64,192,196064,128,0,196220:0:0:0:0:
448,192,196064,1,0,0:0:0:0:
320,192,196220,1,0,0:0:0:0:
192,192,196220,128,0,196376:0:0:0:0:
320,192,196376,1,0,0:0:0:0:
64,192,196376,1,0,0:0:0:0:
448,192,196376,128,0,196532:0:0:0:0:
320,192,196532,128,0,196689:0:0:0:0:
64,192,196532,1,0,0:0:0:0:
448,192,196689,1,0,0:0:0:0:
192,192,196689,128,0,197001:0:0:0:0:
320,192,196845,1,0,0:0:0:0:
320,192,197001,1,0,0:0:0:0:
448,192,197001,1,0,0:0:0:0:
64,192,197001,1,0,0:0:0:0:
192,192,197157,1,0,0:0:0:0:
320,192,197235,1,0,0:0:0:0:
448,192,197314,128,0,197470:0:0:0:0:
192,192,197314,1,0,0:0:0:0:
64,192,197470,1,0,0:0:0:0:
320,192,197470,128,0,197626:0:0:0:0:
64,192,197626,128,0,197782:0:0:0:0:
448,192,197626,1,0,0:0:0:0:
192,192,197626,1,0,0:0:0:0:
192,192,197782,128,0,197939:0:0:0:0:
320,192,197782,1,0,0:0:0:0:
448,192,197939,128,0,198095:0:0:0:0:
64,192,197939,1,0,0:0:0:0:
320,192,198095,1,0,0:0:0:0:
192,192,198173,1,0,0:0:0:0:
64,192,198251,128,0,198407:0:0:0:0:
448,192,198251,1,0,0:0:0:0:
320,192,198251,1,0,0:0:0:0:
192,192,198407,1,0,0:0:0:0:
448,192,198407,128,0,198564:0:0:0:0:
320,192,198564,128,0,198876:0:0:0:0:
64,192,198564,1,0,0:0:0:0:
192,192,198720,1,0,0:0:0:0:
64,192,198876,1,0,0:0:0:0:
192,192,198876,1,0,0:0:0:0:
448,192,198876,1,0,0:0:0:0:
320,192,198954,1,0,0:0:0:0:
192,192,199032,1,0,0:0:0:0:
64,192,199110,1,0,0:0:0:0:
320,192,199189,1,0,0:0:0:0:
192,192,199189,128,0,199501:0:0:0:0:
448,192,199189,1,0,0:0:0:0:
64,192,199501,1,0,0:0:0:0:
192,192,199657,1,0,0:0:0:0:
320,192,199735,1,0,0:0:0:0:
64,192,199814,1,0,0:0:0:0:
192,192,199814,1,0,0:0:0:0:
448,192,199814,128,0,199970:0:0:0:0:
320,192,199970,128,0,200126:0:0:0:0:
64,192,200126,128,0,200282:0:0:0:0:
192,192,200282,128,0,200439:0:0:0:0:
448,192,200439,1,0,0:0:0:0:
64,192,200439,1,0,0:0:0:0:
320,192,200439,128,0,200751:0:0:0:0:
448,192,200751,1,0,0:0:0:0:
320,192,200907,1,0,0:0:0:0:
192,192,200985,1,0,0:0:0:0:
64,192,201064,128,0,201220:0:0:0:0:
320,192,201064,1,0,0:0:0:0:
448,192,201064,1,0,0:0:0:0:
192,192,201220,128,0,201376:0:0:0:0:
448,192,201376,128,0,201532:0:0:0:0:
320,192,201532,128,0,201689:0:0:0:0:
64,192,201689,1,0,0:0:0:0:
448,192,201689,1,0,0:0:0:0:
192,192,201689,128,0,202001:0:0:0:0:
64,192,202001,1,0,0:0:0:0:
192,192,202157,1,0,0:0:0:0:
320,192,202235,1,0,0:0:0:0:
448,192,202314,128,0,202470:0:0:0:0:
192,192,202314,1,0,0:0:0:0:
64,192,202314,1,0,0:0:0:0:
320,192,202470,128,0,202626:0:0:0:0:
64,192,202626,128,0,202782:0:0:0:0:
192,192,202782,128,0,202939:0:0:0:0:
448,192,202939,1,0,0:0:0:0:
320,192,202939,1,0,0:0:0:0:
64,192,202939,128,0,203095:0:0:0:0:
320,192,203095,1,0,0:0:0:0:
192,192,203173,1,0,0:0:0:0:
448,192,203251,128,0,203407:0:0:0:0:
64,192,203407,128,0,203564:0:0:0:0:
448,192,203564,1,0,0:0:0:0:
320,192,203564,128,0,203876:0:0:0:0:
192,192,203564,1,0,0:0:0:0:
64,192,203876,128,0,204189:0:0:0:0:
320,192,204189,1,0,0:0:0:0:
448,192,204189,1,0,0:0:0:0:
192,192,204189,128,0,204501:0:0:0:0:
64,192,204501,1,0,0:0:0:0:
448,192,204501,1,0,0:0:0:0:
192,192,204657,1,0,0:0:0:0:
320,192,204735,1,0,0:0:0:0:
192,192,204814,1,0,0:0:0:0:
64,192,204814,1,0,0:0:0:0:
448,192,204814,128,0,204970:0:0:0:0:
320,192,204970,128,0,205126:0:0:0:0:
64,192,205126,128,0,205282:0:0:0:0:
448,192,205126,1,0,0:0:0:0:
192,192,205282,128,0,205439:0:0:0:0:
64,192,205439,1,0,0:0:0:0:
448,192,205439,1,0,0:0:0:0:
320,192,205439,128,0,205751:0:0:0:0:
64,192,205751,1,0,0:0:0:0:
448,192,205751,1,0,0:0:0:0:
320,192,205907,1,0,0:0:0:0:
192,192,205985,1,0,0:0:0:0:
64,192,206064,128,0,206220:0:0:0:0:
448,192,206064,1,0,0:0:0:0:
320,192,206064,1,0,0:0:0:0:
192,192,206220,128,0,206376:0:0:0:0:
320,192,206376,1,0,0:0:0:0:
64,192,206376,1,0,0:0:0:0:
448,192,206376,128,0,206532:0:0:0:0:
64,192,206532,1,0,0:0:0:0:
320,192,206532,128,0,206689:0:0:0:0:
64,192,206689,1,0,0:0:0:0:
448,192,206689,1,0,0:0:0:0:
192,192,206689,128,0,207001:0:0:0:0:
448,192,207001,1,0,0:0:0:0:
64,192,207001,1,0,0:0:0:0:
192,192,207157,1,0,0:0:0:0:
320,192,207235,1,0,0:0:0:0:
192,192,207314,1,0,0:0:0:0:
64,192,207314,1,0,0:0:0:0:
448,192,207314,128,0,207470:0:0:0:0:
320,192,207470,128,0,207626:0:0:0:0:
64,192,207626,128,0,207782:0:0:0:0:
448,192,207626,1,0,0:0:0:0:
192,192,207782,128,0,207939:0:0:0:0:
64,192,207939,1,0,0:0:0:0:
320,192,207939,1,0,0:0:0:0:
448,192,207939,1,0,0:0:0:0:
192,192,208017,1,0,0:0:0:0:
320,192,208095,1,0,0:0:0:0:
192,192,208173,1,0,0:0:0:0:
64,192,208251,1,0,0:0:0:0:
448,192,208251,1,0,0:0:0:0:
320,192,208329,1,0,0:0:0:0:
192,192,208407,1,0,0:0:0:0:
320,192,208485,1,0,0:0:0:0:
448,192,208564,1,0,0:0:0:0:
192,192,208564,1,0,0:0:0:0:
64,192,208564,1,0,0:0:0:0:
320,192,208720,1,0,0:0:0:0:
192,192,208720,1,0,0:0:0:0:
192,192,208876,1,0,0:0:0:0:
320,192,208876,1,0,0:0:0:0:
448,192,209032,1,0,0:0:0:0:
320,192,209032,1,0,0:0:0:0:
64,192,209032,1,0,0:0:0:0:
448,192,209189,1,0,0:0:0:0:
448,192,209345,1,0,0:0:0:0:
320,192,209501,1,0,0:0:0:0:
192,192,209501,1,0,0:0:0:0:
64,192,209501,1,0,0:0:0:0:
192,192,209657,1,0,0:0:0:0:
320,192,209814,1,0,0:0:0:0:
64,192,209814,1,0,0:0:0:0:
192,192,209970,1,0,0:0:0:0:
320,192,209970,1,0,0:0:0:0:
448,192,210126,1,0,0:0:0:0:
192,192,210126,1,0,0:0:0:0:
320,192,210126,1,0,0:0:0:0:
448,192,210282,1,0,0:0:0:0:
64,192,210282,1,0,0:0:0:0:
64,192,210439,1,0,0:0:0:0:
64,192,210595,1,0,0:0:0:0:
192,192,210751,1,0,0:0:0:0:
320,192,210751,1,0,0:0:0:0:
448,192,210751,1,0,0:0:0:0:
320,192,210907,1,0,0:0:0:0:
448,192,211064,1,0,0:0:0:0:
192,192,211064,1,0,0:0:0:0:
64,192,211220,1,0,0:0:0:0:
192,192,211298,1,0,0:0:0:0:
320,192,211376,1,0,0:0:0:0:
448,192,211376,1,0,0:0:0:0:
64,192,211376,1,0,0:0:0:0:
192,192,211532,1,0,0:0:0:0:
448,192,211532,1,0,0:0:0:0:
192,192,211689,1,0,0:0:0:0:
192,192,211845,1,0,0:0:0:0:
320,192,212001,1,0,0:0:0:0:
448,192,212001,1,0,0:0:0:0:
64,192,212001,1,0,0:0:0:0:
448,192,212157,1,0,0:0:0:0:
64,192,212314,1,0,0:0:0:0:
320,192,212314,1,0,0:0:0:0:
192,192,212470,1,0,0:0:0:0:
320,192,212470,1,0,0:0:0:0:
64,192,212626,1,0,0:0:0:0:
320,192,212626,1,0,0:0:0:0:
448,192,212626,1,0,0:0:0:0:
192,192,212782,1,0,0:0:0:0:
448,192,212782,1,0,0:0:0:0:
192,192,212939,1,0,0:0:0:0:
448,192,213095,1,0,0:0:0:0:
320,192,213173,1,0,0:0:0:0:
448,192,213251,1,0,0:0:0:0:
192,192,213251,1,0,0:0:0:0:
64,192,213251,1,0,0:0:0:0:
64,192,213407,1,0,0:0:0:0:
192,192,213564,1,0,0:0:0:0:
320,192,213564,1,0,0:0:0:0:
320,192,213720,1,0,0:0:0:0:
64,192,213876,1,0,0:0:0:0:
192,192,213876,1,0,0:0:0:0:
448,192,213876,1,0,0:0:0:0:
448,192,214032,1,0,0:0:0:0:
320,192,214032,1,0,0:0:0:0:
64,192,214032,1,0,0:0:0:0:
448,192,214189,1,0,0:0:0:0:
448,192,214345,1,0,0:0:0:0:
64,192,214501,1,0,0:0:0:0:
320,192,214501,1,0,0:0:0:0:
192,192,214501,1,0,0:0:0:0:
192,192,214657,1,0,0:0:0:0:
64,192,214814,1,0,0:0:0:0:
320,192,214814,1,0,0:0:0:0:
192,192,214970,1,0,0:0:0:0:
320,192,214970,1,0,0:0:0:0:
192,192,215126,1,0,0:0:0:0:
320,192,215126,1,0,0:0:0:0:
448,192,215126,1,0,0:0:0:0:
448,192,215282,1,0,0:0:0:0:
64,192,215282,1,0,0:0:0:0:
64,192,215439,1,0,0:0:0:0:
64,192,215595,1,0,0:0:0:0:
192,192,215751,1,0,0:0:0:0:
448,192,215751,1,0,0:0:0:0:
320,192,215751,1,0,0:0:0:0:
320,192,215907,1,0,0:0:0:0:
192,192,216064,1,0,0:0:0:0:
448,192,216064,1,0,0:0:0:0:
64,192,216220,1,0,0:0:0:0:
192,192,216298,1,0,0:0:0:0:
320,192,216376,1,0,0:0:0:0:
448,192,216376,1,0,0:0:0:0:
64,192,216376,1,0,0:0:0:0:
192,192,216532,1,0,0:0:0:0:
448,192,216532,1,0,0:0:0:0:
448,192,216689,1,0,0:0:0:0:
448,192,216845,1,0,0:0:0:0:
192,192,216845,1,0,0:0:0:0:
64,192,217001,1,0,0:0:0:0:
320,192,217001,1,0,0:0:0:0:
192,192,217001,1,0,0:0:0:0:
64,192,217157,1,0,0:0:0:0:
192,192,217157,1,0,0:0:0:0:
448,192,217314,1,0,0:0:0:0:
64,192,217470,1,0,0:0:0:0:
320,192,217470,1,0,0:0:0:0:
448,192,217626,1,0,0:0:0:0:
64,192,217626,1,0,0:0:0:0:
192,192,217626,1,0,0:0:0:0:
192,192,217782,1,0,0:0:0:0:
448,192,217782,1,0,0:0:0:0:
64,192,217939,1,0,0:0:0:0:
448,192,218095,1,0,0:0:0:0:
320,192,218095,1,0,0:0:0:0:
448,192,218251,1,0,0:0:0:0:
64,192,218251,1,0,0:0:0:0:
320,192,218251,1,0,0:0:0:0:
192,192,218407,1,0,0:0:0:0:
320,192,218564,1,0,0:0:0:0:
64,192,218564,1,0,0:0:0:0:
448,192,218720,1,0,0:0:0:0:
320,192,218798,1,0,0:0:0:0:
192,192,218876,1,0,0:0:0:0:
64,192,218876,1,0,0:0:0:0:
320,192,218954,1,0,0:0:0:0:
64,192,219032,1,0,0:0:0:0:
192,192,219032,1,0,0:0:0:0:
448,192,219032,128,0,219501:0:0:0:0:
192,192,219345,1,0,0:0:0:0:
192,192,219501,1,0,0:0:0:0:
64,192,219501,128,0,219814:0:0:0:0:
320,192,219501,1,0,0:0:0:0:
320,192,219657,1,0,0:0:0:0:
448,192,219814,1,0,0:0:0:0:
192,192,219814,128,0,219970:0:0:0:0:
320,192,219970,128,0,220126:0:0:0:0:
64,192,220126,1,0,0:0:0:0:
448,192,220126,128,0,220282:0:0:0:0:
192,192,220126,1,0,0:0:0:0:
320,192,220282,1,0,0:0:0:0:
64,192,220282,128,0,220751:0:0:0:0:
448,192,220439,1,0,0:0:0:0:
320,192,220595,1,0,0:0:0:0:
192,192,220751,1,0,0:0:0:0:
448,192,220751,1,0,0:0:0:0:
320,192,220751,128,0,221064:0:0:0:0:
192,192,221064,128,0,221220:0:0:0:0:
64,192,221064,1,0,0:0:0:0:
448,192,221220,1,0,0:0:0:0:
320,192,221298,1,0,0:0:0:0:
192,192,221376,128,0,221532:0:0:0:0:
64,192,221376,1,0,0:0:0:0:
448,192,221376,1,0,0:0:0:0:
64,192,221532,128,0,222001:0:0:0:0:
320,192,221532,1,0,0:0:0:0:
448,192,221689,1,0,0:0:0:0:
320,192,221845,1,0,0:0:0:0:
192,192,222001,1,0,0:0:0:0:
320,192,222001,1,0,0:0:0:0:
448,192,222001,128,0,222314:0:0:0:0:
320,192,222314,128,0,222470:0:0:0:0:
192,192,222314,1,0,0:0:0:0:
64,192,222470,128,0,222626:0:0:0:0:
320,192,222626,1,0,0:0:0:0:
192,192,222626,1,0,0:0:0:0:
448,192,222626,128,0,222782:0:0:0:0:
320,192,222782,128,0,223095:0:0:0:0:
64,192,222782,1,0,0:0:0:0:
192,192,222939,1,0,0:0:0:0:
64,192,223095,1,0,0:0:0:0:
192,192,223173,1,0,0:0:0:0:
64,192,223251,1,0,0:0:0:0:
448,192,223251,1,0,0:0:0:0:
320,192,223251,1,0,0:0:0:0:
192,192,223407,1,0,0:0:0:0:
320,192,223485,1,0,0:0:0:0:
64,192,223564,1,0,0:0:0:0:
448,192,223564,1,0,0:0:0:0:
320,192,223720,1,0,0:0:0:0:
448,192,223798,1,0,0:0:0:0:
320,192,223876,1,0,0:0:0:0:
64,192,223876,1,0,0:0:0:0:
192,192,223876,1,0,0:0:0:0:
64,192,224032,1,0,0:0:0:0:
192,192,224032,1,0,0:0:0:0:
448,192,224032,128,0,224501:0:0:0:0:
192,192,224345,1,0,0:0:0:0:
320,192,224501,1,0,0:0:0:0:
192,192,224501,1,0,0:0:0:0:
64,192,224501,128,0,224814:0:0:0:0:
320,192,224657,1,0,0:0:0:0:
192,192,224814,128,0,224970:0:0:0:0:
448,192,224814,1,0,0:0:0:0:
320,192,224970,128,0,225126:0:0:0:0:
192,192,225126,1,0,0:0:0:0:
64,192,225126,1,0,0:0:0:0:
448,192,225126,128,0,225282:0:0:0:0:
64,192,225282,128,0,225751:0:0:0:0:
320,192,225282,1,0,0:0:0:0:
448,192,225439,1,0,0:0:0:0:
320,192,225595,1,0,0:0:0:0:
192,192,225751,1,0,0:0:0:0:
320,192,225751,128,0,226064:0:0:0:0:
448,192,225751,1,0,0:0:0:0:
192,192,226064,128,0,226220:0:0:0:0:
64,192,226064,1,0,0:0:0:0:
448,192,226220,1,0,0:0:0:0:
64,192,226220,1,0,0:0:0:0:
320,192,226298,1,0,0:0:0:0:
448,192,226376,1,0,0:0:0:0:
192,192,226376,128,0,226532:0:0:0:0:
64,192,226376,1,0,0:0:0:0:
64,192,226532,1,0,0:0:0:0:
448,192,226532,1,0,0:0:0:0:
320,192,226689,1,0,0:0:0:0:
448,192,226689,128,0,227314:0:0:0:0:
64,192,226689,1,0,0:0:0:0:
192,192,227001,1,0,0:0:0:0:
192,192,227157,1,0,0:0:0:0:
64,192,227314,1,0,0:0:0:0:
192,192,227314,1,0,0:0:0:0:
320,192,227314,128,0,227939:0:0:0:0:
192,192,227548,1,0,0:0:0:0:
64,192,227626,1,0,0:0:0:0:
64,192,227782,1,0,0:0:0:0:
192,192,228095,1,0,0:0:0:0:
64,192,228095,1,0,0:0:0:0:
448,192,228095,1,0,0:0:0:0:
448,192,228251,1,0,0:0:0:0:
192,192,228251,1,0,0:0:0:0:
64,192,228251,1,0,0:0:0:0:
64,192,228407,1,0,0:0:0:0:
192,192,228407,1,0,0:0:0:0:
448,192,228407,1,0,0:0:0:0:
64,192,228564,1,0,0:0:0:0:
192,192,228564,1,0,0:0:0:0:
448,192,228564,1,0,0:0:0:0:
320,192,228876,1,0,0:0:0:0:
192,192,228876,1,0,0:0:0:0:
448,192,229189,1,0,0:0:0:0:
192,192,229189,1,0,0:0:0:0:
320,192,229189,1,0,0:0:0:0:
64,192,229293,1,0,0:0:0:0:
192,192,229397,1,0,0:0:0:0:
64,192,229501,1,0,0:0:0:0:
448,192,229501,1,0,0:0:0:0:
320,192,229501,1,0,0:0:0:0:
192,192,229605,1,0,0:0:0:0:
320,192,229709,1,0,0:0:0:0:
192,192,229814,1,0,0:0:0:0:
64,192,229814,1,0,0:0:0:0:
448,192,229814,1,0,0:0:0:0:
320,192,229918,1,0,0:0:0:0:
192,192,230022,1,0,0:0:0:0:
320,192,230126,1,0,0:0:0:0:
448,192,230126,1,0,0:0:0:0:
64,192,230126,1,0,0:0:0:0:
192,192,230230,1,0,0:0:0:0:
64,192,230334,1,0,0:0:0:0:
192,192,230439,1,0,0:0:0:0:
320,192,230439,1,0,0:0:0:0:
448,192,230439,1,0,0:0:0:0:
64,192,230543,1,0,0:0:0:0:
192,192,230647,1,0,0:0:0:0:
320,192,230751,1,0,0:0:0:0:
448,192,230751,1,0,0:0:0:0:
64,192,230751,1,0,0:0:0:0:
192,192,230855,1,0,0:0:0:0:
320,192,230959,1,0,0:0:0:0:
448,192,231064,1,0,0:0:0:0:
192,192,231064,1,0,0:0:0:0:
64,192,231064,1,0,0:0:0:0:
320,192,231168,1,0,0:0:0:0:
192,192,231272,1,0,0:0:0:0:
320,192,231376,1,0,0:0:0:0:
448,192,231376,1,0,0:0:0:0:
64,192,231376,1,0,0:0:0:0:
192,192,231480,1,0,0:0:0:0:
64,192,231584,1,0,0:0:0:0:
192,192,231689,1,0,0:0:0:0:
448,192,231689,1,0,0:0:0:0:
320,192,231689,1,0,0:0:0:0:
64,192,231793,1,0,0:0:0:0:
192,192,231897,1,0,0:0:0:0:
64,192,232001,1,0,0:0:0:0:
320,192,232001,1,0,0:0:0:0:
448,192,232001,1,0,0:0:0:0:
192,192,232105,1,0,0:0:0:0:
320,192,232209,1,0,0:0:0:0:
192,192,232314,1,0,0:0:0:0:
448,192,232314,1,0,0:0:0:0:
64,192,232314,1,0,0:0:0:0:
320,192,232418,1,0,0:0:0:0:
192,192,232522,1,0,0:0:0:0:
64,192,232626,1,0,0:0:0:0:
448,192,232626,1,0,0:0:0:0:
320,192,232626,1,0,0:0:0:0:
192,192,232730,1,0,0:0:0:0:
64,192,232834,1,0,0:0:0:0:
320,192,232939,1,0,0:0:0:0:
448,192,232939,1,0,0:0:0:0:
192,192,232939,1,0,0:0:0:0:
64,192,233043,1,0,0:0:0:0:
192,192,233147,1,0,0:0:0:0:
448,192,233251,1,0,0:0:0:0:
320,192,233251,1,0,0:0:0:0:
64,192,233251,1,0,0:0:0:0:
192,192,233355,1,0,0:0:0:0:
320,192,233459,1,0,0:0:0:0:
64,192,233564,1,0,0:0:0:0:
448,192,233564,1,0,0:0:0:0:
192,192,233564,1,0,0:0:0:0:
320,192,233668,1,0,0:0:0:0:
192,192,233772,1,0,0:0:0:0:
320,192,233876,1,0,0:0:0:0:
448,192,233876,1,0,0:0:0:0:
64,192,233876,1,0,0:0:0:0:
192,192,233980,1,0,0:0:0:0:
64,192,234084,1,0,0:0:0:0:
192,192,234189,1,0,0:0:0:0:
448,192,234189,1,0,0:0:0:0:
320,192,234189,1,0,0:0:0:0:
64,192,234293,1,0,0:0:0:0:
192,192,234397,1,0,0:0:0:0:
64,192,234501,1,0,0:0:0:0:
320,192,234501,1,0,0:0:0:0:
448,192,234501,1,0,0:0:0:0:
192,192,234605,1,0,0:0:0:0:
320,192,234709,1,0,0:0:0:0:
192,192,234814,1,0,0:0:0:0:
448,192,234814,1,0,0:0:0:0:
64,192,234814,1,0,0:0:0:0:
320,192,234918,1,0,0:0:0:0:
192,192,235022,1,0,0:0:0:0:
64,192,235126,1,0,0:0:0:0:
448,192,235126,1,0,0:0:0:0:
320,192,235126,1,0,0:0:0:0:
192,192,235230,1,0,0:0:0:0:
64,192,235334,1,0,0:0:0:0:
320,192,235439,1,0,0:0:0:0:
448,192,235439,1,0,0:0:0:0:
192,192,235439,1,0,0:0:0:0:
64,192,235543,1,0,0:0:0:0:
192,192,235647,1,0,0:0:0:0:
448,192,235751,1,0,0:0:0:0:
320,192,235751,1,0,0:0:0:0:
64,192,235751,1,0,0:0:0:0:
192,192,235855,1,0,0:0:0:0:
320,192,235959,1,0,0:0:0:0:
64,192,236064,1,0,0:0:0:0:
448,192,236064,1,0,0:0:0:0:
192,192,236064,1,0,0:0:0:0:
320,192,236168,1,0,0:0:0:0:
192,192,236272,1,0,0:0:0:0:
320,192,236376,1,0,0:0:0:0:
448,192,236376,1,0,0:0:0:0:
64,192,236376,1,0,0:0:0:0:
192,192,236480,1,0,0:0:0:0:
64,192,236584,1,0,0:0:0:0:
192,192,236689,1,0,0:0:0:0:
448,192,236689,1,0,0:0:0:0:
320,192,236689,1,0,0:0:0:0:
64,192,236793,1,0,0:0:0:0:
192,192,236897,1,0,0:0:0:0:
64,192,237001,1,0,0:0:0:0:
320,192,237001,1,0,0:0:0:0:
448,192,237001,1,0,0:0:0:0:
192,192,237105,1,0,0:0:0:0:
320,192,237209,1,0,0:0:0:0:
192,192,237314,1,0,0:0:0:0:
448,192,237314,1,0,0:0:0:0:
64,192,237314,1,0,0:0:0:0:
320,192,237418,1,0,0:0:0:0:
192,192,237522,1,0,0:0:0:0:
64,192,237626,1,0,0:0:0:0:
448,192,237626,1,0,0:0:0:0:
320,192,237626,1,0,0:0:0:0:
192,192,237730,1,0,0:0:0:0:
64,192,237834,1,0,0:0:0:0:
320,192,237939,1,0,0:0:0:0:
448,192,237939,1,0,0:0:0:0:
192,192,237939,1,0,0:0:0:0:
64,192,238043,1,0,0:0:0:0:
192,192,238147,1,0,0:0:0:0:
448,192,238251,1,0,0:0:0:0:
320,192,238251,1,0,0:0:0:0:
64,192,238251,1,0,0:0:0:0:
192,192,238355,1,0,0:0:0:0:
320,192,238459,1,0,0:0:0:0:
64,192,238564,1,0,0:0:0:0:
448,192,238564,1,0,0:0:0:0:
192,192,238564,1,0,0:0:0:0:
320,192,238668,1,0,0:0:0:0:
192,192,238772,1,0,0:0:0:0:
320,192,238876,1,0,0:0:0:0:
448,192,238876,1,0,0:0:0:0:
64,192,238876,1,0,0:0:0:0:
192,192,238980,1,0,0:0:0:0:
64,192,239084,1,0,0:0:0:0:
192,192,239189,1,0,0:0:0:0:
448,192,239189,1,0,0:0:0:0:
320,192,239189,1,0,0:0:0:0:
64,192,239293,1,0,0:0:0:0:
192,192,239397,1,0,0:0:0:0:
64,192,239501,1,0,0:0:0:0:
320,192,239501,1,0,0:0:0:0:
448,192,239501,1,0,0:0:0:0:
192,192,239605,1,0,0:0:0:0:
320,192,239709,1,0,0:0:0:0:
192,192,239814,1,0,0:0:0:0:
448,192,239814,1,0,0:0:0:0:
64,192,239814,1,0,0:0:0:0:
320,192,239918,1,0,0:0:0:0:
192,192,240022,1,0,0:0:0:0:
64,192,240126,1,0,0:0:0:0:
448,192,240126,1,0,0:0:0:0:
320,192,240126,1,0,0:0:0:0:
192,192,240230,1,0,0:0:0:0:
64,192,240334,1,0,0:0:0:0:
320,192,240439,1,0,0:0:0:0:
448,192,240439,1,0,0:0:0:0:
192,192,240439,1,0,0:0:0:0:
64,192,240543,1,0,0:0:0:0:
192,192,240647,1,0,0:0:0:0:
448,192,240751,1,0,0:0:0:0:
320,192,240751,1,0,0:0:0:0:
64,192,240751,1,0,0:0:0:0:
192,192,240855,1,0,0:0:0:0:
320,192,240959,1,0,0:0:0:0:
64,192,241064,1,0,0:0:0:0:
448,192,241064,1,0,0:0:0:0:
192,192,241064,1,0,0:0:0:0:
320,192,241168,1,0,0:0:0:0:
192,192,241272,1,0,0:0:0:0:
320,192,241376,1,0,0:0:0:0:
448,192,241376,1,0,0:0:0:0:
64,192,241376,1,0,0:0:0:0:
192,192,241480,1,0,0:0:0:0:
64,192,241584,1,0,0:0:0:0:
192,192,241689,1,0,0:0:0:0:
448,192,241689,1,0,0:0:0:0:
320,192,241689,1,0,0:0:0:0:
64,192,241793,1,0,0:0:0:0:
192,192,241897,1,0,0:0:0:0:
64,192,242001,1,0,0:0:0:0:
320,192,242001,1,0,0:0:0:0:
448,192,242001,1,0,0:0:0:0:
192,192,242105,1,0,0:0:0:0:
320,192,242209,1,0,0:0:0:0:
192,192,242314,1,0,0:0:0:0:
448,192,242314,1,0,0:0:0:0:
64,192,242314,1,0,0:0:0:0:
320,192,242418,1,0,0:0:0:0:
192,192,242522,1,0,0:0:0:0:
64,192,242626,1,0,0:0:0:0:
448,192,242626,1,0,0:0:0:0:
320,192,242626,1,0,0:0:0:0:
192,192,242730,1,0,0:0:0:0:
64,192,242834,1,0,0:0:0:0:
320,192,242939,1,0,0:0:0:0:
448,192,242939,1,0,0:0:0:0:
192,192,242939,1,0,0:0:0:0:
64,192,243043,1,0,0:0:0:0:
192,192,243147,1,0,0:0:0:0:
448,192,243251,1,0,0:0:0:0:
320,192,243251,1,0,0:0:0:0:
64,192,243251,1,0,0:0:0:0:
192,192,243355,1,0,0:0:0:0:
320,192,243459,1,0,0:0:0:0:
64,192,243564,1,0,0:0:0:0:
448,192,243564,1,0,0:0:0:0:
192,192,243564,1,0,0:0:0:0:
320,192,243668,1,0,0:0:0:0:
192,192,243772,1,0,0:0:0:0:
320,192,243876,1,0,0:0:0:0:
448,192,243876,1,0,0:0:0:0:
64,192,243876,1,0,0:0:0:0:
192,192,243980,1,0,0:0:0:0:
64,192,244084,1,0,0:0:0:0:
192,192,244189,1,0,0:0:0:0:
320,192,244189,1,0,0:0:0:0:
448,192,244189,1,0,0:0:0:0:
448,192,244501,1,0,0:0:0:0:
448,192,244814,1,0,0:0:0:0:
448,192,245126,1,0,0:0:0:0:
320,192,245439,1,0,0:0:0:0:
64,192,245439,1,0,0:0:0:0:
192,192,245439,1,0,0:0:0:0:
64,192,245751,1,0,0:0:0:0:
192,192,246064,1,0,0:0:0:0:
320,192,246064,1,0,0:0:0:0:
448,192,246064,1,0,0:0:0:0:
320,192,246376,1,0,0:0:0:0:
192,192,246376,1,0,0:0:0:0:
64,192,246689,1,0,0:0:0:0:
192,192,246689,1,0,0:0:0:0:
448,192,246689,1,0,0:0:0:0:
320,192,247001,1,0,0:0:0:0:
192,192,247001,1,0,0:0:0:0:
64,192,247157,1,0,0:0:0:0:
64,192,247314,1,0,0:0:0:0:
448,192,247314,1,0,0:0:0:0:
320,192,247470,1,0,0:0:0:0:
192,192,247470,1,0,0:0:0:0:
448,192,247626,1,0,0:0:0:0:
64,192,247626,1,0,0:0:0:0:
320,192,247626,1,0,0:0:0:0:
192,192,247782,1,0,0:0:0:0:
320,192,247782,1,0,0:0:0:0:
320,192,247939,1,0,0:0:0:0:
448,192,247939,1,0,0:0:0:0:
64,192,248036,1,0,0:0:0:0:
192,192,248036,1,0,0:0:0:0:
320,192,248153,1,0,0:0:0:0:
448,192,248153,1,0,0:0:0:0:
64,192,248251,1,0,0:0:0:0:
320,192,248329,1,0,0:0:0:0:
192,192,248407,1,0,0:0:0:0:
320,192,248564,1,0,0:0:0:0:
192,192,248603,1,0,0:0:0:0:
64,192,248642,1,0,0:0:0:0:
320,192,248720,1,0,0:0:0:0:
448,192,248720,1,0,0:0:0:0:
192,192,248798,1,0,0:0:0:0:
64,192,248798,1,0,0:0:0:0:
192,192,249032,1,0,0:0:0:0:
320,192,249032,1,0,0:0:0:0:
64,192,249189,1,0,0:0:0:0:
448,192,249189,1,0,0:0:0:0:
192,192,249241,1,0,0:0:0:0:
320,192,249293,1,0,0:0:0:0:
320,192,249814,1,0,0:0:0:0:
448,192,249814,1,0,0:0:0:0:
192,192,249814,128,0,249970:0:0:0:0:
64,192,249814,128,0,249970:0:0:0:0:
320,192,249970,1,0,0:0:0:0:
448,192,249970,1,0,0:0:0:0:
192,192,250048,1,0,0:0:0:0:
64,192,250048,1,0,0:0:0:0:
448,192,250126,1,0,0:0:0:0:
320,192,250165,1,0,0:0:0:0:
192,192,250204,1,0,0:0:0:0:
64,192,250243,1,0,0:0:0:0:
448,192,250282,1,0,0:0:0:0:
320,192,250321,1,0,0:0:0:0:
192,192,250360,1,0,0:0:0:0:
64,192,250399,1,0,0:0:0:0:
320,192,250439,1,0,0:0:0:0:
448,192,250439,1,0,0:0:0:0:
192,192,250439,1,0,0:0:0:0:
192,192,250595,1,0,0:0:0:0:
64,192,250673,1,0,0:0:0:0:
192,192,250751,1,0,0:0:0:0:
448,192,250751,1,0,0:0:0:0:
320,192,250751,1,0,0:0:0:0:
64,192,250907,1,0,0:0:0:0:
192,192,250985,1,0,0:0:0:0:
448,192,251064,1,0,0:0:0:0:
320,192,251064,1,0,0:0:0:0:
64,192,251064,1,0,0:0:0:0:
192,192,251142,1,0,0:0:0:0:
320,192,251220,1,0,0:0:0:0:
448,192,251298,1,0,0:0:0:0:
192,192,251298,1,0,0:0:0:0:
64,192,251376,1,0,0:0:0:0:
320,192,251376,1,0,0:0:0:0:
320,192,251532,1,0,0:0:0:0:
192,192,251532,1,0,0:0:0:0:
448,192,251610,1,0,0:0:0:0:
192,192,251689,1,0,0:0:0:0:
64,192,251689,1,0,0:0:0:0:
320,192,251845,1,0,0:0:0:0:
448,192,251923,1,0,0:0:0:0:
64,192,252001,1,0,0:0:0:0:
192,192,252001,1,0,0:0:0:0:
320,192,252001,1,0,0:0:0:0:
448,192,252157,1,0,0:0:0:0:
320,192,252235,1,0,0:0:0:0:
448,192,252314,1,0,0:0:0:0:
64,192,252314,1,0,0:0:0:0:
192,192,252314,1,0,0:0:0:0:
320,192,252392,1,0,0:0:0:0:
64,192,252470,1,0,0:0:0:0:
192,192,252548,1,0,0:0:0:0:
320,192,252548,1,0,0:0:0:0:
448,192,252626,1,0,0:0:0:0:
64,192,252626,1,0,0:0:0:0:
320,192,252782,1,0,0:0:0:0:
448,192,252782,1,0,0:0:0:0:
192,192,252860,1,0,0:0:0:0:
64,192,252939,1,0,0:0:0:0:
320,192,252939,1,0,0:0:0:0:
192,192,253095,1,0,0:0:0:0:
320,192,253173,1,0,0:0:0:0:
448,192,253251,1,0,0:0:0:0:
64,192,253251,1,0,0:0:0:0:
192,192,253251,1,0,0:0:0:0:
320,192,253329,1,0,0:0:0:0:
448,192,253407,1,0,0:0:0:0:
192,192,253407,1,0,0:0:0:0:
320,192,253485,1,0,0:0:0:0:
192,192,253564,1,0,0:0:0:0:
448,192,253564,1,0,0:0:0:0:
64,192,253642,1,0,0:0:0:0:
192,192,253720,1,0,0:0:0:0:
320,192,253798,1,0,0:0:0:0:
448,192,253876,1,0,0:0:0:0:
64,192,253876,1,0,0:0:0:0:
192,192,253876,1,0,0:0:0:0:
320,192,253954,1,0,0:0:0:0:
192,192,254032,1,0,0:0:0:0:
64,192,254110,1,0,0:0:0:0:
192,192,254189,1,0,0:0:0:0:
320,192,254189,1,0,0:0:0:0:
448,192,254189,1,0,0:0:0:0:
448,192,254345,1,0,0:0:0:0:
320,192,254423,1,0,0:0:0:0:
64,192,254501,1,0,0:0:0:0:
448,192,254501,1,0,0:0:0:0:
192,192,254501,1,0,0:0:0:0:
320,192,254657,1,0,0:0:0:0:
192,192,254735,1,0,0:0:0:0:
64,192,254814,1,0,0:0:0:0:
320,192,254814,1,0,0:0:0:0:
448,192,254814,1,0,0:0:0:0:
192,192,254892,1,0,0:0:0:0:
448,192,254970,1,0,0:0:0:0:
320,192,255048,1,0,0:0:0:0:
64,192,255048,1,0,0:0:0:0:
192,192,255126,1,0,0:0:0:0:
448,192,255126,1,0,0:0:0:0:
320,192,255282,1,0,0:0:0:0:
192,192,255282,1,0,0:0:0:0:
64,192,255360,1,0,0:0:0:0:
448,192,255439,1,0,0:0:0:0:
320,192,255439,1,0,0:0:0:0:
192,192,255595,1,0,0:0:0:0:
64,192,255673,1,0,0:0:0:0:
448,192,255751,1,0,0:0:0:0:
192,192,255751,1,0,0:0:0:0:
320,192,255751,1,0,0:0:0:0:
448,192,255907,1,0,0:0:0:0:
