osu file format v14

[General]
AudioFilename: audio.mp3
AudioLeadIn: 0
PreviewTime: 27943
Countdown: 0
SampleSet: Normal
StackLeniency: 0.7
Mode: 3
LetterboxInBreaks: 0
SpecialStyle: 0
WidescreenStoryboard: 1

[Editor]
Bookmarks: 27943,69086,89657,117086,151372
DistanceSpacing: 0.9
BeatDivisor: 4
GridSize: 8
TimelineZoom: 2.3

[Metadata]
Title:migikata no chou
TitleUnicode:右肩の蝶
Artist:Kagamine Len
ArtistUnicode:鏡音レン
Creator:paperlens
Version:7k
Source:
Tags:vocaloid のりP noriP 水野悠良 kagamine len Butterfly
BeatmapID:1031411
BeatmapSetID:483408

[Difficulty]
HPDrainRate:8
CircleSize:7
OverallDifficulty:8
ApproachRate:5
SliderMultiplier:1.4
SliderTickRate:1

[Events]
//Background and Video events
0,0,"4137793_p0.jpg",0,0
//Break Periods
//Storyboard Layer 0 (Background)
//Storyboard Layer 1 (Fail)
//Storyboard Layer 2 (Pass)
//Storyboard Layer 3 (Foreground)
//Storyboard Layer 4 (Overlay)
//Storyboard Sound Samples

[TimingPoints]
12515,428.571428571429,4,1,0,0,1,0
27943,-100,4,1,0,0,0,1
41657,-100,4,1,0,0,0,0
74229,-166.666666666667,4,1,0,0,0,0
74336,-76.9230769230769,4,1,0,0,0,0
74443,-166.666666666667,4,1,0,0,0,0
74550,-76.9230769230769,4,1,0,0,0,0
74657,-166.666666666667,4,1,0,0,0,0
74765,-76.9230769230769,4,1,0,0,0,0
74872,-166.666666666667,4,1,0,0,0,0
74979,-76.9230769230769,4,1,0,0,0,0
75086,-100,4,1,0,0,0,0
75943,-100,4,1,0,0,0,1
89657,-100,4,1,0,0,0,0
95657,-166.666666666667,4,1,0,0,0,0
95765,-76.9230769230769,4,1,0,0,0,0
95872,-166.666666666667,4,1,0,0,0,0
95979,-76.9230769230769,4,1,0,0,0,0
96086,-166.666666666667,4,1,0,0,0,0
96193,-76.9230769230769,4,1,0,0,0,0
96300,-166.666666666667,4,1,0,0,0,0
96407,-76.9230769230769,4,1,0,0,0,0
96515,-100,4,1,0,0,0,0
149657,-166.666666666667,4,1,0,0,0,0
149765,-76.9230769230769,4,1,0,0,0,0
149872,-166.666666666667,4,1,0,0,0,0
149979,-76.9230769230769,4,1,0,0,0,0
150086,-166.666666666667,4,1,0,0,0,0
150193,-76.9230769230769,4,1,0,0,0,0
150300,-166.666666666667,4,1,0,0,0,0
150407,-76.9230769230769,4,1,0,0,0,0
150515,-100,4,1,0,0,0,0
165086,-100,4,1,0,0,0,1
178800,-100,4,1,0,0,0,0
206229,-133.333333333333,4,1,0,0,0,0
206336,-76.9230769230769,4,1,0,0,0,0
206550,-133.333333333333,4,1,0,0,0,0
206657,-76.9230769230769,4,1,0,0,0,0
206872,-100,4,1,0,0,0,0
219515,-200,4,1,0,0,0,0
220479,-62.5,4,1,0,0,0,0
220586,-200,4,1,0,0,0,0
220693,-62.5,4,1,0,0,0,0
220800,-100,4,1,0,0,0,0
221229,-100,4,1,0,0,0,1
260657,-100,4,1,0,0,0,0

[HitObjects]
475,192,13372,5,0,0:0:0:0:
182,192,13372,1,0,0:0:0:0:
475,192,13693,1,0,0:0:0:0:
182,192,13693,1,0,0:0:0:0:
475,192,14014,1,0,0:0:0:0:
182,192,14014,1,0,0:0:0:0:
329,192,14086,1,0,0:0:0:0:
475,192,14157,1,0,0:0:0:0:
182,192,14229,1,0,0:0:0:0:
36,192,14229,1,0,0:0:0:0:
329,192,14229,1,0,0:0:0:0:
256,192,14443,1,0,0:0:0:0:
109,192,14443,1,0,0:0:0:0:
402,192,14550,1,0,0:0:0:0:
475,192,14657,1,0,0:0:0:0:
329,192,14657,1,0,0:0:0:0:
182,192,14657,1,0,0:0:0:0:
36,192,14764,1,0,0:0:0:0:
402,192,14872,1,0,0:0:0:0:
182,192,14979,1,0,0:0:0:0:
329,192,15086,1,0,0:0:0:0:
109,192,15086,1,0,0:0:0:0:
256,192,15300,1,0,0:0:0:0:
109,192,15300,1,0,0:0:0:0:
475,192,15514,1,0,0:0:0:0:
182,192,15514,1,0,0:0:0:0:
36,192,15514,1,0,0:0:0:0:
329,192,15622,1,0,0:0:0:0:
475,192,15729,1,0,0:0:0:0:
182,192,15729,1,0,0:0:0:0:
109,192,15943,1,0,0:0:0:0:
402,192,15943,1,0,0:0:0:0:
329,192,16050,1,0,0:0:0:0:
402,192,16157,1,0,0:0:0:0:
182,192,16157,1,0,0:0:0:0:
256,192,16264,1,0,0:0:0:0:
36,192,16372,1,0,0:0:0:0:
329,192,16372,1,0,0:0:0:0:
475,192,16372,1,0,0:0:0:0:
109,192,16586,1,0,0:0:0:0:
182,192,16693,1,0,0:0:0:0:
402,192,16693,1,0,0:0:0:0:
329,192,16800,1,0,0:0:0:0:
109,192,16800,1,0,0:0:0:0:
109,192,17014,1,0,0:0:0:0:
256,192,17014,1,0,0:0:0:0:
182,192,17229,1,0,0:0:0:0:
36,192,17229,1,0,0:0:0:0:
475,192,17229,1,0,0:0:0:0:
329,192,17336,1,0,0:0:0:0:
475,192,17443,1,0,0:0:0:0:
182,192,17443,1,0,0:0:0:0:
256,192,17657,1,0,0:0:0:0:
36,192,17657,1,0,0:0:0:0:
402,192,17765,1,0,0:0:0:0:
109,192,17872,1,0,0:0:0:0:
329,192,17872,1,0,0:0:0:0:
475,192,17979,1,0,0:0:0:0:
182,192,18086,1,0,0:0:0:0:
402,192,18086,1,0,0:0:0:0:
36,192,18086,1,0,0:0:0:0:
329,192,18193,1,0,0:0:0:0:
109,192,18300,1,0,0:0:0:0:
329,192,18407,1,0,0:0:0:0:
475,192,18515,1,0,0:0:0:0:
256,192,18515,1,0,0:0:0:0:
36,192,18515,1,0,0:0:0:0:
182,192,18729,1,0,0:0:0:0:
36,192,18729,1,0,0:0:0:0:
475,192,18836,1,0,0:0:0:0:
402,192,18943,1,0,0:0:0:0:
256,192,18943,1,0,0:0:0:0:
109,192,18943,1,0,0:0:0:0:
182,192,19157,1,0,0:0:0:0:
475,192,19157,1,0,0:0:0:0:
402,192,19229,1,0,0:0:0:0:
329,192,19300,1,0,0:0:0:0:
475,192,19372,1,0,0:0:0:0:
256,192,19372,1,0,0:0:0:0:
36,192,19372,1,0,0:0:0:0:
329,192,19479,1,0,0:0:0:0:
109,192,19479,1,0,0:0:0:0:
475,192,19586,1,0,0:0:0:0:
182,192,19586,1,0,0:0:0:0:
402,192,19657,1,0,0:0:0:0:
109,192,19693,1,0,0:0:0:0:
329,192,19729,1,0,0:0:0:0:
475,192,19800,1,0,0:0:0:0:
36,192,19800,1,0,0:0:0:0:
256,192,19800,1,0,0:0:0:0:
329,192,19907,1,0,0:0:0:0:
182,192,19907,1,0,0:0:0:0:
475,192,20015,1,0,0:0:0:0:
329,192,20122,1,0,0:0:0:0:
36,192,20122,1,0,0:0:0:0:
475,192,20229,1,0,0:0:0:0:
109,192,20229,1,0,0:0:0:0:
256,192,20229,1,0,0:0:0:0:
329,192,20336,1,0,0:0:0:0:
475,192,20443,1,0,0:0:0:0:
182,192,20443,1,0,0:0:0:0:
329,192,20550,1,0,0:0:0:0:
109,192,20550,1,0,0:0:0:0:
475,192,20657,1,0,0:0:0:0:
256,192,20657,1,0,0:0:0:0:
36,192,20657,1,0,0:0:0:0:
329,192,20765,1,0,0:0:0:0:
182,192,20765,1,0,0:0:0:0:
475,192,20872,1,0,0:0:0:0:
109,192,20872,1,0,0:0:0:0:
475,192,21086,1,0,0:0:0:0:
256,192,21086,1,0,0:0:0:0:
182,192,21086,1,0,0:0:0:0:
36,192,21086,1,0,0:0:0:0:
402,192,21140,1,0,0:0:0:0:
329,192,21193,1,0,0:0:0:0:
402,192,21247,1,0,0:0:0:0:
475,192,21300,1,0,0:0:0:0:
182,192,21300,1,0,0:0:0:0:
109,192,21300,1,0,0:0:0:0:
329,192,21407,1,0,0:0:0:0:
36,192,21407,1,0,0:0:0:0:
475,192,21515,1,0,0:0:0:0:
256,192,21515,1,0,0:0:0:0:
109,192,21515,1,0,0:0:0:0:
402,192,21568,1,0,0:0:0:0:
182,192,21622,1,0,0:0:0:0:
329,192,21622,1,0,0:0:0:0:
402,192,21675,1,0,0:0:0:0:
475,192,21729,1,0,0:0:0:0:
109,192,21729,1,0,0:0:0:0:
329,192,21836,1,0,0:0:0:0:
36,192,21836,1,0,0:0:0:0:
475,192,21943,1,0,0:0:0:0:
109,192,21943,1,0,0:0:0:0:
256,192,21943,1,0,0:0:0:0:
402,192,21997,1,0,0:0:0:0:
329,192,22050,1,0,0:0:0:0:
402,192,22104,1,0,0:0:0:0:
475,192,22157,1,0,0:0:0:0:
36,192,22157,1,0,0:0:0:0:
329,192,22265,1,0,0:0:0:0:
109,192,22265,1,0,0:0:0:0:
475,192,22372,1,0,0:0:0:0:
182,192,22372,1,0,0:0:0:0:
256,192,22372,1,0,0:0:0:0:
329,192,22479,1,0,0:0:0:0:
36,192,22479,1,0,0:0:0:0:
475,192,22586,1,0,0:0:0:0:
109,192,22586,1,0,0:0:0:0:
402,192,22640,1,0,0:0:0:0:
329,192,22693,1,0,0:0:0:0:
256,192,22747,1,0,0:0:0:0:
475,192,22800,1,0,0:0:0:0:
182,192,22800,1,0,0:0:0:0:
402,192,22854,1,0,0:0:0:0:
329,192,22907,1,0,0:0:0:0:
109,192,22907,1,0,0:0:0:0:
256,192,22961,1,0,0:0:0:0:
36,192,23015,1,0,0:0:0:0:
475,192,23015,1,0,0:0:0:0:
402,192,23068,1,0,0:0:0:0:
329,192,23122,1,0,0:0:0:0:
109,192,23122,1,0,0:0:0:0:
256,192,23175,1,0,0:0:0:0:
475,192,23229,1,0,0:0:0:0:
182,192,23229,1,0,0:0:0:0:
109,192,23282,1,0,0:0:0:0:
36,192,23336,1,0,0:0:0:0:
402,192,23336,1,0,0:0:0:0:
329,192,23443,1,0,0:0:0:0:
256,192,23497,1,0,0:0:0:0:
182,192,23550,1,0,0:0:0:0:
475,192,23550,1,0,0:0:0:0:
109,192,23604,1,0,0:0:0:0:
36,192,23657,1,0,0:0:0:0:
402,192,23657,1,0,0:0:0:0:
329,192,23711,1,0,0:0:0:0:
256,192,23765,1,0,0:0:0:0:
182,192,23818,1,0,0:0:0:0:
109,192,23872,1,0,0:0:0:0:
475,192,23872,1,0,0:0:0:0:
36,192,23872,1,0,0:0:0:0:
402,192,23925,1,0,0:0:0:0:
329,192,23979,1,0,0:0:0:0:
109,192,23979,1,0,0:0:0:0:
256,192,24032,1,0,0:0:0:0:
182,192,24086,1,0,0:0:0:0:
475,192,24086,1,0,0:0:0:0:
36,192,24086,1,0,0:0:0:0:
402,192,24140,1,0,0:0:0:0:
329,192,24193,1,0,0:0:0:0:
109,192,24193,1,0,0:0:0:0:
256,192,24247,1,0,0:0:0:0:
475,192,24300,1,0,0:0:0:0:
182,192,24300,1,0,0:0:0:0:
329,192,24407,1,0,0:0:0:0:
36,192,24515,1,0,0:0:0:0:
182,192,24515,1,0,0:0:0:0:
402,192,24515,1,0,0:0:0:0:
182,192,24622,1,0,0:0:0:0:
109,192,24729,1,0,0:0:0:0:
256,192,24729,1,0,0:0:0:0:
475,192,24729,1,0,0:0:0:0:
329,192,24836,1,0,0:0:0:0:
182,192,24836,1,0,0:0:0:0:
36,192,24943,1,0,0:0:0:0:
109,192,24943,1,0,0:0:0:0:
402,192,24943,1,0,0:0:0:0:
475,192,24943,1,0,0:0:0:0:
329,192,25050,1,0,0:0:0:0:
256,192,25050,1,0,0:0:0:0:
182,192,25157,1,0,0:0:0:0:
329,192,25265,1,0,0:0:0:0:
475,192,25372,1,0,0:0:0:0:
256,192,25372,1,0,0:0:0:0:
109,192,25372,1,0,0:0:0:0:
182,192,25479,1,0,0:0:0:0:
475,192,25479,1,0,0:0:0:0:
329,192,25586,1,0,0:0:0:0:
36,192,25586,1,0,0:0:0:0:
256,192,25693,1,0,0:0:0:0:
109,192,25693,1,0,0:0:0:0:
182,192,25800,1,0,0:0:0:0:
36,192,25800,1,0,0:0:0:0:
329,192,25800,1,0,0:0:0:0:
475,192,25800,1,0,0:0:0:0:
402,192,25907,1,0,0:0:0:0:
256,192,26015,1,0,0:0:0:0:
109,192,26015,1,0,0:0:0:0:
475,192,26122,1,0,0:0:0:0:
329,192,26229,1,0,0:0:0:0:
182,192,26229,1,0,0:0:0:0:
36,192,26229,1,0,0:0:0:0:
402,192,26336,1,0,0:0:0:0:
109,192,26443,1,0,0:0:0:0:
256,192,26443,1,0,0:0:0:0:
475,192,26550,1,0,0:0:0:0:
329,192,26657,1,0,0:0:0:0:
182,192,26657,1,0,0:0:0:0:
402,192,26657,1,0,0:0:0:0:
109,192,26657,1,0,0:0:0:0:
36,192,26765,1,0,0:0:0:0:
329,192,26765,1,0,0:0:0:0:
256,192,26872,1,0,0:0:0:0:
402,192,26872,1,0,0:0:0:0:
109,192,26979,1,0,0:0:0:0:
182,192,26979,1,0,0:0:0:0:
475,192,27086,1,0,0:0:0:0:
329,192,27086,1,0,0:0:0:0:
329,192,27193,1,0,0:0:0:0:
36,192,27193,1,0,0:0:0:0:
109,192,27300,1,0,0:0:0:0:
256,192,27300,1,0,0:0:0:0:
109,192,27407,1,0,0:0:0:0:
402,192,27407,1,0,0:0:0:0:
329,192,27515,1,0,0:0:0:0:
182,192,27515,1,0,0:0:0:0:
36,192,27515,128,0,27943:0:0:0:0:
475,192,27515,128,0,27943:0:0:0:0:
182,192,27729,128,0,27943:0:0:0:0:
329,192,27729,128,0,27943:0:0:0:0:
402,192,27943,1,0,0:0:0:0:
256,192,27943,1,0,0:0:0:0:
109,192,27943,1,0,0:0:0:0:
329,192,28050,1,0,0:0:0:0:
109,192,28050,1,0,0:0:0:0:
182,192,28157,1,0,0:0:0:0:
475,192,28265,1,0,0:0:0:0:
256,192,28265,1,0,0:0:0:0:
329,192,28372,1,0,0:0:0:0:
182,192,28372,1,0,0:0:0:0:
36,192,28372,1,0,0:0:0:0:
402,192,28586,1,0,0:0:0:0:
36,192,28586,1,0,0:0:0:0:
256,192,28693,1,0,0:0:0:0:
402,192,28800,1,0,0:0:0:0:
329,192,28800,1,0,0:0:0:0:
109,192,28800,1,0,0:0:0:0:
182,192,28907,1,0,0:0:0:0:
329,192,29015,1,0,0:0:0:0:
36,192,29015,1,0,0:0:0:0:
402,192,29015,1,0,0:0:0:0:
182,192,29122,1,0,0:0:0:0:
329,192,29229,1,0,0:0:0:0:
402,192,29229,1,0,0:0:0:0:
36,192,29229,1,0,0:0:0:0:
109,192,29229,1,0,0:0:0:0:
402,192,29443,1,0,0:0:0:0:
109,192,29443,1,0,0:0:0:0:
256,192,29550,1,0,0:0:0:0:
329,192,29657,1,0,0:0:0:0:
475,192,29657,1,0,0:0:0:0:
36,192,29657,1,0,0:0:0:0:
109,192,29765,1,0,0:0:0:0:
329,192,29765,1,0,0:0:0:0:
402,192,29872,1,0,0:0:0:0:
475,192,29979,1,0,0:0:0:0:
256,192,29979,1,0,0:0:0:0:
182,192,30086,1,0,0:0:0:0:
36,192,30086,1,0,0:0:0:0:
329,192,30086,1,0,0:0:0:0:
329,192,30300,1,0,0:0:0:0:
109,192,30300,1,0,0:0:0:0:
256,192,30407,1,0,0:0:0:0:
109,192,30515,1,0,0:0:0:0:
329,192,30515,1,0,0:0:0:0:
475,192,30515,1,0,0:0:0:0:
182,192,30622,1,0,0:0:0:0:
329,192,30729,1,0,0:0:0:0:
475,192,30729,1,0,0:0:0:0:
109,192,30729,1,0,0:0:0:0:
182,192,30836,1,0,0:0:0:0:
329,192,30943,1,0,0:0:0:0:
36,192,30943,1,0,0:0:0:0:
402,192,30943,1,0,0:0:0:0:
109,192,30943,1,0,0:0:0:0:
182,192,31050,1,0,0:0:0:0:
402,192,31157,1,0,0:0:0:0:
256,192,31157,1,0,0:0:0:0:
182,192,31265,1,0,0:0:0:0:
329,192,31372,1,0,0:0:0:0:
475,192,31372,1,0,0:0:0:0:
36,192,31372,1,0,0:0:0:0:
329,192,31479,1,0,0:0:0:0:
182,192,31479,1,0,0:0:0:0:
109,192,31586,1,0,0:0:0:0:
475,192,31693,1,0,0:0:0:0:
256,192,31693,1,0,0:0:0:0:
36,192,31800,1,0,0:0:0:0:
329,192,31800,1,0,0:0:0:0:
182,192,31800,1,0,0:0:0:0:
182,192,32015,1,0,0:0:0:0:
402,192,32015,1,0,0:0:0:0:
256,192,32122,1,0,0:0:0:0:
329,192,32229,1,0,0:0:0:0:
402,192,32229,1,0,0:0:0:0:
109,192,32229,1,0,0:0:0:0:
182,192,32336,1,0,0:0:0:0:
402,192,32443,1,0,0:0:0:0:
329,192,32443,1,0,0:0:0:0:
36,192,32443,1,0,0:0:0:0:
182,192,32550,1,0,0:0:0:0:
109,192,32657,1,0,0:0:0:0:
402,192,32657,1,0,0:0:0:0:
36,192,32657,1,0,0:0:0:0:
329,192,32657,1,0,0:0:0:0:
182,192,32765,1,0,0:0:0:0:
256,192,32872,1,0,0:0:0:0:
402,192,32872,1,0,0:0:0:0:
475,192,33086,1,0,0:0:0:0:
36,192,33086,1,0,0:0:0:0:
329,192,33086,1,0,0:0:0:0:
109,192,33086,1,0,0:0:0:0:
182,192,33193,1,0,0:0:0:0:
402,192,33300,1,0,0:0:0:0:
36,192,33300,1,0,0:0:0:0:
256,192,33407,1,0,0:0:0:0:
182,192,33515,1,0,0:0:0:0:
36,192,33515,1,0,0:0:0:0:
475,192,33515,1,0,0:0:0:0:
402,192,33515,1,0,0:0:0:0:
329,192,33622,1,0,0:0:0:0:
109,192,33729,1,0,0:0:0:0:
402,192,33729,1,0,0:0:0:0:
256,192,33836,1,0,0:0:0:0:
402,192,33943,1,0,0:0:0:0:
109,192,33943,1,0,0:0:0:0:
329,192,33943,1,0,0:0:0:0:
182,192,33943,1,0,0:0:0:0:
36,192,34157,1,0,0:0:0:0:
329,192,34157,1,0,0:0:0:0:
475,192,34265,1,0,0:0:0:0:
402,192,34372,1,0,0:0:0:0:
109,192,34372,1,0,0:0:0:0:
256,192,34372,1,0,0:0:0:0:
329,192,34479,1,0,0:0:0:0:
36,192,34586,1,0,0:0:0:0:
182,192,34586,1,0,0:0:0:0:
329,192,34693,1,0,0:0:0:0:
109,192,34800,1,0,0:0:0:0:
256,192,34800,1,0,0:0:0:0:
402,192,34800,1,0,0:0:0:0:
475,192,34800,1,0,0:0:0:0:
109,192,34907,1,0,0:0:0:0:
329,192,34907,1,0,0:0:0:0:
182,192,35015,1,0,0:0:0:0:
256,192,35122,1,0,0:0:0:0:
475,192,35122,1,0,0:0:0:0:
36,192,35229,1,0,0:0:0:0:
182,192,35229,1,0,0:0:0:0:
329,192,35229,1,0,0:0:0:0:
402,192,35336,1,0,0:0:0:0:
329,192,35443,1,0,0:0:0:0:
109,192,35443,1,0,0:0:0:0:
256,192,35550,1,0,0:0:0:0:
329,192,35657,1,0,0:0:0:0:
109,192,35657,1,0,0:0:0:0:
402,192,35657,1,0,0:0:0:0:
182,192,35765,1,0,0:0:0:0:
329,192,35872,1,0,0:0:0:0:
36,192,35872,1,0,0:0:0:0:
402,192,35872,1,0,0:0:0:0:
182,192,35979,1,0,0:0:0:0:
402,192,36086,1,0,0:0:0:0:
36,192,36086,1,0,0:0:0:0:
329,192,36086,1,0,0:0:0:0:
109,192,36086,1,0,0:0:0:0:
109,192,36300,1,0,0:0:0:0:
402,192,36300,1,0,0:0:0:0:
256,192,36407,1,0,0:0:0:0:
329,192,36515,1,0,0:0:0:0:
475,192,36515,1,0,0:0:0:0:
36,192,36515,1,0,0:0:0:0:
109,192,36622,1,0,0:0:0:0:
329,192,36622,1,0,0:0:0:0:
402,192,36729,1,0,0:0:0:0:
256,192,36836,1,0,0:0:0:0:
475,192,36836,1,0,0:0:0:0:
36,192,36943,1,0,0:0:0:0:
182,192,36943,1,0,0:0:0:0:
329,192,36943,1,0,0:0:0:0:
402,192,37050,1,0,0:0:0:0:
256,192,37157,1,0,0:0:0:0:
109,192,37157,1,0,0:0:0:0:
182,192,37265,1,0,0:0:0:0:
475,192,37372,1,0,0:0:0:0:
329,192,37372,1,0,0:0:0:0:
109,192,37372,1,0,0:0:0:0:
182,192,37479,1,0,0:0:0:0:
475,192,37586,1,0,0:0:0:0:
36,192,37586,1,0,0:0:0:0:
329,192,37586,1,0,0:0:0:0:
182,192,37693,1,0,0:0:0:0:
36,192,37800,1,0,0:0:0:0:
329,192,37800,1,0,0:0:0:0:
402,192,37800,1,0,0:0:0:0:
182,192,37907,1,0,0:0:0:0:
329,192,38015,1,0,0:0:0:0:
109,192,38015,1,0,0:0:0:0:
182,192,38122,1,0,0:0:0:0:
475,192,38229,1,0,0:0:0:0:
329,192,38229,1,0,0:0:0:0:
36,192,38229,1,0,0:0:0:0:
329,192,38336,1,0,0:0:0:0:
182,192,38336,1,0,0:0:0:0:
109,192,38443,1,0,0:0:0:0:
402,192,38550,1,0,0:0:0:0:
256,192,38550,1,0,0:0:0:0:
36,192,38657,1,0,0:0:0:0:
182,192,38657,1,0,0:0:0:0:
329,192,38657,1,0,0:0:0:0:
402,192,38765,1,0,0:0:0:0:
329,192,38872,1,0,0:0:0:0:
36,192,38872,1,0,0:0:0:0:
256,192,38979,1,0,0:0:0:0:
475,192,39086,1,0,0:0:0:0:
329,192,39086,1,0,0:0:0:0:
109,192,39086,1,0,0:0:0:0:
182,192,39193,1,0,0:0:0:0:
36,192,39300,1,0,0:0:0:0:
475,192,39300,1,0,0:0:0:0:
329,192,39300,1,0,0:0:0:0:
182,192,39407,1,0,0:0:0:0:
36,192,39515,1,0,0:0:0:0:
109,192,39515,1,0,0:0:0:0:
475,192,39515,1,0,0:0:0:0:
329,192,39515,1,0,0:0:0:0:
402,192,39729,1,0,0:0:0:0:
109,192,39729,1,0,0:0:0:0:
256,192,39836,1,0,0:0:0:0:
329,192,39943,1,0,0:0:0:0:
475,192,39943,1,0,0:0:0:0:
109,192,39943,1,0,0:0:0:0:
329,192,40050,1,0,0:0:0:0:
36,192,40050,1,0,0:0:0:0:
402,192,40157,1,0,0:0:0:0:
182,192,40157,1,0,0:0:0:0:
109,192,40265,1,0,0:0:0:0:
475,192,40372,1,0,0:0:0:0:
256,192,40372,1,0,0:0:0:0:
36,192,40372,1,0,0:0:0:0:
402,192,40586,1,0,0:0:0:0:
36,192,40586,1,0,0:0:0:0:
182,192,40586,1,0,0:0:0:0:
256,192,40693,1,0,0:0:0:0:
109,192,40800,1,0,0:0:0:0:
475,192,40800,1,0,0:0:0:0:
329,192,40800,1,0,0:0:0:0:
475,192,41015,1,0,0:0:0:0:
109,192,41015,1,0,0:0:0:0:
329,192,41015,1,0,0:0:0:0:
182,192,41122,1,0,0:0:0:0:
329,192,41229,1,0,0:0:0:0:
36,192,41229,1,0,0:0:0:0:
475,192,41229,1,0,0:0:0:0:
402,192,41443,1,0,0:0:0:0:
256,192,41443,1,0,0:0:0:0:
109,192,41443,1,0,0:0:0:0:
36,192,41657,1,0,0:0:0:0:
182,192,41657,1,0,0:0:0:0:
329,192,41657,1,0,0:0:0:0:
475,192,41657,1,0,0:0:0:0:
109,192,41872,1,0,0:0:0:0:
36,192,41979,1,0,0:0:0:0:
329,192,42086,1,0,0:0:0:0:
475,192,42086,1,0,0:0:0:0:
475,192,42300,1,0,0:0:0:0:
329,192,42300,1,0,0:0:0:0:
109,192,42300,1,0,0:0:0:0:
182,192,42407,1,0,0:0:0:0:
329,192,42515,1,0,0:0:0:0:
402,192,42515,1,0,0:0:0:0:
182,192,42622,1,0,0:0:0:0:
36,192,42729,1,0,0:0:0:0:
329,192,42729,1,0,0:0:0:0:
402,192,42836,1,0,0:0:0:0:
329,192,42943,1,0,0:0:0:0:
109,192,42943,1,0,0:0:0:0:
329,192,43157,1,0,0:0:0:0:
109,192,43157,1,0,0:0:0:0:
182,192,43265,1,0,0:0:0:0:
329,192,43372,1,0,0:0:0:0:
475,192,43372,1,0,0:0:0:0:
36,192,43372,1,0,0:0:0:0:
402,192,43372,1,0,0:0:0:0:
182,192,43586,1,0,0:0:0:0:
109,192,43693,1,0,0:0:0:0:
329,192,43693,1,0,0:0:0:0:
475,192,43800,1,0,0:0:0:0:
256,192,43800,1,0,0:0:0:0:
329,192,44015,1,0,0:0:0:0:
475,192,44015,1,0,0:0:0:0:
109,192,44015,1,0,0:0:0:0:
182,192,44122,1,0,0:0:0:0:
329,192,44229,1,0,0:0:0:0:
475,192,44229,1,0,0:0:0:0:
109,192,44336,1,0,0:0:0:0:
182,192,44443,1,0,0:0:0:0:
402,192,44443,1,0,0:0:0:0:
329,192,44657,1,0,0:0:0:0:
36,192,44657,1,0,0:0:0:0:
182,192,44657,1,0,0:0:0:0:
109,192,44872,1,0,0:0:0:0:
329,192,44872,1,0,0:0:0:0:
182,192,44979,1,0,0:0:0:0:
402,192,44979,1,0,0:0:0:0:
475,192,45086,1,0,0:0:0:0:
36,192,45086,1,0,0:0:0:0:
109,192,45086,1,0,0:0:0:0:
256,192,45086,1,0,0:0:0:0:
402,192,45300,1,0,0:0:0:0:
109,192,45300,1,0,0:0:0:0:
256,192,45407,1,0,0:0:0:0:
36,192,45515,1,0,0:0:0:0:
329,192,45515,1,0,0:0:0:0:
182,192,45729,1,0,0:0:0:0:
475,192,45729,1,0,0:0:0:0:
329,192,45729,1,0,0:0:0:0:
36,192,45943,1,0,0:0:0:0:
402,192,45943,1,0,0:0:0:0:
329,192,45943,1,0,0:0:0:0:
109,192,45943,1,0,0:0:0:0:
182,192,46050,1,0,0:0:0:0:
256,192,46157,1,0,0:0:0:0:
36,192,46157,1,0,0:0:0:0:
329,192,46265,1,0,0:0:0:0:
182,192,46372,1,0,0:0:0:0:
475,192,46372,1,0,0:0:0:0:
109,192,46586,1,0,0:0:0:0:
402,192,46586,1,0,0:0:0:0:
329,192,46693,1,0,0:0:0:0:
109,192,46800,1,0,0:0:0:0:
36,192,46800,1,0,0:0:0:0:
475,192,46800,1,0,0:0:0:0:
182,192,46800,1,0,0:0:0:0:
36,192,47015,1,0,0:0:0:0:
329,192,47015,1,0,0:0:0:0:
402,192,47122,1,0,0:0:0:0:
182,192,47122,1,0,0:0:0:0:
109,192,47229,1,0,0:0:0:0:
329,192,47229,1,0,0:0:0:0:
182,192,47443,1,0,0:0:0:0:
402,192,47443,1,0,0:0:0:0:
329,192,47550,1,0,0:0:0:0:
36,192,47657,1,0,0:0:0:0:
475,192,47657,1,0,0:0:0:0:
109,192,47765,1,0,0:0:0:0:
256,192,47765,1,0,0:0:0:0:
36,192,47872,1,0,0:0:0:0:
402,192,47872,1,0,0:0:0:0:
182,192,47979,1,0,0:0:0:0:
329,192,48086,1,0,0:0:0:0:
109,192,48193,1,0,0:0:0:0:
256,192,48300,1,0,0:0:0:0:
402,192,48300,1,0,0:0:0:0:
36,192,48407,1,0,0:0:0:0:
182,192,48515,1,0,0:0:0:0:
329,192,48515,1,0,0:0:0:0:
402,192,48515,1,0,0:0:0:0:
475,192,48515,1,0,0:0:0:0:
109,192,48729,1,0,0:0:0:0:
36,192,48836,1,0,0:0:0:0:
329,192,48943,1,0,0:0:0:0:
475,192,48943,1,0,0:0:0:0:
475,192,49157,1,0,0:0:0:0:
329,192,49157,1,0,0:0:0:0:
109,192,49157,1,0,0:0:0:0:
182,192,49265,1,0,0:0:0:0:
329,192,49372,1,0,0:0:0:0:
402,192,49372,1,0,0:0:0:0:
182,192,49479,1,0,0:0:0:0:
36,192,49586,1,0,0:0:0:0:
329,192,49586,1,0,0:0:0:0:
402,192,49693,1,0,0:0:0:0:
329,192,49800,1,0,0:0:0:0:
109,192,49800,1,0,0:0:0:0:
329,192,50015,1,0,0:0:0:0:
109,192,50015,1,0,0:0:0:0:
182,192,50122,1,0,0:0:0:0:
329,192,50229,1,0,0:0:0:0:
475,192,50229,1,0,0:0:0:0:
36,192,50229,1,0,0:0:0:0:
402,192,50229,1,0,0:0:0:0:
182,192,50443,1,0,0:0:0:0:
109,192,50550,1,0,0:0:0:0:
329,192,50550,1,0,0:0:0:0:
475,192,50657,1,0,0:0:0:0:
256,192,50657,1,0,0:0:0:0:
329,192,50872,1,0,0:0:0:0:
475,192,50872,1,0,0:0:0:0:
109,192,50872,1,0,0:0:0:0:
182,192,50979,1,0,0:0:0:0:
329,192,51086,1,0,0:0:0:0:
475,192,51086,1,0,0:0:0:0:
182,192,51193,1,0,0:0:0:0:
36,192,51300,1,0,0:0:0:0:
256,192,51300,1,0,0:0:0:0:
182,192,51407,1,0,0:0:0:0:
329,192,51515,1,0,0:0:0:0:
109,192,51515,1,0,0:0:0:0:
475,192,51515,1,0,0:0:0:0:
402,192,51729,1,0,0:0:0:0:
36,192,51729,1,0,0:0:0:0:
329,192,51836,1,0,0:0:0:0:
182,192,51836,1,0,0:0:0:0:
475,192,51943,1,0,0:0:0:0:
36,192,51943,1,0,0:0:0:0:
109,192,51943,1,0,0:0:0:0:
402,192,51943,1,0,0:0:0:0:
256,192,52050,1,0,0:0:0:0:
402,192,52157,1,0,0:0:0:0:
182,192,52157,1,0,0:0:0:0:
329,192,52265,1,0,0:0:0:0:
475,192,52265,1,0,0:0:0:0:
36,192,52372,1,0,0:0:0:0:
182,192,52372,1,0,0:0:0:0:
109,192,52586,1,0,0:0:0:0:
329,192,52586,1,0,0:0:0:0:
182,192,52693,1,0,0:0:0:0:
329,192,52800,1,0,0:0:0:0:
475,192,52800,1,0,0:0:0:0:
109,192,52800,1,0,0:0:0:0:
36,192,52800,1,0,0:0:0:0:
256,192,52907,1,0,0:0:0:0:
402,192,53015,1,0,0:0:0:0:
182,192,53015,1,0,0:0:0:0:
329,192,53122,1,0,0:0:0:0:
475,192,53122,1,0,0:0:0:0:
182,192,53229,1,0,0:0:0:0:
36,192,53229,1,0,0:0:0:0:
402,192,53443,1,0,0:0:0:0:
182,192,53443,1,0,0:0:0:0:
329,192,53550,1,0,0:0:0:0:
402,192,53657,1,0,0:0:0:0:
475,192,53657,1,0,0:0:0:0:
182,192,53657,1,0,0:0:0:0:
36,192,53657,1,0,0:0:0:0:
256,192,53765,1,0,0:0:0:0:
329,192,53872,1,0,0:0:0:0:
109,192,53872,1,0,0:0:0:0:
182,192,53979,1,0,0:0:0:0:
109,192,54086,1,0,0:0:0:0:
475,192,54086,1,0,0:0:0:0:
402,192,54300,1,0,0:0:0:0:
182,192,54300,1,0,0:0:0:0:
329,192,54407,1,0,0:0:0:0:
256,192,54515,1,0,0:0:0:0:
109,192,54515,1,0,0:0:0:0:
36,192,54515,1,0,0:0:0:0:
475,192,54515,1,0,0:0:0:0:
329,192,54622,1,0,0:0:0:0:
475,192,54729,1,0,0:0:0:0:
182,192,54729,1,0,0:0:0:0:
329,192,54836,1,0,0:0:0:0:
256,192,54943,1,0,0:0:0:0:
36,192,54943,1,0,0:0:0:0:
475,192,54943,1,0,0:0:0:0:
182,192,55050,1,0,0:0:0:0:
329,192,55157,1,0,0:0:0:0:
402,192,55157,1,0,0:0:0:0:
109,192,55157,1,0,0:0:0:0:
182,192,55372,1,0,0:0:0:0:
329,192,55372,1,0,0:0:0:0:
475,192,55372,1,0,0:0:0:0:
36,192,55372,1,0,0:0:0:0:
402,192,55372,1,0,0:0:0:0:
182,192,55586,1,0,0:0:0:0:
36,192,55693,1,0,0:0:0:0:
329,192,55800,1,0,0:0:0:0:
475,192,55800,1,0,0:0:0:0:
109,192,55800,1,0,0:0:0:0:
256,192,55800,1,0,0:0:0:0:
475,192,56015,1,0,0:0:0:0:
329,192,56015,1,0,0:0:0:0:
109,192,56015,1,0,0:0:0:0:
182,192,56122,1,0,0:0:0:0:
329,192,56229,1,0,0:0:0:0:
402,192,56229,1,0,0:0:0:0:
182,192,56336,1,0,0:0:0:0:
36,192,56443,1,0,0:0:0:0:
329,192,56443,1,0,0:0:0:0:
475,192,56550,1,0,0:0:0:0:
256,192,56657,1,0,0:0:0:0:
36,192,56657,1,0,0:0:0:0:
182,192,56657,1,0,0:0:0:0:
402,192,56657,1,0,0:0:0:0:
329,192,56872,1,0,0:0:0:0:
109,192,56872,1,0,0:0:0:0:
182,192,56979,1,0,0:0:0:0:
329,192,57086,1,0,0:0:0:0:
475,192,57086,1,0,0:0:0:0:
36,192,57086,1,0,0:0:0:0:
402,192,57086,1,0,0:0:0:0:
109,192,57300,1,0,0:0:0:0:
182,192,57407,1,0,0:0:0:0:
329,192,57407,1,0,0:0:0:0:
475,192,57515,1,0,0:0:0:0:
256,192,57515,1,0,0:0:0:0:
36,192,57515,1,0,0:0:0:0:
402,192,57515,1,0,0:0:0:0:
329,192,57729,1,0,0:0:0:0:
475,192,57729,1,0,0:0:0:0:
109,192,57729,1,0,0:0:0:0:
182,192,57836,1,0,0:0:0:0:
329,192,57943,1,0,0:0:0:0:
475,192,57943,1,0,0:0:0:0:
109,192,58050,1,0,0:0:0:0:
182,192,58157,1,0,0:0:0:0:
402,192,58157,1,0,0:0:0:0:
36,192,58372,1,0,0:0:0:0:
182,192,58372,1,0,0:0:0:0:
256,192,58372,1,0,0:0:0:0:
402,192,58372,1,0,0:0:0:0:
109,192,58586,1,0,0:0:0:0:
475,192,58586,1,0,0:0:0:0:
182,192,58693,1,0,0:0:0:0:
329,192,58693,1,0,0:0:0:0:
475,192,58800,1,0,0:0:0:0:
36,192,58800,1,0,0:0:0:0:
109,192,58800,1,0,0:0:0:0:
402,192,58800,1,0,0:0:0:0:
402,192,59015,1,0,0:0:0:0:
109,192,59015,1,0,0:0:0:0:
182,192,59122,1,0,0:0:0:0:
36,192,59229,1,0,0:0:0:0:
329,192,59229,1,0,0:0:0:0:
256,192,59229,1,0,0:0:0:0:
475,192,59229,1,0,0:0:0:0:
182,192,59443,1,0,0:0:0:0:
402,192,59443,1,0,0:0:0:0:
475,192,59443,1,0,0:0:0:0:
36,192,59657,1,0,0:0:0:0:
475,192,59657,1,0,0:0:0:0:
329,192,59657,1,0,0:0:0:0:
109,192,59657,1,0,0:0:0:0:
182,192,59765,1,0,0:0:0:0:
329,192,59872,1,0,0:0:0:0:
36,192,59872,1,0,0:0:0:0:
182,192,60086,1,0,0:0:0:0:
475,192,60086,1,0,0:0:0:0:
256,192,60086,1,0,0:0:0:0:
36,192,60086,1,0,0:0:0:0:
109,192,60300,1,0,0:0:0:0:
402,192,60300,1,0,0:0:0:0:
329,192,60407,1,0,0:0:0:0:
109,192,60515,1,0,0:0:0:0:
36,192,60515,1,0,0:0:0:0:
475,192,60515,1,0,0:0:0:0:
182,192,60515,1,0,0:0:0:0:
36,192,60729,1,0,0:0:0:0:
329,192,60729,1,0,0:0:0:0:
402,192,60836,1,0,0:0:0:0:
182,192,60836,1,0,0:0:0:0:
109,192,60943,1,0,0:0:0:0:
329,192,60943,1,0,0:0:0:0:
475,192,60943,1,0,0:0:0:0:
256,192,60943,1,0,0:0:0:0:
182,192,61157,1,0,0:0:0:0:
402,192,61157,1,0,0:0:0:0:
329,192,61265,1,0,0:0:0:0:
475,192,61372,1,0,0:0:0:0:
36,192,61372,1,0,0:0:0:0:
402,192,61479,1,0,0:0:0:0:
256,192,61479,1,0,0:0:0:0:
475,192,61586,1,0,0:0:0:0:
109,192,61586,1,0,0:0:0:0:
329,192,61693,1,0,0:0:0:0:
182,192,61800,1,0,0:0:0:0:
402,192,61907,1,0,0:0:0:0:
256,192,62015,1,0,0:0:0:0:
109,192,62015,1,0,0:0:0:0:
475,192,62122,1,0,0:0:0:0:
182,192,62229,1,0,0:0:0:0:
329,192,62229,1,0,0:0:0:0:
36,192,62229,1,0,0:0:0:0:
109,192,62229,1,0,0:0:0:0:
182,192,62443,1,0,0:0:0:0:
36,192,62550,1,0,0:0:0:0:
329,192,62657,1,0,0:0:0:0:
475,192,62657,1,0,0:0:0:0:
256,192,62657,1,0,0:0:0:0:
109,192,62657,1,0,0:0:0:0:
475,192,62872,1,0,0:0:0:0:
329,192,62872,1,0,0:0:0:0:
109,192,62872,1,0,0:0:0:0:
182,192,62979,1,0,0:0:0:0:
329,192,63086,1,0,0:0:0:0:
402,192,63086,1,0,0:0:0:0:
182,192,63193,1,0,0:0:0:0:
109,192,63300,1,0,0:0:0:0:
402,192,63300,1,0,0:0:0:0:
402,192,63515,1,0,0:0:0:0:
256,192,63515,1,0,0:0:0:0:
36,192,63515,1,0,0:0:0:0:
182,192,63515,1,0,0:0:0:0:
329,192,63729,1,0,0:0:0:0:
109,192,63729,1,0,0:0:0:0:
182,192,63836,1,0,0:0:0:0:
329,192,63943,1,0,0:0:0:0:
475,192,63943,1,0,0:0:0:0:
36,192,63943,1,0,0:0:0:0:
402,192,63943,1,0,0:0:0:0:
182,192,64157,1,0,0:0:0:0:
402,192,64157,1,0,0:0:0:0:
329,192,64265,1,0,0:0:0:0:
475,192,64372,1,0,0:0:0:0:
256,192,64372,1,0,0:0:0:0:
36,192,64372,1,0,0:0:0:0:
182,192,64372,1,0,0:0:0:0:
329,192,64586,1,0,0:0:0:0:
475,192,64586,1,0,0:0:0:0:
109,192,64586,1,0,0:0:0:0:
182,192,64693,1,0,0:0:0:0:
329,192,64800,1,0,0:0:0:0:
475,192,64800,1,0,0:0:0:0:
182,192,64907,1,0,0:0:0:0:
109,192,65015,1,0,0:0:0:0:
329,192,65015,1,0,0:0:0:0:
182,192,65122,1,0,0:0:0:0:
36,192,65229,1,0,0:0:0:0:
329,192,65229,1,0,0:0:0:0:
256,192,65229,1,0,0:0:0:0:
475,192,65229,1,0,0:0:0:0:
109,192,65443,1,0,0:0:0:0:
475,192,65443,1,0,0:0:0:0:
182,192,65550,1,0,0:0:0:0:
329,192,65550,1,0,0:0:0:0:
475,192,65657,1,0,0:0:0:0:
36,192,65657,1,0,0:0:0:0:
109,192,65657,1,0,0:0:0:0:
402,192,65657,1,0,0:0:0:0:
256,192,65765,1,0,0:0:0:0:
182,192,65872,1,0,0:0:0:0:
402,192,65872,1,0,0:0:0:0:
329,192,65979,1,0,0:0:0:0:
475,192,65979,1,0,0:0:0:0:
36,192,66086,1,0,0:0:0:0:
182,192,66086,1,0,0:0:0:0:
402,192,66086,1,0,0:0:0:0:
256,192,66086,1,0,0:0:0:0:
109,192,66300,1,0,0:0:0:0:
329,192,66300,1,0,0:0:0:0:
182,192,66407,1,0,0:0:0:0:
329,192,66515,1,0,0:0:0:0:
475,192,66515,1,0,0:0:0:0:
109,192,66515,1,0,0:0:0:0:
36,192,66515,1,0,0:0:0:0:
256,192,66622,1,0,0:0:0:0:
182,192,66729,1,0,0:0:0:0:
402,192,66729,1,0,0:0:0:0:
329,192,66836,1,0,0:0:0:0:
475,192,66836,1,0,0:0:0:0:
182,192,66943,1,0,0:0:0:0:
36,192,66943,1,0,0:0:0:0:
256,192,66943,1,0,0:0:0:0:
402,192,66943,1,0,0:0:0:0:
109,192,67157,1,0,0:0:0:0:
475,192,67157,1,0,0:0:0:0:
402,192,67229,1,0,0:0:0:0:
329,192,67300,1,0,0:0:0:0:
182,192,67372,1,0,0:0:0:0:
36,192,67372,1,0,0:0:0:0:
256,192,67372,1,0,0:0:0:0:
475,192,67372,1,0,0:0:0:0:
329,192,67479,1,0,0:0:0:0:
109,192,67479,1,0,0:0:0:0:
475,192,67586,1,0,0:0:0:0:
182,192,67586,1,0,0:0:0:0:
329,192,67693,1,0,0:0:0:0:
475,192,67800,1,0,0:0:0:0:
36,192,67800,1,0,0:0:0:0:
182,192,67800,1,0,0:0:0:0:
475,192,68015,1,0,0:0:0:0:
329,192,68015,1,0,0:0:0:0:
36,192,68015,1,0,0:0:0:0:
475,192,68229,1,0,0:0:0:0:
36,192,68229,1,0,0:0:0:0:
256,192,68229,1,0,0:0:0:0:
182,192,68443,1,0,0:0:0:0:
475,192,68443,1,0,0:0:0:0:
329,192,68443,1,0,0:0:0:0:
36,192,68443,1,0,0:0:0:0:
36,192,68657,1,0,0:0:0:0:
475,192,68657,1,0,0:0:0:0:
182,192,68765,1,0,0:0:0:0:
329,192,68765,1,0,0:0:0:0:
109,192,68872,1,0,0:0:0:0:
402,192,68872,1,0,0:0:0:0:
109,192,69086,1,0,0:0:0:0:
36,192,69086,1,0,0:0:0:0:
402,192,69086,1,0,0:0:0:0:
475,192,69086,1,0,0:0:0:0:
256,192,69086,128,0,70800:0:0:0:0:
109,192,69300,1,0,0:0:0:0:
475,192,69407,1,0,0:0:0:0:
36,192,69515,1,0,0:0:0:0:
329,192,69515,1,0,0:0:0:0:
182,192,69515,1,0,0:0:0:0:
402,192,69729,1,0,0:0:0:0:
36,192,69729,1,0,0:0:0:0:
109,192,69943,1,0,0:0:0:0:
475,192,69943,1,0,0:0:0:0:
329,192,70050,1,0,0:0:0:0:
182,192,70157,1,0,0:0:0:0:
402,192,70265,1,0,0:0:0:0:
329,192,70372,1,0,0:0:0:0:
36,192,70372,1,0,0:0:0:0:
182,192,70372,1,0,0:0:0:0:
109,192,70586,1,0,0:0:0:0:
402,192,70586,1,0,0:0:0:0:
109,192,70800,128,0,72515:0:0:0:0:
329,192,70800,1,0,0:0:0:0:
475,192,70800,1,0,0:0:0:0:
329,192,71015,1,0,0:0:0:0:
182,192,71015,1,0,0:0:0:0:
402,192,71122,1,0,0:0:0:0:
329,192,71229,1,0,0:0:0:0:
36,192,71229,1,0,0:0:0:0:
182,192,71229,1,0,0:0:0:0:
475,192,71443,1,0,0:0:0:0:
256,192,71443,1,0,0:0:0:0:
402,192,71550,1,0,0:0:0:0:
329,192,71657,1,0,0:0:0:0:
182,192,71657,1,0,0:0:0:0:
475,192,71765,1,0,0:0:0:0:
329,192,71872,1,0,0:0:0:0:
402,192,71979,1,0,0:0:0:0:
475,192,72086,1,0,0:0:0:0:
256,192,72086,1,0,0:0:0:0:
36,192,72086,1,0,0:0:0:0:
329,192,72300,1,0,0:0:0:0:
475,192,72300,1,0,0:0:0:0:
402,192,72515,128,0,74229:0:0:0:0:
182,192,72515,1,0,0:0:0:0:
36,192,72515,1,0,0:0:0:0:
109,192,72729,1,0,0:0:0:0:
329,192,72729,1,0,0:0:0:0:
256,192,72836,1,0,0:0:0:0:
182,192,72943,1,0,0:0:0:0:
475,192,72943,1,0,0:0:0:0:
36,192,72943,1,0,0:0:0:0:
109,192,73157,1,0,0:0:0:0:
329,192,73157,1,0,0:0:0:0:
256,192,73265,1,0,0:0:0:0:
36,192,73372,1,0,0:0:0:0:
182,192,73372,1,0,0:0:0:0:
329,192,73586,1,0,0:0:0:0:
36,192,73586,1,0,0:0:0:0:
109,192,73693,1,0,0:0:0:0:
256,192,73693,1,0,0:0:0:0:
182,192,73800,1,0,0:0:0:0:
475,192,73800,1,0,0:0:0:0:
36,192,73800,1,0,0:0:0:0:
182,192,74015,1,0,0:0:0:0:
329,192,74015,1,0,0:0:0:0:
182,192,74122,1,0,0:0:0:0:
256,192,74229,1,0,0:0:0:0:
36,192,74229,1,0,0:0:0:0:
475,192,74229,1,0,0:0:0:0:
109,192,74229,1,0,0:0:0:0:
109,192,74443,1,0,0:0:0:0:
182,192,74443,1,0,0:0:0:0:
402,192,74443,1,0,0:0:0:0:
36,192,74657,1,0,0:0:0:0:
475,192,74657,1,0,0:0:0:0:
402,192,74657,1,0,0:0:0:0:
256,192,74657,1,0,0:0:0:0:
109,192,74872,1,0,0:0:0:0:
329,192,74872,1,0,0:0:0:0:
402,192,74872,1,0,0:0:0:0:
109,192,75086,1,0,0:0:0:0:
36,192,75086,1,0,0:0:0:0:
475,192,75086,1,0,0:0:0:0:
256,192,75086,1,0,0:0:0:0:
402,192,75193,1,0,0:0:0:0:
329,192,75300,1,0,0:0:0:0:
109,192,75300,1,0,0:0:0:0:
256,192,75407,1,0,0:0:0:0:
36,192,75515,1,0,0:0:0:0:
475,192,75515,1,0,0:0:0:0:
402,192,75515,1,0,0:0:0:0:
109,192,75622,1,0,0:0:0:0:
182,192,75729,1,0,0:0:0:0:
402,192,75729,1,0,0:0:0:0:
256,192,75836,1,0,0:0:0:0:
36,192,75943,1,0,0:0:0:0:
182,192,75943,1,0,0:0:0:0:
329,192,75943,1,0,0:0:0:0:
475,192,75943,1,0,0:0:0:0:
329,192,76050,1,0,0:0:0:0:
109,192,76050,1,0,0:0:0:0:
256,192,76157,1,0,0:0:0:0:
475,192,76265,1,0,0:0:0:0:
182,192,76265,1,0,0:0:0:0:
36,192,76372,1,0,0:0:0:0:
402,192,76372,1,0,0:0:0:0:
256,192,76372,1,0,0:0:0:0:
402,192,76586,1,0,0:0:0:0:
36,192,76586,1,0,0:0:0:0:
182,192,76693,1,0,0:0:0:0:
402,192,76800,1,0,0:0:0:0:
329,192,76800,1,0,0:0:0:0:
109,192,76800,1,0,0:0:0:0:
475,192,76800,1,0,0:0:0:0:
182,192,76907,1,0,0:0:0:0:
329,192,77015,1,0,0:0:0:0:
36,192,77015,1,0,0:0:0:0:
402,192,77015,1,0,0:0:0:0:
182,192,77122,1,0,0:0:0:0:
329,192,77229,1,0,0:0:0:0:
402,192,77229,1,0,0:0:0:0:
36,192,77229,1,0,0:0:0:0:
109,192,77229,1,0,0:0:0:0:
402,192,77443,1,0,0:0:0:0:
109,192,77443,1,0,0:0:0:0:
256,192,77550,1,0,0:0:0:0:
182,192,77550,1,0,0:0:0:0:
329,192,77657,1,0,0:0:0:0:
475,192,77657,1,0,0:0:0:0:
36,192,77657,1,0,0:0:0:0:
109,192,77765,1,0,0:0:0:0:
329,192,77765,1,0,0:0:0:0:
402,192,77872,1,0,0:0:0:0:
475,192,77979,1,0,0:0:0:0:
256,192,77979,1,0,0:0:0:0:
182,192,78086,1,0,0:0:0:0:
36,192,78086,1,0,0:0:0:0:
329,192,78086,1,0,0:0:0:0:
329,192,78300,1,0,0:0:0:0:
109,192,78300,1,0,0:0:0:0:
256,192,78407,1,0,0:0:0:0:
109,192,78515,1,0,0:0:0:0:
329,192,78515,1,0,0:0:0:0:
475,192,78515,1,0,0:0:0:0:
402,192,78515,1,0,0:0:0:0:
182,192,78622,1,0,0:0:0:0:
329,192,78729,1,0,0:0:0:0:
475,192,78729,1,0,0:0:0:0:
109,192,78729,1,0,0:0:0:0:
182,192,78836,1,0,0:0:0:0:
329,192,78943,1,0,0:0:0:0:
36,192,78943,1,0,0:0:0:0:
402,192,78943,1,0,0:0:0:0:
109,192,78943,1,0,0:0:0:0:
182,192,79050,1,0,0:0:0:0:
402,192,79157,1,0,0:0:0:0:
256,192,79157,1,0,0:0:0:0:
182,192,79265,1,0,0:0:0:0:
329,192,79372,1,0,0:0:0:0:
475,192,79372,1,0,0:0:0:0:
36,192,79372,1,0,0:0:0:0:
329,192,79479,1,0,0:0:0:0:
182,192,79479,1,0,0:0:0:0:
109,192,79586,1,0,0:0:0:0:
475,192,79693,1,0,0:0:0:0:
256,192,79693,1,0,0:0:0:0:
36,192,79800,1,0,0:0:0:0:
329,192,79800,1,0,0:0:0:0:
182,192,79800,1,0,0:0:0:0:
182,192,80015,1,0,0:0:0:0:
402,192,80015,1,0,0:0:0:0:
256,192,80122,1,0,0:0:0:0:
329,192,80229,1,0,0:0:0:0:
402,192,80229,1,0,0:0:0:0:
109,192,80229,1,0,0:0:0:0:
475,192,80229,1,0,0:0:0:0:
182,192,80336,1,0,0:0:0:0:
402,192,80443,1,0,0:0:0:0:
329,192,80443,1,0,0:0:0:0:
36,192,80443,1,0,0:0:0:0:
182,192,80550,1,0,0:0:0:0:
109,192,80657,1,0,0:0:0:0:
402,192,80657,1,0,0:0:0:0:
36,192,80657,1,0,0:0:0:0:
329,192,80657,1,0,0:0:0:0:
256,192,80872,1,0,0:0:0:0:
402,192,80872,1,0,0:0:0:0:
36,192,80872,1,0,0:0:0:0:
475,192,81086,1,0,0:0:0:0:
36,192,81086,1,0,0:0:0:0:
329,192,81086,1,0,0:0:0:0:
109,192,81086,1,0,0:0:0:0:
182,192,81193,1,0,0:0:0:0:
402,192,81300,1,0,0:0:0:0:
36,192,81300,1,0,0:0:0:0:
256,192,81407,1,0,0:0:0:0:
182,192,81515,1,0,0:0:0:0:
36,192,81515,1,0,0:0:0:0:
475,192,81515,1,0,0:0:0:0:
402,192,81515,1,0,0:0:0:0:
329,192,81622,1,0,0:0:0:0:
109,192,81729,1,0,0:0:0:0:
402,192,81729,1,0,0:0:0:0:
256,192,81836,1,0,0:0:0:0:
402,192,81943,1,0,0:0:0:0:
109,192,81943,1,0,0:0:0:0:
329,192,81943,1,0,0:0:0:0:
182,192,81943,1,0,0:0:0:0:
36,192,82157,1,0,0:0:0:0:
329,192,82157,1,0,0:0:0:0:
182,192,82157,1,0,0:0:0:0:
475,192,82265,1,0,0:0:0:0:
402,192,82372,1,0,0:0:0:0:
109,192,82372,1,0,0:0:0:0:
256,192,82372,1,0,0:0:0:0:
329,192,82479,1,0,0:0:0:0:
36,192,82586,1,0,0:0:0:0:
182,192,82586,1,0,0:0:0:0:
329,192,82693,1,0,0:0:0:0:
109,192,82800,1,0,0:0:0:0:
256,192,82800,1,0,0:0:0:0:
402,192,82800,1,0,0:0:0:0:
475,192,82800,1,0,0:0:0:0:
109,192,82907,1,0,0:0:0:0:
329,192,82907,1,0,0:0:0:0:
182,192,83015,1,0,0:0:0:0:
256,192,83122,1,0,0:0:0:0:
475,192,83122,1,0,0:0:0:0:
36,192,83229,1,0,0:0:0:0:
182,192,83229,1,0,0:0:0:0:
329,192,83229,1,0,0:0:0:0:
402,192,83336,1,0,0:0:0:0:
329,192,83443,1,0,0:0:0:0:
109,192,83443,1,0,0:0:0:0:
256,192,83550,1,0,0:0:0:0:
329,192,83657,1,0,0:0:0:0:
109,192,83657,1,0,0:0:0:0:
402,192,83657,1,0,0:0:0:0:
475,192,83657,1,0,0:0:0:0:
182,192,83765,1,0,0:0:0:0:
329,192,83872,1,0,0:0:0:0:
36,192,83872,1,0,0:0:0:0:
402,192,83872,1,0,0:0:0:0:
182,192,83979,1,0,0:0:0:0:
402,192,84086,1,0,0:0:0:0:
36,192,84086,1,0,0:0:0:0:
329,192,84086,1,0,0:0:0:0:
109,192,84086,1,0,0:0:0:0:
402,192,84300,1,0,0:0:0:0:
182,192,84300,1,0,0:0:0:0:
256,192,84407,1,0,0:0:0:0:
329,192,84515,1,0,0:0:0:0:
475,192,84515,1,0,0:0:0:0:
36,192,84515,1,0,0:0:0:0:
109,192,84622,1,0,0:0:0:0:
329,192,84622,1,0,0:0:0:0:
402,192,84729,1,0,0:0:0:0:
256,192,84836,1,0,0:0:0:0:
475,192,84836,1,0,0:0:0:0:
36,192,84943,1,0,0:0:0:0:
182,192,84943,1,0,0:0:0:0:
329,192,84943,1,0,0:0:0:0:
402,192,85050,1,0,0:0:0:0:
256,192,85157,1,0,0:0:0:0:
109,192,85157,1,0,0:0:0:0:
182,192,85265,1,0,0:0:0:0:
475,192,85372,1,0,0:0:0:0:
329,192,85372,1,0,0:0:0:0:
109,192,85372,1,0,0:0:0:0:
402,192,85372,1,0,0:0:0:0:
182,192,85479,1,0,0:0:0:0:
475,192,85586,1,0,0:0:0:0:
36,192,85586,1,0,0:0:0:0:
329,192,85586,1,0,0:0:0:0:
182,192,85693,1,0,0:0:0:0:
36,192,85800,1,0,0:0:0:0:
329,192,85800,1,0,0:0:0:0:
402,192,85800,1,0,0:0:0:0:
182,192,85907,1,0,0:0:0:0:
329,192,86015,1,0,0:0:0:0:
109,192,86015,1,0,0:0:0:0:
182,192,86122,1,0,0:0:0:0:
402,192,86122,1,0,0:0:0:0:
475,192,86229,1,0,0:0:0:0:
329,192,86229,1,0,0:0:0:0:
36,192,86229,1,0,0:0:0:0:
329,192,86336,1,0,0:0:0:0:
182,192,86336,1,0,0:0:0:0:
109,192,86443,1,0,0:0:0:0:
402,192,86550,1,0,0:0:0:0:
256,192,86550,1,0,0:0:0:0:
36,192,86657,1,0,0:0:0:0:
182,192,86657,1,0,0:0:0:0:
329,192,86657,1,0,0:0:0:0:
402,192,86765,1,0,0:0:0:0:
329,192,86872,1,0,0:0:0:0:
36,192,86872,1,0,0:0:0:0:
256,192,86979,1,0,0:0:0:0:
475,192,87086,1,0,0:0:0:0:
329,192,87086,1,0,0:0:0:0:
109,192,87086,1,0,0:0:0:0:
402,192,87086,1,0,0:0:0:0:
182,192,87193,1,0,0:0:0:0:
36,192,87300,1,0,0:0:0:0:
475,192,87300,1,0,0:0:0:0:
329,192,87300,1,0,0:0:0:0:
182,192,87407,1,0,0:0:0:0:
36,192,87515,1,0,0:0:0:0:
109,192,87515,1,0,0:0:0:0:
475,192,87515,1,0,0:0:0:0:
329,192,87515,1,0,0:0:0:0:
402,192,87729,1,0,0:0:0:0:
109,192,87729,1,0,0:0:0:0:
256,192,87729,1,0,0:0:0:0:
329,192,87943,1,0,0:0:0:0:
475,192,87943,1,0,0:0:0:0:
109,192,87943,1,0,0:0:0:0:
329,192,88050,1,0,0:0:0:0:
36,192,88050,1,0,0:0:0:0:
402,192,88157,1,0,0:0:0:0:
182,192,88157,1,0,0:0:0:0:
109,192,88265,1,0,0:0:0:0:
475,192,88372,1,0,0:0:0:0:
256,192,88372,1,0,0:0:0:0:
36,192,88372,1,0,0:0:0:0:
402,192,88586,1,0,0:0:0:0:
36,192,88586,1,0,0:0:0:0:
182,192,88586,1,0,0:0:0:0:
256,192,88693,1,0,0:0:0:0:
109,192,88800,1,0,0:0:0:0:
475,192,88800,1,0,0:0:0:0:
329,192,88800,1,0,0:0:0:0:
475,192,89015,1,0,0:0:0:0:
109,192,89015,1,0,0:0:0:0:
329,192,89015,1,0,0:0:0:0:
182,192,89122,1,0,0:0:0:0:
109,192,89229,128,0,89657:0:0:0:0:
329,192,89229,128,0,89443:0:0:0:0:
475,192,89229,128,0,89443:0:0:0:0:
402,192,89443,1,0,0:0:0:0:
256,192,89443,1,0,0:0:0:0:
329,192,89550,1,0,0:0:0:0:
36,192,89657,1,0,0:0:0:0:
475,192,89657,1,0,0:0:0:0:
182,192,89657,1,0,0:0:0:0:
329,192,89765,1,0,0:0:0:0:
402,192,89872,1,0,0:0:0:0:
256,192,89872,1,0,0:0:0:0:
36,192,89979,1,0,0:0:0:0:
109,192,90086,1,0,0:0:0:0:
329,192,90086,1,0,0:0:0:0:
256,192,90193,1,0,0:0:0:0:
402,192,90193,1,0,0:0:0:0:
182,192,90300,1,0,0:0:0:0:
36,192,90407,1,0,0:0:0:0:
182,192,90515,1,0,0:0:0:0:
256,192,90515,1,0,0:0:0:0:
402,192,90515,1,0,0:0:0:0:
182,192,90729,1,0,0:0:0:0:
256,192,90836,1,0,0:0:0:0:
402,192,90836,1,0,0:0:0:0:
329,192,90943,1,0,0:0:0:0:
109,192,90943,1,0,0:0:0:0:
256,192,91157,1,0,0:0:0:0:
402,192,91157,1,0,0:0:0:0:
329,192,91265,1,0,0:0:0:0:
36,192,91372,1,0,0:0:0:0:
475,192,91372,1,0,0:0:0:0:
182,192,91479,1,0,0:0:0:0:
402,192,91479,1,0,0:0:0:0:
109,192,91586,1,0,0:0:0:0:
256,192,91586,1,0,0:0:0:0:
36,192,91693,1,0,0:0:0:0:
329,192,91693,1,0,0:0:0:0:
182,192,91800,1,0,0:0:0:0:
475,192,91800,1,0,0:0:0:0:
109,192,91907,1,0,0:0:0:0:
256,192,91907,1,0,0:0:0:0:
36,192,92015,1,0,0:0:0:0:
402,192,92015,1,0,0:0:0:0:
109,192,92122,1,0,0:0:0:0:
182,192,92229,1,0,0:0:0:0:
256,192,92229,1,0,0:0:0:0:
329,192,92229,1,0,0:0:0:0:
475,192,92443,1,0,0:0:0:0:
36,192,92443,1,0,0:0:0:0:
402,192,92515,1,0,0:0:0:0:
182,192,92550,1,0,0:0:0:0:
109,192,92550,1,0,0:0:0:0:
329,192,92586,1,0,0:0:0:0:
36,192,92657,1,0,0:0:0:0:
475,192,92657,1,0,0:0:0:0:
109,192,92765,1,0,0:0:0:0:
329,192,92765,1,0,0:0:0:0:
182,192,92872,1,0,0:0:0:0:
256,192,92872,1,0,0:0:0:0:
475,192,92872,128,0,93086:0:0:0:0:
182,192,93086,1,0,0:0:0:0:
329,192,93086,1,0,0:0:0:0:
36,192,93193,1,0,0:0:0:0:
402,192,93193,1,0,0:0:0:0:
475,192,93300,1,0,0:0:0:0:
109,192,93300,1,0,0:0:0:0:
256,192,93300,1,0,0:0:0:0:
402,192,93372,1,0,0:0:0:0:
329,192,93443,1,0,0:0:0:0:
36,192,93515,1,0,0:0:0:0:
475,192,93515,1,0,0:0:0:0:
182,192,93515,1,0,0:0:0:0:
109,192,93622,1,0,0:0:0:0:
256,192,93622,1,0,0:0:0:0:
475,192,93729,1,0,0:0:0:0:
36,192,93729,1,0,0:0:0:0:
329,192,93836,1,0,0:0:0:0:
109,192,93836,1,0,0:0:0:0:
256,192,93943,1,0,0:0:0:0:
182,192,93943,1,0,0:0:0:0:
402,192,93943,1,0,0:0:0:0:
329,192,94050,1,0,0:0:0:0:
36,192,94157,1,0,0:0:0:0:
475,192,94157,1,0,0:0:0:0:
402,192,94229,1,0,0:0:0:0:
109,192,94265,1,0,0:0:0:0:
182,192,94265,1,0,0:0:0:0:
329,192,94300,1,0,0:0:0:0:
36,192,94372,1,0,0:0:0:0:
475,192,94372,1,0,0:0:0:0:
256,192,94372,1,0,0:0:0:0:
402,192,94479,1,0,0:0:0:0:
109,192,94586,1,0,0:0:0:0:
329,192,94586,1,0,0:0:0:0:
182,192,94586,1,0,0:0:0:0:
402,192,94693,1,0,0:0:0:0:
182,192,94800,1,0,0:0:0:0:
36,192,94800,1,0,0:0:0:0:
329,192,94800,1,0,0:0:0:0:
475,192,94907,1,0,0:0:0:0:
329,192,95015,1,0,0:0:0:0:
36,192,95015,1,0,0:0:0:0:
402,192,95122,1,0,0:0:0:0:
329,192,95229,1,0,0:0:0:0:
182,192,95229,1,0,0:0:0:0:
36,192,95229,1,0,0:0:0:0:
475,192,95336,1,0,0:0:0:0:
329,192,95443,1,0,0:0:0:0:
109,192,95443,1,0,0:0:0:0:
402,192,95550,1,0,0:0:0:0:
182,192,95550,1,0,0:0:0:0:
36,192,95657,1,0,0:0:0:0:
256,192,95657,1,0,0:0:0:0:
475,192,95657,1,0,0:0:0:0:
256,192,95872,1,0,0:0:0:0:
36,192,95872,1,0,0:0:0:0:
475,192,95872,1,0,0:0:0:0:
109,192,96086,1,0,0:0:0:0:
256,192,96086,1,0,0:0:0:0:
402,192,96086,1,0,0:0:0:0:
109,192,96300,1,0,0:0:0:0:
256,192,96300,1,0,0:0:0:0:
402,192,96300,1,0,0:0:0:0:
36,192,96515,1,0,0:0:0:0:
256,192,96515,1,0,0:0:0:0:
402,192,96515,1,0,0:0:0:0:
109,192,96622,1,0,0:0:0:0:
475,192,96729,1,0,0:0:0:0:
182,192,96729,1,0,0:0:0:0:
402,192,96836,1,0,0:0:0:0:
329,192,96943,1,0,0:0:0:0:
182,192,96943,1,0,0:0:0:0:
36,192,96943,1,0,0:0:0:0:
256,192,97050,1,0,0:0:0:0:
475,192,97050,1,0,0:0:0:0:
36,192,97157,1,0,0:0:0:0:
329,192,97157,1,0,0:0:0:0:
402,192,97265,1,0,0:0:0:0:
109,192,97265,1,0,0:0:0:0:
182,192,97372,1,0,0:0:0:0:
475,192,97372,1,0,0:0:0:0:
256,192,97372,1,0,0:0:0:0:
402,192,97479,1,0,0:0:0:0:
329,192,97586,1,0,0:0:0:0:
36,192,97586,1,0,0:0:0:0:
182,192,97586,1,0,0:0:0:0:
256,192,97693,1,0,0:0:0:0:
109,192,97693,1,0,0:0:0:0:
182,192,97800,1,0,0:0:0:0:
475,192,97800,1,0,0:0:0:0:
329,192,97800,1,0,0:0:0:0:
256,192,98015,1,0,0:0:0:0:
109,192,98015,1,0,0:0:0:0:
182,192,98122,1,0,0:0:0:0:
329,192,98229,1,0,0:0:0:0:
475,192,98229,1,0,0:0:0:0:
109,192,98336,1,0,0:0:0:0:
256,192,98443,1,0,0:0:0:0:
402,192,98443,1,0,0:0:0:0:
36,192,98550,1,0,0:0:0:0:
182,192,98657,1,0,0:0:0:0:
329,192,98657,1,0,0:0:0:0:
475,192,98657,1,0,0:0:0:0:
402,192,98765,1,0,0:0:0:0:
256,192,98765,1,0,0:0:0:0:
109,192,98872,1,0,0:0:0:0:
329,192,98872,1,0,0:0:0:0:
182,192,98979,1,0,0:0:0:0:
256,192,99086,1,0,0:0:0:0:
475,192,99086,1,0,0:0:0:0:
36,192,99086,1,0,0:0:0:0:
475,192,99300,1,0,0:0:0:0:
256,192,99300,1,0,0:0:0:0:
36,192,99300,1,0,0:0:0:0:
182,192,99407,1,0,0:0:0:0:
329,192,99407,1,0,0:0:0:0:
256,192,99515,1,0,0:0:0:0:
402,192,99515,1,0,0:0:0:0:
109,192,99515,1,0,0:0:0:0:
109,192,99622,1,0,0:0:0:0:
402,192,99622,1,0,0:0:0:0:
182,192,99729,1,0,0:0:0:0:
475,192,99729,1,0,0:0:0:0:
402,192,99800,1,0,0:0:0:0:
109,192,99836,1,0,0:0:0:0:
329,192,99872,1,0,0:0:0:0:
475,192,99943,1,0,0:0:0:0:
256,192,99943,1,0,0:0:0:0:
36,192,99943,1,0,0:0:0:0:
109,192,100050,1,0,0:0:0:0:
182,192,100157,1,0,0:0:0:0:
475,192,100157,1,0,0:0:0:0:
402,192,100265,1,0,0:0:0:0:
182,192,100372,1,0,0:0:0:0:
329,192,100372,1,0,0:0:0:0:
36,192,100372,1,0,0:0:0:0:
475,192,100479,1,0,0:0:0:0:
256,192,100479,1,0,0:0:0:0:
329,192,100586,1,0,0:0:0:0:
36,192,100586,1,0,0:0:0:0:
402,192,100693,1,0,0:0:0:0:
109,192,100693,1,0,0:0:0:0:
256,192,100800,1,0,0:0:0:0:
182,192,100800,1,0,0:0:0:0:
475,192,100800,1,0,0:0:0:0:
402,192,100907,1,0,0:0:0:0:
36,192,101015,1,0,0:0:0:0:
182,192,101015,1,0,0:0:0:0:
329,192,101015,1,0,0:0:0:0:
109,192,101122,1,0,0:0:0:0:
256,192,101122,1,0,0:0:0:0:
182,192,101229,1,0,0:0:0:0:
475,192,101229,1,0,0:0:0:0:
329,192,101229,1,0,0:0:0:0:
182,192,101443,1,0,0:0:0:0:
402,192,101443,1,0,0:0:0:0:
329,192,101550,1,0,0:0:0:0:
475,192,101657,1,0,0:0:0:0:
182,192,101657,1,0,0:0:0:0:
36,192,101657,1,0,0:0:0:0:
402,192,101765,1,0,0:0:0:0:
256,192,101765,1,0,0:0:0:0:
329,192,101872,1,0,0:0:0:0:
109,192,101872,1,0,0:0:0:0:
182,192,101979,1,0,0:0:0:0:
256,192,102086,1,0,0:0:0:0:
475,192,102086,1,0,0:0:0:0:
36,192,102086,1,0,0:0:0:0:
109,192,102193,1,0,0:0:0:0:
329,192,102193,1,0,0:0:0:0:
402,192,102300,1,0,0:0:0:0:
182,192,102300,1,0,0:0:0:0:
109,192,102407,1,0,0:0:0:0:
329,192,102407,1,0,0:0:0:0:
36,192,102515,1,0,0:0:0:0:
256,192,102515,1,0,0:0:0:0:
475,192,102515,1,0,0:0:0:0:
256,192,102729,1,0,0:0:0:0:
36,192,102729,1,0,0:0:0:0:
475,192,102729,1,0,0:0:0:0:
402,192,102800,1,0,0:0:0:0:
329,192,102872,1,0,0:0:0:0:
475,192,102943,1,0,0:0:0:0:
256,192,102943,1,0,0:0:0:0:
36,192,102943,1,0,0:0:0:0:
329,192,103050,1,0,0:0:0:0:
256,192,103157,1,0,0:0:0:0:
109,192,103157,1,0,0:0:0:0:
402,192,103157,1,0,0:0:0:0:
329,192,103372,1,0,0:0:0:0:
182,192,103372,1,0,0:0:0:0:
36,192,103372,1,0,0:0:0:0:
475,192,103372,1,0,0:0:0:0:
402,192,103479,1,0,0:0:0:0:
256,192,103586,1,0,0:0:0:0:
109,192,103586,1,0,0:0:0:0:
329,192,103693,1,0,0:0:0:0:
36,192,103693,1,0,0:0:0:0:
182,192,103800,1,0,0:0:0:0:
402,192,103800,1,0,0:0:0:0:
329,192,103907,1,0,0:0:0:0:
475,192,104015,1,0,0:0:0:0:
36,192,104015,1,0,0:0:0:0:
182,192,104122,1,0,0:0:0:0:
329,192,104122,1,0,0:0:0:0:
109,192,104229,1,0,0:0:0:0:
36,192,104229,1,0,0:0:0:0:
402,192,104229,1,0,0:0:0:0:
329,192,104336,1,0,0:0:0:0:
109,192,104443,1,0,0:0:0:0:
475,192,104443,1,0,0:0:0:0:
256,192,104550,1,0,0:0:0:0:
109,192,104657,1,0,0:0:0:0:
36,192,104657,1,0,0:0:0:0:
329,192,104657,1,0,0:0:0:0:
402,192,104765,1,0,0:0:0:0:
182,192,104872,1,0,0:0:0:0:
256,192,104979,1,0,0:0:0:0:
329,192,105086,1,0,0:0:0:0:
475,192,105086,1,0,0:0:0:0:
36,192,105086,1,0,0:0:0:0:
182,192,105086,1,0,0:0:0:0:
402,192,105300,1,0,0:0:0:0:
329,192,105300,1,0,0:0:0:0:
36,192,105300,1,0,0:0:0:0:
182,192,105407,1,0,0:0:0:0:
329,192,105515,1,0,0:0:0:0:
475,192,105515,1,0,0:0:0:0:
256,192,105515,1,0,0:0:0:0:
109,192,105515,1,0,0:0:0:0:
182,192,105729,1,0,0:0:0:0:
329,192,105729,1,0,0:0:0:0:
402,192,105729,1,0,0:0:0:0:
36,192,105836,1,0,0:0:0:0:
109,192,105943,1,0,0:0:0:0:
256,192,105943,1,0,0:0:0:0:
402,192,105943,1,0,0:0:0:0:
475,192,106050,1,0,0:0:0:0:
109,192,106157,1,0,0:0:0:0:
329,192,106265,1,0,0:0:0:0:
402,192,106265,128,0,106586:0:0:0:0:
36,192,106372,1,0,0:0:0:0:
256,192,106372,1,0,0:0:0:0:
182,192,106479,1,0,0:0:0:0:
109,192,106586,1,0,0:0:0:0:
475,192,106586,1,0,0:0:0:0:
182,192,106693,1,0,0:0:0:0:
329,192,106693,1,0,0:0:0:0:
36,192,106800,1,0,0:0:0:0:
475,192,106800,1,0,0:0:0:0:
329,192,106907,1,0,0:0:0:0:
402,192,107015,1,0,0:0:0:0:
36,192,107015,1,0,0:0:0:0:
109,192,107015,1,0,0:0:0:0:
182,192,107086,1,0,0:0:0:0:
256,192,107157,1,0,0:0:0:0:
109,192,107229,1,0,0:0:0:0:
329,192,107229,1,0,0:0:0:0:
475,192,107229,128,0,107443:0:0:0:0:
109,192,107443,1,0,0:0:0:0:
329,192,107443,1,0,0:0:0:0:
256,192,107515,1,0,0:0:0:0:
182,192,107586,1,0,0:0:0:0:
475,192,107657,1,0,0:0:0:0:
36,192,107657,1,0,0:0:0:0:
402,192,107657,128,0,107872:0:0:0:0:
36,192,107872,1,0,0:0:0:0:
329,192,107872,1,0,0:0:0:0:
256,192,107943,1,0,0:0:0:0:
182,192,108015,1,0,0:0:0:0:
36,192,108086,1,0,0:0:0:0:
329,192,108086,1,0,0:0:0:0:
475,192,108086,128,0,108515:0:0:0:0:
109,192,108300,1,0,0:0:0:0:
256,192,108300,1,0,0:0:0:0:
182,192,108515,1,0,0:0:0:0:
329,192,108515,1,0,0:0:0:0:
475,192,108622,1,0,0:0:0:0:
256,192,108729,1,0,0:0:0:0:
109,192,108729,1,0,0:0:0:0:
475,192,108800,1,0,0:0:0:0:
402,192,108872,1,0,0:0:0:0:
182,192,108943,1,0,0:0:0:0:
36,192,108943,1,0,0:0:0:0:
329,192,108943,1,0,0:0:0:0:
475,192,109050,1,0,0:0:0:0:
256,192,109157,1,0,0:0:0:0:
109,192,109157,1,0,0:0:0:0:
475,192,109229,1,0,0:0:0:0:
402,192,109300,1,0,0:0:0:0:
329,192,109372,128,0,109479:0:0:0:0:
109,192,109372,128,0,109479:0:0:0:0:
109,192,109586,128,0,109693:0:0:0:0:
329,192,109586,128,0,109693:0:0:0:0:
182,192,109800,128,0,109907:0:0:0:0:
402,192,109800,128,0,109907:0:0:0:0:
256,192,110015,128,0,110122:0:0:0:0:
402,192,110015,128,0,110122:0:0:0:0:
36,192,110015,1,0,0:0:0:0:
109,192,110086,1,0,0:0:0:0:
182,192,110157,1,0,0:0:0:0:
36,192,110229,1,0,0:0:0:0:
475,192,110229,128,0,110443:0:0:0:0:
256,192,110229,1,0,0:0:0:0:
329,192,110336,128,0,110443:0:0:0:0:
182,192,110443,1,0,0:0:0:0:
329,192,110550,128,0,111086:0:0:0:0:
475,192,110550,128,0,111086:0:0:0:0:
256,192,110657,1,0,0:0:0:0:
109,192,110657,1,0,0:0:0:0:
402,192,110872,128,0,111086:0:0:0:0:
109,192,110872,1,0,0:0:0:0:
36,192,111086,128,0,111300:0:0:0:0:
256,192,111086,1,0,0:0:0:0:
182,192,111193,128,0,111300:0:0:0:0:
475,192,111300,1,0,0:0:0:0:
329,192,111300,1,0,0:0:0:0:
182,192,111407,128,0,111943:0:0:0:0:
36,192,111407,128,0,111943:0:0:0:0:
256,192,111515,1,0,0:0:0:0:
402,192,111515,1,0,0:0:0:0:
109,192,111729,128,0,111943:0:0:0:0:
402,192,111729,1,0,0:0:0:0:
329,192,111943,128,0,112157:0:0:0:0:
475,192,111943,128,0,112157:0:0:0:0:
182,192,112157,1,0,0:0:0:0:
402,192,112157,1,0,0:0:0:0:
36,192,112265,1,0,0:0:0:0:
109,192,112372,1,0,0:0:0:0:
256,192,112372,1,0,0:0:0:0:
402,192,112372,1,0,0:0:0:0:
329,192,112586,1,0,0:0:0:0:
109,192,112586,1,0,0:0:0:0:
402,192,112586,1,0,0:0:0:0:
475,192,112800,1,0,0:0:0:0:
256,192,112800,1,0,0:0:0:0:
109,192,112800,128,0,113015:0:0:0:0:
402,192,113015,128,0,113443:0:0:0:0:
182,192,113015,1,0,0:0:0:0:
329,192,113122,128,0,113443:0:0:0:0:
475,192,113122,128,0,113443:0:0:0:0:
182,192,113229,1,0,0:0:0:0:
36,192,113229,1,0,0:0:0:0:
109,192,113443,1,0,0:0:0:0:
182,192,113550,1,0,0:0:0:0:
36,192,113657,128,0,113872:0:0:0:0:
475,192,113657,1,0,0:0:0:0:
256,192,113657,1,0,0:0:0:0:
182,192,113765,128,0,113872:0:0:0:0:
329,192,113872,1,0,0:0:0:0:
36,192,113979,128,0,114515:0:0:0:0:
182,192,113979,128,0,114515:0:0:0:0:
402,192,114086,1,0,0:0:0:0:
256,192,114086,1,0,0:0:0:0:
109,192,114300,128,0,114515:0:0:0:0:
402,192,114300,1,0,0:0:0:0:
475,192,114515,128,0,114729:0:0:0:0:
256,192,114515,1,0,0:0:0:0:
329,192,114622,128,0,114729:0:0:0:0:
36,192,114729,1,0,0:0:0:0:
182,192,114729,1,0,0:0:0:0:
329,192,114836,128,0,115372:0:0:0:0:
475,192,114836,128,0,115372:0:0:0:0:
256,192,114943,1,0,0:0:0:0:
109,192,114943,1,0,0:0:0:0:
402,192,115157,128,0,115372:0:0:0:0:
109,192,115157,1,0,0:0:0:0:
256,192,115372,1,0,0:0:0:0:
36,192,115372,128,0,115586:0:0:0:0:
182,192,115479,128,0,115586:0:0:0:0:
402,192,115586,1,0,0:0:0:0:
329,192,115693,128,0,116229:0:0:0:0:
36,192,115693,128,0,116015:0:0:0:0:
182,192,115800,1,0,0:0:0:0:
475,192,115800,1,0,0:0:0:0:
475,192,116015,1,0,0:0:0:0:
109,192,116015,128,0,117086:0:0:0:0:
256,192,116229,1,0,0:0:0:0:
402,192,116229,128,0,117086:0:0:0:0:
182,192,116443,1,0,0:0:0:0:
36,192,116443,1,0,0:0:0:0:
329,192,116550,1,0,0:0:0:0:
256,192,116657,1,0,0:0:0:0:
475,192,116872,1,0,0:0:0:0:
329,192,116872,1,0,0:0:0:0:
256,192,117086,1,0,0:0:0:0:
36,192,117086,1,0,0:0:0:0:
475,192,117086,1,0,0:0:0:0:
329,192,117300,1,0,0:0:0:0:
109,192,117407,1,0,0:0:0:0:
402,192,117515,1,0,0:0:0:0:
256,192,117515,1,0,0:0:0:0:
182,192,117729,1,0,0:0:0:0:
402,192,117729,1,0,0:0:0:0:
329,192,117943,1,0,0:0:0:0:
182,192,118050,1,0,0:0:0:0:
475,192,118157,1,0,0:0:0:0:
329,192,118265,1,0,0:0:0:0:
109,192,118372,1,0,0:0:0:0:
256,192,118372,1,0,0:0:0:0:
109,192,118586,1,0,0:0:0:0:
329,192,118586,1,0,0:0:0:0:
36,192,118800,1,0,0:0:0:0:
182,192,118800,1,0,0:0:0:0:
475,192,118800,1,0,0:0:0:0:
329,192,119015,1,0,0:0:0:0:
109,192,119122,1,0,0:0:0:0:
402,192,119229,1,0,0:0:0:0:
256,192,119229,1,0,0:0:0:0:
329,192,119443,1,0,0:0:0:0:
182,192,119443,1,0,0:0:0:0:
109,192,119657,1,0,0:0:0:0:
329,192,119657,1,0,0:0:0:0:
402,192,119765,1,0,0:0:0:0:
182,192,119872,1,0,0:0:0:0:
329,192,119979,1,0,0:0:0:0:
402,192,120086,1,0,0:0:0:0:
182,192,120086,1,0,0:0:0:0:
109,192,120300,1,0,0:0:0:0:
329,192,120300,1,0,0:0:0:0:
475,192,120407,1,0,0:0:0:0:
402,192,120515,1,0,0:0:0:0:
182,192,120515,1,0,0:0:0:0:
36,192,120515,1,0,0:0:0:0:
475,192,120729,1,0,0:0:0:0:
329,192,120836,1,0,0:0:0:0:
402,192,120943,1,0,0:0:0:0:
109,192,120943,1,0,0:0:0:0:
182,192,121157,1,0,0:0:0:0:
402,192,121157,1,0,0:0:0:0:
256,192,121265,1,0,0:0:0:0:
109,192,121372,1,0,0:0:0:0:
329,192,121372,1,0,0:0:0:0:
475,192,121372,1,0,0:0:0:0:
182,192,121479,1,0,0:0:0:0:
402,192,121586,1,0,0:0:0:0:
256,192,121693,1,0,0:0:0:0:
329,192,121800,1,0,0:0:0:0:
109,192,121800,1,0,0:0:0:0:
256,192,122015,1,0,0:0:0:0:
109,192,122015,1,0,0:0:0:0:
182,192,122229,1,0,0:0:0:0:
36,192,122229,1,0,0:0:0:0:
475,192,122229,1,0,0:0:0:0:
329,192,122443,1,0,0:0:0:0:
182,192,122550,1,0,0:0:0:0:
402,192,122657,1,0,0:0:0:0:
256,192,122657,1,0,0:0:0:0:
402,192,122872,1,0,0:0:0:0:
182,192,122872,1,0,0:0:0:0:
329,192,122979,1,0,0:0:0:0:
109,192,123086,1,0,0:0:0:0:
475,192,123086,1,0,0:0:0:0:
402,192,123193,1,0,0:0:0:0:
329,192,123300,1,0,0:0:0:0:
109,192,123300,1,0,0:0:0:0:
256,192,123407,1,0,0:0:0:0:
36,192,123515,1,0,0:0:0:0:
109,192,123622,1,0,0:0:0:0:
182,192,123729,1,0,0:0:0:0:
402,192,123729,1,0,0:0:0:0:
256,192,123836,1,0,0:0:0:0:
402,192,123943,1,0,0:0:0:0:
36,192,123943,1,0,0:0:0:0:
182,192,123943,1,0,0:0:0:0:
475,192,123943,1,0,0:0:0:0:
329,192,124157,1,0,0:0:0:0:
182,192,124265,1,0,0:0:0:0:
402,192,124372,1,0,0:0:0:0:
256,192,124372,1,0,0:0:0:0:
182,192,124586,1,0,0:0:0:0:
402,192,124586,1,0,0:0:0:0:
329,192,124693,1,0,0:0:0:0:
256,192,124800,1,0,0:0:0:0:
36,192,124800,1,0,0:0:0:0:
402,192,124907,1,0,0:0:0:0:
182,192,125015,1,0,0:0:0:0:
329,192,125122,1,0,0:0:0:0:
256,192,125229,1,0,0:0:0:0:
109,192,125229,1,0,0:0:0:0:
109,192,125443,1,0,0:0:0:0:
402,192,125443,1,0,0:0:0:0:
182,192,125657,1,0,0:0:0:0:
329,192,125657,1,0,0:0:0:0:
475,192,125657,1,0,0:0:0:0:
182,192,125872,1,0,0:0:0:0:
329,192,125979,1,0,0:0:0:0:
256,192,126086,1,0,0:0:0:0:
36,192,126086,1,0,0:0:0:0:
36,192,126300,1,0,0:0:0:0:
402,192,126300,1,0,0:0:0:0:
329,192,126407,1,0,0:0:0:0:
182,192,126515,1,0,0:0:0:0:
475,192,126515,1,0,0:0:0:0:
329,192,126622,1,0,0:0:0:0:
109,192,126729,1,0,0:0:0:0:
256,192,126836,1,0,0:0:0:0:
402,192,126943,1,0,0:0:0:0:
182,192,126943,1,0,0:0:0:0:
109,192,127157,1,0,0:0:0:0:
256,192,127265,1,0,0:0:0:0:
182,192,127372,1,0,0:0:0:0:
36,192,127372,1,0,0:0:0:0:
475,192,127372,1,0,0:0:0:0:
402,192,127479,1,0,0:0:0:0:
329,192,127586,1,0,0:0:0:0:
475,192,127693,1,0,0:0:0:0:
329,192,127800,1,0,0:0:0:0:
182,192,127800,1,0,0:0:0:0:
109,192,128015,1,0,0:0:0:0:
329,192,128015,1,0,0:0:0:0:
182,192,128122,1,0,0:0:0:0:
36,192,128229,1,0,0:0:0:0:
256,192,128229,1,0,0:0:0:0:
475,192,128229,1,0,0:0:0:0:
402,192,128336,1,0,0:0:0:0:
329,192,128443,1,0,0:0:0:0:
475,192,128550,1,0,0:0:0:0:
329,192,128657,1,0,0:0:0:0:
109,192,128657,1,0,0:0:0:0:
329,192,128872,1,0,0:0:0:0:
36,192,128872,1,0,0:0:0:0:
109,192,128979,1,0,0:0:0:0:
475,192,129086,1,0,0:0:0:0:
182,192,129086,1,0,0:0:0:0:
329,192,129086,1,0,0:0:0:0:
109,192,129193,1,0,0:0:0:0:
182,192,129300,1,0,0:0:0:0:
256,192,129515,1,0,0:0:0:0:
402,192,129515,1,0,0:0:0:0:
402,192,129729,1,0,0:0:0:0:
182,192,129729,1,0,0:0:0:0:
182,192,129943,1,0,0:0:0:0:
36,192,129943,1,0,0:0:0:0:
329,192,129943,1,0,0:0:0:0:
182,192,130050,1,0,0:0:0:0:
182,192,130157,1,0,0:0:0:0:
402,192,130157,1,0,0:0:0:0:
329,192,130372,1,0,0:0:0:0:
182,192,130372,1,0,0:0:0:0:
402,192,130586,1,0,0:0:0:0:
256,192,130586,1,0,0:0:0:0:
109,192,130586,1,0,0:0:0:0:
182,192,130800,1,0,0:0:0:0:
36,192,130800,1,0,0:0:0:0:
329,192,130800,1,0,0:0:0:0:
475,192,130800,1,0,0:0:0:0:
329,192,131015,1,0,0:0:0:0:
109,192,131015,1,0,0:0:0:0:
402,192,131122,1,0,0:0:0:0:
256,192,131229,1,0,0:0:0:0:
36,192,131229,1,0,0:0:0:0:
182,192,131229,1,0,0:0:0:0:
475,192,131229,1,0,0:0:0:0:
182,192,131443,1,0,0:0:0:0:
475,192,131443,1,0,0:0:0:0:
109,192,131443,1,0,0:0:0:0:
329,192,131550,1,0,0:0:0:0:
475,192,131657,1,0,0:0:0:0:
109,192,131657,1,0,0:0:0:0:
402,192,131765,1,0,0:0:0:0:
182,192,131765,1,0,0:0:0:0:
329,192,131872,1,0,0:0:0:0:
109,192,131872,1,0,0:0:0:0:
182,192,131979,1,0,0:0:0:0:
256,192,132086,1,0,0:0:0:0:
329,192,132086,1,0,0:0:0:0:
475,192,132086,1,0,0:0:0:0:
36,192,132086,1,0,0:0:0:0:
109,192,132300,1,0,0:0:0:0:
329,192,132300,1,0,0:0:0:0:
402,192,132300,1,0,0:0:0:0:
182,192,132515,1,0,0:0:0:0:
36,192,132515,1,0,0:0:0:0:
329,192,132515,1,0,0:0:0:0:
475,192,132515,1,0,0:0:0:0:
182,192,132729,1,0,0:0:0:0:
402,192,132729,1,0,0:0:0:0:
109,192,132836,1,0,0:0:0:0:
256,192,132943,1,0,0:0:0:0:
36,192,132943,1,0,0:0:0:0:
475,192,132943,1,0,0:0:0:0:
329,192,132943,1,0,0:0:0:0:
329,192,133157,1,0,0:0:0:0:
36,192,133157,1,0,0:0:0:0:
182,192,133265,1,0,0:0:0:0:
36,192,133372,1,0,0:0:0:0:
402,192,133372,1,0,0:0:0:0:
109,192,133479,1,0,0:0:0:0:
329,192,133479,1,0,0:0:0:0:
402,192,133586,1,0,0:0:0:0:
182,192,133586,1,0,0:0:0:0:
329,192,133693,1,0,0:0:0:0:
475,192,133800,1,0,0:0:0:0:
256,192,133800,1,0,0:0:0:0:
36,192,133800,1,0,0:0:0:0:
182,192,133800,1,0,0:0:0:0:
182,192,134015,1,0,0:0:0:0:
402,192,134015,1,0,0:0:0:0:
329,192,134122,1,0,0:0:0:0:
182,192,134229,1,0,0:0:0:0:
36,192,134229,1,0,0:0:0:0:
475,192,134229,1,0,0:0:0:0:
329,192,134336,1,0,0:0:0:0:
109,192,134443,1,0,0:0:0:0:
256,192,134443,1,0,0:0:0:0:
475,192,134550,1,0,0:0:0:0:
36,192,134657,1,0,0:0:0:0:
182,192,134657,1,0,0:0:0:0:
329,192,134657,1,0,0:0:0:0:
402,192,134657,1,0,0:0:0:0:
109,192,134872,1,0,0:0:0:0:
256,192,134979,1,0,0:0:0:0:
329,192,135086,1,0,0:0:0:0:
475,192,135086,1,0,0:0:0:0:
109,192,135086,1,0,0:0:0:0:
182,192,135193,1,0,0:0:0:0:
256,192,135300,1,0,0:0:0:0:
402,192,135300,1,0,0:0:0:0:
36,192,135407,1,0,0:0:0:0:
329,192,135515,1,0,0:0:0:0:
475,192,135515,1,0,0:0:0:0:
109,192,135515,1,0,0:0:0:0:
182,192,135515,1,0,0:0:0:0:
402,192,135622,1,0,0:0:0:0:
329,192,135729,1,0,0:0:0:0:
109,192,135729,1,0,0:0:0:0:
256,192,135836,1,0,0:0:0:0:
475,192,135943,1,0,0:0:0:0:
182,192,135943,1,0,0:0:0:0:
109,192,135943,1,0,0:0:0:0:
182,192,136157,1,0,0:0:0:0:
402,192,136157,1,0,0:0:0:0:
329,192,136265,1,0,0:0:0:0:
402,192,136372,1,0,0:0:0:0:
256,192,136372,1,0,0:0:0:0:
182,192,136372,1,0,0:0:0:0:
36,192,136372,1,0,0:0:0:0:
109,192,136586,1,0,0:0:0:0:
329,192,136586,1,0,0:0:0:0:
182,192,136693,1,0,0:0:0:0:
402,192,136693,1,0,0:0:0:0:
109,192,136800,1,0,0:0:0:0:
475,192,136800,1,0,0:0:0:0:
256,192,136907,1,0,0:0:0:0:
402,192,137015,1,0,0:0:0:0:
36,192,137015,1,0,0:0:0:0:
182,192,137122,1,0,0:0:0:0:
256,192,137229,1,0,0:0:0:0:
329,192,137336,1,0,0:0:0:0:
402,192,137443,1,0,0:0:0:0:
109,192,137443,1,0,0:0:0:0:
475,192,137550,1,0,0:0:0:0:
36,192,137657,1,0,0:0:0:0:
256,192,137657,1,0,0:0:0:0:
329,192,137657,1,0,0:0:0:0:
109,192,137657,1,0,0:0:0:0:
329,192,137872,1,0,0:0:0:0:
109,192,137872,1,0,0:0:0:0:
402,192,137979,1,0,0:0:0:0:
256,192,138086,1,0,0:0:0:0:
36,192,138086,1,0,0:0:0:0:
182,192,138086,1,0,0:0:0:0:
475,192,138086,1,0,0:0:0:0:
182,192,138300,1,0,0:0:0:0:
475,192,138300,1,0,0:0:0:0:
109,192,138300,1,0,0:0:0:0:
329,192,138407,1,0,0:0:0:0:
475,192,138515,1,0,0:0:0:0:
109,192,138515,1,0,0:0:0:0:
402,192,138622,1,0,0:0:0:0:
182,192,138622,1,0,0:0:0:0:
329,192,138729,1,0,0:0:0:0:
109,192,138729,1,0,0:0:0:0:
182,192,138836,1,0,0:0:0:0:
256,192,138943,1,0,0:0:0:0:
329,192,138943,1,0,0:0:0:0:
475,192,138943,1,0,0:0:0:0:
36,192,138943,1,0,0:0:0:0:
109,192,139157,1,0,0:0:0:0:
329,192,139157,1,0,0:0:0:0:
402,192,139157,1,0,0:0:0:0:
182,192,139372,1,0,0:0:0:0:
36,192,139372,1,0,0:0:0:0:
329,192,139372,1,0,0:0:0:0:
475,192,139372,1,0,0:0:0:0:
182,192,139586,1,0,0:0:0:0:
402,192,139586,1,0,0:0:0:0:
109,192,139693,1,0,0:0:0:0:
256,192,139800,1,0,0:0:0:0:
36,192,139800,1,0,0:0:0:0:
475,192,139800,1,0,0:0:0:0:
329,192,139800,1,0,0:0:0:0:
329,192,140015,1,0,0:0:0:0:
36,192,140015,1,0,0:0:0:0:
182,192,140122,1,0,0:0:0:0:
36,192,140229,1,0,0:0:0:0:
402,192,140229,1,0,0:0:0:0:
109,192,140336,1,0,0:0:0:0:
329,192,140336,1,0,0:0:0:0:
402,192,140443,1,0,0:0:0:0:
182,192,140443,1,0,0:0:0:0:
329,192,140550,1,0,0:0:0:0:
475,192,140657,1,0,0:0:0:0:
256,192,140657,1,0,0:0:0:0:
36,192,140657,1,0,0:0:0:0:
182,192,140657,1,0,0:0:0:0:
109,192,140872,1,0,0:0:0:0:
329,192,140872,1,0,0:0:0:0:
182,192,140979,1,0,0:0:0:0:
402,192,140979,1,0,0:0:0:0:
36,192,141086,1,0,0:0:0:0:
475,192,141086,1,0,0:0:0:0:
256,192,141086,1,0,0:0:0:0:
329,192,141193,1,0,0:0:0:0:
36,192,141300,1,0,0:0:0:0:
182,192,141300,1,0,0:0:0:0:
475,192,141407,1,0,0:0:0:0:
329,192,141407,1,0,0:0:0:0:
36,192,141515,1,0,0:0:0:0:
182,192,141515,1,0,0:0:0:0:
256,192,141515,1,0,0:0:0:0:
402,192,141515,1,0,0:0:0:0:
329,192,141729,1,0,0:0:0:0:
109,192,141729,1,0,0:0:0:0:
402,192,141729,1,0,0:0:0:0:
182,192,141943,1,0,0:0:0:0:
36,192,141943,1,0,0:0:0:0:
402,192,141943,1,0,0:0:0:0:
329,192,142050,1,0,0:0:0:0:
36,192,142157,1,0,0:0:0:0:
182,192,142157,1,0,0:0:0:0:
329,192,142265,1,0,0:0:0:0:
475,192,142265,1,0,0:0:0:0:
256,192,142372,1,0,0:0:0:0:
109,192,142372,1,0,0:0:0:0:
36,192,142372,1,0,0:0:0:0:
402,192,142372,1,0,0:0:0:0:
329,192,142586,1,0,0:0:0:0:
109,192,142586,1,0,0:0:0:0:
182,192,142586,1,0,0:0:0:0:
256,192,142800,1,0,0:0:0:0:
36,192,142800,1,0,0:0:0:0:
475,192,142800,1,0,0:0:0:0:
329,192,142907,1,0,0:0:0:0:
182,192,142907,1,0,0:0:0:0:
475,192,143015,1,0,0:0:0:0:
109,192,143015,1,0,0:0:0:0:
329,192,143122,1,0,0:0:0:0:
182,192,143122,1,0,0:0:0:0:
256,192,143229,1,0,0:0:0:0:
36,192,143229,1,0,0:0:0:0:
475,192,143229,1,0,0:0:0:0:
109,192,143443,1,0,0:0:0:0:
402,192,143443,1,0,0:0:0:0:
329,192,143550,1,0,0:0:0:0:
182,192,143550,1,0,0:0:0:0:
256,192,143657,1,0,0:0:0:0:
36,192,143657,1,0,0:0:0:0:
475,192,143657,1,0,0:0:0:0:
182,192,143872,1,0,0:0:0:0:
36,192,143872,1,0,0:0:0:0:
329,192,143872,1,0,0:0:0:0:
475,192,143872,1,0,0:0:0:0:
475,192,144086,1,0,0:0:0:0:
36,192,144086,1,0,0:0:0:0:
182,192,144193,1,0,0:0:0:0:
329,192,144193,1,0,0:0:0:0:
402,192,144300,1,0,0:0:0:0:
109,192,144300,1,0,0:0:0:0:
36,192,144515,1,0,0:0:0:0:
475,192,144515,1,0,0:0:0:0:
256,192,144515,128,0,146229:0:0:0:0:
182,192,144515,1,0,0:0:0:0:
329,192,144515,1,0,0:0:0:0:
109,192,144729,1,0,0:0:0:0:
475,192,144836,1,0,0:0:0:0:
36,192,144943,1,0,0:0:0:0:
329,192,144943,1,0,0:0:0:0:
182,192,144943,1,0,0:0:0:0:
402,192,145157,1,0,0:0:0:0:
36,192,145157,1,0,0:0:0:0:
109,192,145372,1,0,0:0:0:0:
475,192,145372,1,0,0:0:0:0:
329,192,145479,1,0,0:0:0:0:
182,192,145586,1,0,0:0:0:0:
402,192,145693,1,0,0:0:0:0:
36,192,145800,1,0,0:0:0:0:
329,192,145800,1,0,0:0:0:0:
182,192,145800,1,0,0:0:0:0:
402,192,146015,1,0,0:0:0:0:
109,192,146015,1,0,0:0:0:0:
329,192,146229,1,0,0:0:0:0:
475,192,146229,1,0,0:0:0:0:
109,192,146229,128,0,147943:0:0:0:0:
329,192,146443,1,0,0:0:0:0:
182,192,146443,1,0,0:0:0:0:
402,192,146550,1,0,0:0:0:0:
36,192,146657,1,0,0:0:0:0:
329,192,146657,1,0,0:0:0:0:
182,192,146657,1,0,0:0:0:0:
475,192,146872,1,0,0:0:0:0:
256,192,146872,1,0,0:0:0:0:
402,192,146979,1,0,0:0:0:0:
182,192,147086,1,0,0:0:0:0:
329,192,147086,1,0,0:0:0:0:
475,192,147193,1,0,0:0:0:0:
329,192,147300,1,0,0:0:0:0:
402,192,147407,1,0,0:0:0:0:
256,192,147515,1,0,0:0:0:0:
36,192,147515,1,0,0:0:0:0:
475,192,147515,1,0,0:0:0:0:
329,192,147729,1,0,0:0:0:0:
475,192,147729,1,0,0:0:0:0:
402,192,147943,128,0,149657:0:0:0:0:
36,192,147943,1,0,0:0:0:0:
182,192,147943,1,0,0:0:0:0:
329,192,148157,1,0,0:0:0:0:
109,192,148157,1,0,0:0:0:0:
256,192,148265,1,0,0:0:0:0:
475,192,148372,1,0,0:0:0:0:
182,192,148372,1,0,0:0:0:0:
36,192,148372,1,0,0:0:0:0:
329,192,148586,1,0,0:0:0:0:
109,192,148586,1,0,0:0:0:0:
256,192,148693,1,0,0:0:0:0:
36,192,148800,1,0,0:0:0:0:
182,192,148800,1,0,0:0:0:0:
329,192,149015,1,0,0:0:0:0:
36,192,149015,1,0,0:0:0:0:
109,192,149122,1,0,0:0:0:0:
182,192,149122,1,0,0:0:0:0:
36,192,149229,1,0,0:0:0:0:
475,192,149229,1,0,0:0:0:0:
256,192,149229,1,0,0:0:0:0:
182,192,149443,1,0,0:0:0:0:
329,192,149443,1,0,0:0:0:0:
256,192,149657,1,0,0:0:0:0:
109,192,149657,1,0,0:0:0:0:
36,192,149657,1,0,0:0:0:0:
475,192,149657,1,0,0:0:0:0:
182,192,149872,1,0,0:0:0:0:
402,192,149872,1,0,0:0:0:0:
109,192,149872,1,0,0:0:0:0:
256,192,150086,1,0,0:0:0:0:
475,192,150086,1,0,0:0:0:0:
36,192,150086,1,0,0:0:0:0:
402,192,150086,1,0,0:0:0:0:
109,192,150300,1,0,0:0:0:0:
329,192,150300,1,0,0:0:0:0:
402,192,150300,1,0,0:0:0:0:
475,192,150515,1,0,0:0:0:0:
109,192,150515,1,0,0:0:0:0:
36,192,150515,1,0,0:0:0:0:
256,192,150515,1,0,0:0:0:0:
402,192,150622,1,0,0:0:0:0:
109,192,150729,1,0,0:0:0:0:
329,192,150729,1,0,0:0:0:0:
256,192,150836,1,0,0:0:0:0:
402,192,150943,1,0,0:0:0:0:
36,192,150943,1,0,0:0:0:0:
475,192,150943,1,0,0:0:0:0:
109,192,151050,1,0,0:0:0:0:
182,192,151157,1,0,0:0:0:0:
256,192,151265,1,0,0:0:0:0:
329,192,151372,1,0,0:0:0:0:
475,192,151372,1,0,0:0:0:0:
36,192,151372,128,0,152872:0:0:0:0:
475,192,151586,1,0,0:0:0:0:
109,192,151586,128,0,152657:0:0:0:0:
402,192,151693,1,0,0:0:0:0:
182,192,151800,128,0,152443:0:0:0:0:
329,192,151800,1,0,0:0:0:0:
475,192,151907,1,0,0:0:0:0:
256,192,151907,128,0,152229:0:0:0:0:
475,192,152122,128,0,152872:0:0:0:0:
329,192,152229,1,0,0:0:0:0:
402,192,152336,1,0,0:0:0:0:
256,192,152443,1,0,0:0:0:0:
329,192,152550,1,0,0:0:0:0:
182,192,152657,1,0,0:0:0:0:
402,192,152657,1,0,0:0:0:0:
256,192,152765,1,0,0:0:0:0:
109,192,152872,1,0,0:0:0:0:
329,192,152872,1,0,0:0:0:0:
182,192,152979,1,0,0:0:0:0:
475,192,153086,128,0,154586:0:0:0:0:
36,192,153086,1,0,0:0:0:0:
402,192,153193,128,0,154372:0:0:0:0:
182,192,153193,1,0,0:0:0:0:
329,192,153407,128,0,154157:0:0:0:0:
182,192,153407,1,0,0:0:0:0:
36,192,153407,128,0,153729:0:0:0:0:
256,192,153729,1,0,0:0:0:0:
109,192,153729,128,0,153943:0:0:0:0:
182,192,153943,128,0,154157:0:0:0:0:
36,192,153943,128,0,154586:0:0:0:0:
256,192,154157,128,0,154372:0:0:0:0:
109,192,154157,128,0,154800:0:0:0:0:
329,192,154372,1,0,0:0:0:0:
182,192,154372,128,0,154800:0:0:0:0:
329,192,154479,1,0,0:0:0:0:
402,192,154586,1,0,0:0:0:0:
256,192,154586,128,0,154800:0:0:0:0:
402,192,154693,1,0,0:0:0:0:
36,192,154800,128,0,156300:0:0:0:0:
329,192,154800,1,0,0:0:0:0:
402,192,154907,1,0,0:0:0:0:
109,192,155015,128,0,156086:0:0:0:0:
475,192,155015,1,0,0:0:0:0:
329,192,155122,1,0,0:0:0:0:
182,192,155229,128,0,155872:0:0:0:0:
402,192,155229,1,0,0:0:0:0:
256,192,155336,128,0,155657:0:0:0:0:
475,192,155336,1,0,0:0:0:0:
402,192,155443,1,0,0:0:0:0:
475,192,155550,128,0,156300:0:0:0:0:
329,192,155657,1,0,0:0:0:0:
402,192,155765,1,0,0:0:0:0:
256,192,155872,1,0,0:0:0:0:
329,192,155979,1,0,0:0:0:0:
182,192,156086,1,0,0:0:0:0:
402,192,156086,1,0,0:0:0:0:
256,192,156193,1,0,0:0:0:0:
109,192,156300,1,0,0:0:0:0:
329,192,156300,1,0,0:0:0:0:
182,192,156407,1,0,0:0:0:0:
36,192,156515,1,0,0:0:0:0:
475,192,156515,128,0,156729:0:0:0:0:
329,192,156515,1,0,0:0:0:0:
109,192,156729,1,0,0:0:0:0:
256,192,156729,1,0,0:0:0:0:
402,192,156729,1,0,0:0:0:0:
329,192,156836,1,0,0:0:0:0:
182,192,156943,1,0,0:0:0:0:
475,192,156943,1,0,0:0:0:0:
36,192,156943,128,0,157157:0:0:0:0:
109,192,157157,1,0,0:0:0:0:
256,192,157157,1,0,0:0:0:0:
402,192,157157,1,0,0:0:0:0:
329,192,157372,1,0,0:0:0:0:
182,192,157372,1,0,0:0:0:0:
36,192,157372,1,0,0:0:0:0:
475,192,157372,128,0,157586:0:0:0:0:
109,192,157586,1,0,0:0:0:0:
329,192,157586,1,0,0:0:0:0:
182,192,157693,1,0,0:0:0:0:
475,192,157693,1,0,0:0:0:0:
329,192,157800,1,0,0:0:0:0:
109,192,157800,1,0,0:0:0:0:
402,192,157907,1,0,0:0:0:0:
256,192,158015,1,0,0:0:0:0:
109,192,158015,1,0,0:0:0:0:
329,192,158122,1,0,0:0:0:0:
475,192,158229,1,0,0:0:0:0:
182,192,158229,1,0,0:0:0:0:
36,192,158229,128,0,158657:0:0:0:0:
182,192,158443,128,0,158657:0:0:0:0:
402,192,158443,1,0,0:0:0:0:
329,192,158550,1,0,0:0:0:0:
256,192,158657,1,0,0:0:0:0:
109,192,158657,1,0,0:0:0:0:
475,192,158765,128,0,159515:0:0:0:0:
329,192,158765,1,0,0:0:0:0:
109,192,158872,1,0,0:0:0:0:
329,192,158979,128,0,159515:0:0:0:0:
36,192,159086,1,0,0:0:0:0:
182,192,159086,1,0,0:0:0:0:
256,192,159193,1,0,0:0:0:0:
36,192,159300,1,0,0:0:0:0:
109,192,159300,1,0,0:0:0:0:
182,192,159407,1,0,0:0:0:0:
36,192,159515,1,0,0:0:0:0:
256,192,159515,1,0,0:0:0:0:
109,192,159622,1,0,0:0:0:0:
329,192,159729,1,0,0:0:0:0:
475,192,159729,1,0,0:0:0:0:
256,192,159943,1,0,0:0:0:0:
475,192,159943,128,0,160265:0:0:0:0:
36,192,159943,1,0,0:0:0:0:
329,192,160050,128,0,160265:0:0:0:0:
182,192,160157,1,0,0:0:0:0:
109,192,160157,1,0,0:0:0:0:
36,192,160265,128,0,161443:0:0:0:0:
402,192,160265,1,0,0:0:0:0:
256,192,160372,1,0,0:0:0:0:
329,192,160372,1,0,0:0:0:0:
182,192,160479,1,0,0:0:0:0:
109,192,160586,128,0,161443:0:0:0:0:
475,192,160586,1,0,0:0:0:0:
329,192,160586,1,0,0:0:0:0:
256,192,160693,1,0,0:0:0:0:
475,192,160800,1,0,0:0:0:0:
402,192,160800,1,0,0:0:0:0:
182,192,160800,128,0,161443:0:0:0:0:
329,192,160907,1,0,0:0:0:0:
256,192,161015,1,0,0:0:0:0:
475,192,161015,1,0,0:0:0:0:
329,192,161122,1,0,0:0:0:0:
402,192,161229,1,0,0:0:0:0:
475,192,161229,1,0,0:0:0:0:
329,192,161336,1,0,0:0:0:0:
256,192,161443,1,0,0:0:0:0:
402,192,161443,1,0,0:0:0:0:
475,192,161550,1,0,0:0:0:0:
36,192,161657,128,0,162086:0:0:0:0:
182,192,161657,1,0,0:0:0:0:
182,192,161872,128,0,162086:0:0:0:0:
329,192,161872,1,0,0:0:0:0:
402,192,161979,1,0,0:0:0:0:
256,192,162086,1,0,0:0:0:0:
109,192,162086,1,0,0:0:0:0:
475,192,162193,128,0,163157:0:0:0:0:
329,192,162193,1,0,0:0:0:0:
109,192,162300,1,0,0:0:0:0:
329,192,162407,128,0,163157:0:0:0:0:
182,192,162515,1,0,0:0:0:0:
36,192,162515,1,0,0:0:0:0:
256,192,162622,1,0,0:0:0:0:
36,192,162729,1,0,0:0:0:0:
109,192,162729,1,0,0:0:0:0:
182,192,162836,1,0,0:0:0:0:
256,192,162943,1,0,0:0:0:0:
36,192,162943,1,0,0:0:0:0:
109,192,163050,1,0,0:0:0:0:
402,192,163157,1,0,0:0:0:0:
182,192,163157,1,0,0:0:0:0:
402,192,163372,1,0,0:0:0:0:
475,192,163372,1,0,0:0:0:0:
256,192,163372,1,0,0:0:0:0:
36,192,163372,128,0,163693:0:0:0:0:
182,192,163479,128,0,163693:0:0:0:0:
475,192,163586,1,0,0:0:0:0:
329,192,163693,1,0,0:0:0:0:
36,192,163800,1,0,0:0:0:0:
182,192,163800,1,0,0:0:0:0:
256,192,163800,1,0,0:0:0:0:
475,192,163800,128,0,164229:0:0:0:0:
329,192,164015,128,0,164229:0:0:0:0:
109,192,164015,1,0,0:0:0:0:
182,192,164015,1,0,0:0:0:0:
256,192,164229,128,0,164872:0:0:0:0:
402,192,164229,1,0,0:0:0:0:
36,192,164229,1,0,0:0:0:0:
329,192,164336,1,0,0:0:0:0:
182,192,164336,1,0,0:0:0:0:
475,192,164443,1,0,0:0:0:0:
109,192,164443,1,0,0:0:0:0:
475,192,164657,1,0,0:0:0:0:
36,192,164657,1,0,0:0:0:0:
109,192,164765,1,0,0:0:0:0:
402,192,164765,1,0,0:0:0:0:
329,192,164872,1,0,0:0:0:0:
182,192,164872,1,0,0:0:0:0:
256,192,165086,1,0,0:0:0:0:
109,192,165086,1,0,0:0:0:0:
36,192,165086,1,0,0:0:0:0:
475,192,165086,1,0,0:0:0:0:
402,192,165086,1,0,0:0:0:0:
329,192,165193,1,0,0:0:0:0:
109,192,165193,1,0,0:0:0:0:
182,192,165300,1,0,0:0:0:0:
475,192,165407,1,0,0:0:0:0:
256,192,165407,1,0,0:0:0:0:
36,192,165515,1,0,0:0:0:0:
402,192,165515,1,0,0:0:0:0:
329,192,165515,1,0,0:0:0:0:
402,192,165729,1,0,0:0:0:0:
36,192,165729,1,0,0:0:0:0:
182,192,165836,1,0,0:0:0:0:
402,192,165943,1,0,0:0:0:0:
329,192,165943,1,0,0:0:0:0:
109,192,165943,1,0,0:0:0:0:
475,192,165943,1,0,0:0:0:0:
182,192,166050,1,0,0:0:0:0:
329,192,166157,1,0,0:0:0:0:
36,192,166157,1,0,0:0:0:0:
402,192,166157,1,0,0:0:0:0:
182,192,166265,1,0,0:0:0:0:
329,192,166372,1,0,0:0:0:0:
402,192,166372,1,0,0:0:0:0:
36,192,166372,1,0,0:0:0:0:
109,192,166372,1,0,0:0:0:0:
402,192,166586,1,0,0:0:0:0:
109,192,166586,1,0,0:0:0:0:
256,192,166693,1,0,0:0:0:0:
182,192,166693,1,0,0:0:0:0:
329,192,166800,1,0,0:0:0:0:
475,192,166800,1,0,0:0:0:0:
36,192,166800,1,0,0:0:0:0:
109,192,166907,1,0,0:0:0:0:
329,192,166907,1,0,0:0:0:0:
402,192,167015,1,0,0:0:0:0:
475,192,167122,1,0,0:0:0:0:
256,192,167122,1,0,0:0:0:0:
182,192,167229,1,0,0:0:0:0:
36,192,167229,1,0,0:0:0:0:
329,192,167229,1,0,0:0:0:0:
329,192,167443,1,0,0:0:0:0:
109,192,167443,1,0,0:0:0:0:
256,192,167550,1,0,0:0:0:0:
109,192,167657,1,0,0:0:0:0:
329,192,167657,1,0,0:0:0:0:
475,192,167657,1,0,0:0:0:0:
402,192,167657,1,0,0:0:0:0:
182,192,167765,1,0,0:0:0:0:
329,192,167872,1,0,0:0:0:0:
475,192,167872,1,0,0:0:0:0:
109,192,167872,1,0,0:0:0:0:
182,192,167979,1,0,0:0:0:0:
329,192,168086,1,0,0:0:0:0:
36,192,168086,1,0,0:0:0:0:
402,192,168086,1,0,0:0:0:0:
109,192,168086,1,0,0:0:0:0:
182,192,168193,1,0,0:0:0:0:
402,192,168300,1,0,0:0:0:0:
256,192,168300,1,0,0:0:0:0:
182,192,168407,1,0,0:0:0:0:
329,192,168515,1,0,0:0:0:0:
475,192,168515,1,0,0:0:0:0:
36,192,168515,1,0,0:0:0:0:
329,192,168622,1,0,0:0:0:0:
182,192,168622,1,0,0:0:0:0:
109,192,168729,1,0,0:0:0:0:
475,192,168836,1,0,0:0:0:0:
256,192,168836,1,0,0:0:0:0:
36,192,168943,1,0,0:0:0:0:
329,192,168943,1,0,0:0:0:0:
182,192,168943,1,0,0:0:0:0:
182,192,169157,1,0,0:0:0:0:
402,192,169157,1,0,0:0:0:0:
256,192,169265,1,0,0:0:0:0:
475,192,169372,1,0,0:0:0:0:
36,192,169372,1,0,0:0:0:0:
329,192,169372,1,0,0:0:0:0:
329,192,169479,1,0,0:0:0:0:
182,192,169479,1,0,0:0:0:0:
109,192,169586,1,0,0:0:0:0:
256,192,169693,1,0,0:0:0:0:
475,192,169693,1,0,0:0:0:0:
36,192,169800,1,0,0:0:0:0:
329,192,169800,1,0,0:0:0:0:
182,192,169800,1,0,0:0:0:0:
256,192,170015,1,0,0:0:0:0:
402,192,170015,1,0,0:0:0:0:
36,192,170015,1,0,0:0:0:0:
475,192,170229,1,0,0:0:0:0:
36,192,170229,1,0,0:0:0:0:
329,192,170229,1,0,0:0:0:0:
109,192,170229,1,0,0:0:0:0:
182,192,170336,1,0,0:0:0:0:
402,192,170443,1,0,0:0:0:0:
36,192,170443,1,0,0:0:0:0:
329,192,170443,1,0,0:0:0:0:
256,192,170550,1,0,0:0:0:0:
182,192,170657,1,0,0:0:0:0:
36,192,170657,1,0,0:0:0:0:
475,192,170657,1,0,0:0:0:0:
402,192,170657,1,0,0:0:0:0:
329,192,170765,1,0,0:0:0:0:
109,192,170872,1,0,0:0:0:0:
402,192,170872,1,0,0:0:0:0:
182,192,170872,1,0,0:0:0:0:
256,192,170979,1,0,0:0:0:0:
402,192,171086,1,0,0:0:0:0:
329,192,171086,1,0,0:0:0:0:
182,192,171086,1,0,0:0:0:0:
36,192,171086,1,0,0:0:0:0:
36,192,171300,1,0,0:0:0:0:
329,192,171300,1,0,0:0:0:0:
182,192,171300,1,0,0:0:0:0:
475,192,171407,1,0,0:0:0:0:
402,192,171515,1,0,0:0:0:0:
109,192,171515,1,0,0:0:0:0:
256,192,171515,1,0,0:0:0:0:
329,192,171622,1,0,0:0:0:0:
36,192,171729,1,0,0:0:0:0:
182,192,171729,1,0,0:0:0:0:
329,192,171836,1,0,0:0:0:0:
109,192,171943,1,0,0:0:0:0:
256,192,171943,1,0,0:0:0:0:
402,192,171943,1,0,0:0:0:0:
475,192,171943,1,0,0:0:0:0:
109,192,172050,1,0,0:0:0:0:
329,192,172050,1,0,0:0:0:0:
182,192,172157,1,0,0:0:0:0:
256,192,172265,1,0,0:0:0:0:
475,192,172265,1,0,0:0:0:0:
36,192,172372,1,0,0:0:0:0:
182,192,172372,1,0,0:0:0:0:
329,192,172372,1,0,0:0:0:0:
402,192,172479,1,0,0:0:0:0:
329,192,172586,1,0,0:0:0:0:
109,192,172586,1,0,0:0:0:0:
256,192,172693,1,0,0:0:0:0:
329,192,172800,1,0,0:0:0:0:
109,192,172800,1,0,0:0:0:0:
402,192,172800,1,0,0:0:0:0:
475,192,172800,1,0,0:0:0:0:
182,192,172907,1,0,0:0:0:0:
329,192,173015,1,0,0:0:0:0:
36,192,173015,1,0,0:0:0:0:
402,192,173015,1,0,0:0:0:0:
182,192,173122,1,0,0:0:0:0:
402,192,173229,1,0,0:0:0:0:
36,192,173229,1,0,0:0:0:0:
329,192,173229,1,0,0:0:0:0:
109,192,173229,1,0,0:0:0:0:
402,192,173443,1,0,0:0:0:0:
182,192,173443,1,0,0:0:0:0:
256,192,173550,1,0,0:0:0:0:
329,192,173657,1,0,0:0:0:0:
475,192,173657,1,0,0:0:0:0:
36,192,173657,1,0,0:0:0:0:
109,192,173765,1,0,0:0:0:0:
329,192,173765,1,0,0:0:0:0:
402,192,173872,1,0,0:0:0:0:
256,192,173979,1,0,0:0:0:0:
475,192,173979,1,0,0:0:0:0:
36,192,174086,1,0,0:0:0:0:
182,192,174086,1,0,0:0:0:0:
329,192,174086,1,0,0:0:0:0:
402,192,174193,1,0,0:0:0:0:
256,192,174300,1,0,0:0:0:0:
109,192,174300,1,0,0:0:0:0:
182,192,174407,1,0,0:0:0:0:
475,192,174515,1,0,0:0:0:0:
329,192,174515,1,0,0:0:0:0:
109,192,174515,1,0,0:0:0:0:
402,192,174515,1,0,0:0:0:0:
182,192,174622,1,0,0:0:0:0:
475,192,174729,1,0,0:0:0:0:
36,192,174729,1,0,0:0:0:0:
329,192,174729,1,0,0:0:0:0:
182,192,174836,1,0,0:0:0:0:
36,192,174943,1,0,0:0:0:0:
329,192,174943,1,0,0:0:0:0:
402,192,174943,1,0,0:0:0:0:
182,192,175050,1,0,0:0:0:0:
329,192,175157,1,0,0:0:0:0:
109,192,175157,1,0,0:0:0:0:
182,192,175265,1,0,0:0:0:0:
402,192,175265,1,0,0:0:0:0:
475,192,175372,1,0,0:0:0:0:
329,192,175372,1,0,0:0:0:0:
36,192,175372,1,0,0:0:0:0:
329,192,175479,1,0,0:0:0:0:
182,192,175479,1,0,0:0:0:0:
109,192,175586,1,0,0:0:0:0:
402,192,175693,1,0,0:0:0:0:
256,192,175693,1,0,0:0:0:0:
36,192,175800,1,0,0:0:0:0:
182,192,175800,1,0,0:0:0:0:
329,192,175800,1,0,0:0:0:0:
402,192,175907,1,0,0:0:0:0:
329,192,176015,1,0,0:0:0:0:
36,192,176015,1,0,0:0:0:0:
256,192,176122,1,0,0:0:0:0:
475,192,176229,1,0,0:0:0:0:
329,192,176229,1,0,0:0:0:0:
109,192,176229,1,0,0:0:0:0:
402,192,176229,1,0,0:0:0:0:
182,192,176336,1,0,0:0:0:0:
36,192,176443,1,0,0:0:0:0:
475,192,176443,1,0,0:0:0:0:
329,192,176443,1,0,0:0:0:0:
182,192,176550,1,0,0:0:0:0:
36,192,176657,1,0,0:0:0:0:
109,192,176657,1,0,0:0:0:0:
475,192,176657,1,0,0:0:0:0:
329,192,176657,1,0,0:0:0:0:
402,192,176872,1,0,0:0:0:0:
109,192,176872,1,0,0:0:0:0:
256,192,176872,1,0,0:0:0:0:
329,192,177086,1,0,0:0:0:0:
475,192,177086,1,0,0:0:0:0:
109,192,177086,1,0,0:0:0:0:
329,192,177193,1,0,0:0:0:0:
36,192,177193,1,0,0:0:0:0:
402,192,177300,1,0,0:0:0:0:
182,192,177300,1,0,0:0:0:0:
109,192,177407,1,0,0:0:0:0:
475,192,177515,1,0,0:0:0:0:
256,192,177515,1,0,0:0:0:0:
36,192,177515,1,0,0:0:0:0:
402,192,177729,1,0,0:0:0:0:
36,192,177729,1,0,0:0:0:0:
182,192,177729,1,0,0:0:0:0:
256,192,177836,1,0,0:0:0:0:
109,192,177943,1,0,0:0:0:0:
475,192,177943,1,0,0:0:0:0:
329,192,177943,1,0,0:0:0:0:
475,192,178157,1,0,0:0:0:0:
109,192,178157,1,0,0:0:0:0:
329,192,178157,1,0,0:0:0:0:
182,192,178265,1,0,0:0:0:0:
109,192,178372,128,0,178800:0:0:0:0:
329,192,178372,128,0,178586:0:0:0:0:
475,192,178372,128,0,178586:0:0:0:0:
402,192,178586,1,0,0:0:0:0:
256,192,178586,1,0,0:0:0:0:
182,192,178800,1,0,0:0:0:0:
36,192,178800,1,0,0:0:0:0:
329,192,178800,1,0,0:0:0:0:
475,192,178800,1,0,0:0:0:0:
182,192,179015,1,0,0:0:0:0:
36,192,179015,1,0,0:0:0:0:
402,192,179015,1,0,0:0:0:0:
329,192,179122,1,0,0:0:0:0:
256,192,179229,1,0,0:0:0:0:
36,192,179229,1,0,0:0:0:0:
475,192,179229,1,0,0:0:0:0:
182,192,179336,1,0,0:0:0:0:
402,192,179443,1,0,0:0:0:0:
109,192,179443,1,0,0:0:0:0:
329,192,179550,1,0,0:0:0:0:
475,192,179657,1,0,0:0:0:0:
182,192,179657,1,0,0:0:0:0:
36,192,179657,1,0,0:0:0:0:
109,192,179872,1,0,0:0:0:0:
402,192,179872,1,0,0:0:0:0:
182,192,179979,1,0,0:0:0:0:
329,192,179979,1,0,0:0:0:0:
256,192,180086,1,0,0:0:0:0:
36,192,180086,1,0,0:0:0:0:
475,192,180086,1,0,0:0:0:0:
402,192,180193,1,0,0:0:0:0:
329,192,180300,128,0,180729:0:0:0:0:
182,192,180300,128,0,180515:0:0:0:0:
36,192,180515,1,0,0:0:0:0:
182,192,180622,1,0,0:0:0:0:
475,192,180729,1,0,0:0:0:0:
109,192,180729,1,0,0:0:0:0:
402,192,180836,1,0,0:0:0:0:
329,192,180943,1,0,0:0:0:0:
256,192,180943,1,0,0:0:0:0:
36,192,180943,1,0,0:0:0:0:
109,192,181050,1,0,0:0:0:0:
182,192,181157,1,0,0:0:0:0:
475,192,181157,1,0,0:0:0:0:
402,192,181265,1,0,0:0:0:0:
329,192,181372,1,0,0:0:0:0:
109,192,181372,1,0,0:0:0:0:
182,192,181372,1,0,0:0:0:0:
329,192,181586,1,0,0:0:0:0:
182,192,181586,1,0,0:0:0:0:
109,192,181693,1,0,0:0:0:0:
475,192,181693,1,0,0:0:0:0:
256,192,181800,1,0,0:0:0:0:
402,192,181800,1,0,0:0:0:0:
36,192,181800,128,0,182229:0:0:0:0:
256,192,182229,128,0,182872:0:0:0:0:
109,192,182229,1,0,0:0:0:0:
475,192,182229,1,0,0:0:0:0:
402,192,182336,1,0,0:0:0:0:
329,192,182443,1,0,0:0:0:0:
182,192,182443,1,0,0:0:0:0:
402,192,182550,1,0,0:0:0:0:
36,192,182550,1,0,0:0:0:0:
475,192,182657,1,0,0:0:0:0:
109,192,182657,1,0,0:0:0:0:
402,192,182765,1,0,0:0:0:0:
182,192,182765,1,0,0:0:0:0:
36,192,182872,128,0,183086:0:0:0:0:
329,192,182872,1,0,0:0:0:0:
182,192,182979,128,0,183086:0:0:0:0:
329,192,183086,128,0,183729:0:0:0:0:
475,192,183086,1,0,0:0:0:0:
109,192,183086,1,0,0:0:0:0:
182,192,183300,1,0,0:0:0:0:
109,192,183300,1,0,0:0:0:0:
402,192,183407,1,0,0:0:0:0:
36,192,183515,1,0,0:0:0:0:
256,192,183515,1,0,0:0:0:0:
182,192,183622,1,0,0:0:0:0:
109,192,183729,128,0,183943:0:0:0:0:
402,192,183729,1,0,0:0:0:0:
256,192,183836,128,0,183943:0:0:0:0:
402,192,183943,128,0,184586:0:0:0:0:
36,192,183943,1,0,0:0:0:0:
109,192,184050,1,0,0:0:0:0:
182,192,184157,1,0,0:0:0:0:
329,192,184157,1,0,0:0:0:0:
109,192,184265,1,0,0:0:0:0:
36,192,184372,1,0,0:0:0:0:
256,192,184372,1,0,0:0:0:0:
475,192,184372,1,0,0:0:0:0:
109,192,184479,1,0,0:0:0:0:
182,192,184586,128,0,184800:0:0:0:0:
475,192,184586,1,0,0:0:0:0:
329,192,184693,128,0,184800:0:0:0:0:
475,192,184800,128,0,185443:0:0:0:0:
256,192,184800,1,0,0:0:0:0:
36,192,184800,1,0,0:0:0:0:
182,192,184907,1,0,0:0:0:0:
109,192,185015,1,0,0:0:0:0:
329,192,185015,1,0,0:0:0:0:
256,192,185122,1,0,0:0:0:0:
182,192,185229,1,0,0:0:0:0:
402,192,185229,1,0,0:0:0:0:
36,192,185229,1,0,0:0:0:0:
329,192,185336,1,0,0:0:0:0:
256,192,185443,128,0,185657:0:0:0:0:
36,192,185443,1,0,0:0:0:0:
402,192,185550,128,0,185657:0:0:0:0:
109,192,185550,1,0,0:0:0:0:
182,192,185657,128,0,187372:0:0:0:0:
475,192,185657,1,0,0:0:0:0:
329,192,185657,1,0,0:0:0:0:
36,192,185872,1,0,0:0:0:0:
402,192,185872,1,0,0:0:0:0:
329,192,185979,1,0,0:0:0:0:
475,192,186086,1,0,0:0:0:0:
109,192,186086,1,0,0:0:0:0:
256,192,186086,1,0,0:0:0:0:
36,192,186193,1,0,0:0:0:0:
329,192,186193,1,0,0:0:0:0:
402,192,186300,1,0,0:0:0:0:
109,192,186300,1,0,0:0:0:0:
329,192,186407,1,0,0:0:0:0:
36,192,186515,1,0,0:0:0:0:
475,192,186515,1,0,0:0:0:0:
109,192,186515,1,0,0:0:0:0:
329,192,186622,1,0,0:0:0:0:
109,192,186729,1,0,0:0:0:0:
475,192,186729,1,0,0:0:0:0:
36,192,186836,1,0,0:0:0:0:
402,192,186836,1,0,0:0:0:0:
329,192,186836,1,0,0:0:0:0:
109,192,186943,1,0,0:0:0:0:
256,192,186943,1,0,0:0:0:0:
329,192,187050,1,0,0:0:0:0:
36,192,187157,1,0,0:0:0:0:
402,192,187157,1,0,0:0:0:0:
475,192,187157,1,0,0:0:0:0:
329,192,187265,1,0,0:0:0:0:
256,192,187372,1,0,0:0:0:0:
109,192,187372,128,0,187800:0:0:0:0:
475,192,187372,128,0,187479:0:0:0:0:
329,192,187479,128,0,187586:0:0:0:0:
475,192,187586,128,0,187693:0:0:0:0:
182,192,187586,1,0,0:0:0:0:
402,192,187586,1,0,0:0:0:0:
329,192,187693,128,0,187800:0:0:0:0:
36,192,187800,128,0,187907:0:0:0:0:
402,192,187800,128,0,188229:0:0:0:0:
256,192,187800,1,0,0:0:0:0:
182,192,187907,128,0,188015:0:0:0:0:
109,192,187907,1,0,0:0:0:0:
36,192,188015,128,0,188122:0:0:0:0:
329,192,188015,1,0,0:0:0:0:
182,192,188122,128,0,188229:0:0:0:0:
109,192,188229,128,0,188657:0:0:0:0:
475,192,188229,128,0,188336:0:0:0:0:
256,192,188229,1,0,0:0:0:0:
402,192,188336,128,0,188443:0:0:0:0:
329,192,188443,128,0,188550:0:0:0:0:
256,192,188550,128,0,188657:0:0:0:0:
475,192,188550,1,0,0:0:0:0:
402,192,188657,128,0,189086:0:0:0:0:
36,192,188657,128,0,188765:0:0:0:0:
109,192,188765,128,0,188872:0:0:0:0:
182,192,188872,128,0,188979:0:0:0:0:
256,192,188979,128,0,189086:0:0:0:0:
329,192,189086,128,0,189300:0:0:0:0:
182,192,189086,128,0,189300:0:0:0:0:
36,192,189086,128,0,189407:0:0:0:0:
475,192,189086,128,0,189407:0:0:0:0:
256,192,189300,128,0,189515:0:0:0:0:
109,192,189407,128,0,189515:0:0:0:0:
402,192,189407,128,0,189515:0:0:0:0:
36,192,189515,1,0,0:0:0:0:
475,192,189515,128,0,189943:0:0:0:0:
182,192,189515,128,0,189622:0:0:0:0:
329,192,189622,128,0,189729:0:0:0:0:
36,192,189729,128,0,189836:0:0:0:0:
182,192,189729,1,0,0:0:0:0:
329,192,189836,128,0,189943:0:0:0:0:
109,192,189943,128,0,190372:0:0:0:0:
402,192,189943,128,0,190050:0:0:0:0:
182,192,189943,1,0,0:0:0:0:
256,192,190050,128,0,190157:0:0:0:0:
329,192,190157,128,0,190265:0:0:0:0:
256,192,190265,128,0,190372:0:0:0:0:
475,192,190265,1,0,0:0:0:0:
402,192,190372,128,0,190800:0:0:0:0:
182,192,190372,128,0,190479:0:0:0:0:
256,192,190479,128,0,190586:0:0:0:0:
109,192,190586,128,0,190693:0:0:0:0:
36,192,190586,1,0,0:0:0:0:
256,192,190693,128,0,190800:0:0:0:0:
36,192,190800,128,0,191443:0:0:0:0:
329,192,190800,128,0,191550:0:0:0:0:
475,192,190800,1,0,0:0:0:0:
182,192,190907,1,0,0:0:0:0:
402,192,191015,1,0,0:0:0:0:
182,192,191122,1,0,0:0:0:0:
475,192,191229,1,0,0:0:0:0:
256,192,191229,1,0,0:0:0:0:
182,192,191443,128,0,191550:0:0:0:0:
402,192,191443,1,0,0:0:0:0:
256,192,191550,128,0,192515:0:0:0:0:
109,192,191550,1,0,0:0:0:0:
36,192,191657,1,0,0:0:0:0:
475,192,191657,1,0,0:0:0:0:
109,192,191872,1,0,0:0:0:0:
402,192,191872,1,0,0:0:0:0:
329,192,192086,1,0,0:0:0:0:
182,192,192086,1,0,0:0:0:0:
109,192,192300,1,0,0:0:0:0:
402,192,192300,1,0,0:0:0:0:
329,192,192515,1,0,0:0:0:0:
182,192,192515,1,0,0:0:0:0:
475,192,192515,1,0,0:0:0:0:
36,192,192515,128,0,194229:0:0:0:0:
329,192,192729,1,0,0:0:0:0:
182,192,192729,1,0,0:0:0:0:
475,192,192943,1,0,0:0:0:0:
256,192,192943,1,0,0:0:0:0:
109,192,192943,1,0,0:0:0:0:
329,192,193050,1,0,0:0:0:0:
182,192,193157,1,0,0:0:0:0:
329,192,193265,1,0,0:0:0:0:
109,192,193372,1,0,0:0:0:0:
402,192,193586,1,0,0:0:0:0:
182,192,193586,1,0,0:0:0:0:
475,192,193800,1,0,0:0:0:0:
256,192,193800,1,0,0:0:0:0:
109,192,193800,1,0,0:0:0:0:
182,192,194015,1,0,0:0:0:0:
182,192,194229,128,0,195943:0:0:0:0:
329,192,194229,1,0,0:0:0:0:
475,192,194443,1,0,0:0:0:0:
36,192,194443,1,0,0:0:0:0:
475,192,194657,1,0,0:0:0:0:
256,192,194657,1,0,0:0:0:0:
109,192,194657,1,0,0:0:0:0:
329,192,194765,1,0,0:0:0:0:
36,192,194872,1,0,0:0:0:0:
329,192,194979,1,0,0:0:0:0:
109,192,195086,1,0,0:0:0:0:
402,192,195300,1,0,0:0:0:0:
36,192,195300,1,0,0:0:0:0:
329,192,195407,1,0,0:0:0:0:
475,192,195515,1,0,0:0:0:0:
256,192,195515,1,0,0:0:0:0:
109,192,195515,1,0,0:0:0:0:
402,192,195729,1,0,0:0:0:0:
329,192,195729,1,0,0:0:0:0:
329,192,195943,128,0,197657:0:0:0:0:
36,192,195943,1,0,0:0:0:0:
475,192,195943,1,0,0:0:0:0:
182,192,196157,1,0,0:0:0:0:
402,192,196157,1,0,0:0:0:0:
36,192,196372,1,0,0:0:0:0:
256,192,196372,1,0,0:0:0:0:
475,192,196372,1,0,0:0:0:0:
109,192,196479,1,0,0:0:0:0:
402,192,196586,1,0,0:0:0:0:
182,192,196693,1,0,0:0:0:0:
475,192,196800,1,0,0:0:0:0:
182,192,196907,1,0,0:0:0:0:
109,192,197015,1,0,0:0:0:0:
402,192,197015,1,0,0:0:0:0:
36,192,197122,1,0,0:0:0:0:
256,192,197229,1,0,0:0:0:0:
475,192,197229,1,0,0:0:0:0:
109,192,197229,1,0,0:0:0:0:
182,192,197336,1,0,0:0:0:0:
109,192,197443,1,0,0:0:0:0:
36,192,197550,1,0,0:0:0:0:
475,192,197657,128,0,199372:0:0:0:0:
256,192,197657,1,0,0:0:0:0:
329,192,197872,1,0,0:0:0:0:
109,192,197872,1,0,0:0:0:0:
402,192,198086,1,0,0:0:0:0:
256,192,198086,1,0,0:0:0:0:
182,192,198086,1,0,0:0:0:0:
329,192,198300,1,0,0:0:0:0:
36,192,198300,1,0,0:0:0:0:
182,192,198407,1,0,0:0:0:0:
402,192,198515,1,0,0:0:0:0:
109,192,198515,1,0,0:0:0:0:
329,192,198729,1,0,0:0:0:0:
109,192,198729,1,0,0:0:0:0:
402,192,198943,1,0,0:0:0:0:
36,192,198943,1,0,0:0:0:0:
256,192,198943,1,0,0:0:0:0:
109,192,199050,1,0,0:0:0:0:
329,192,199157,1,0,0:0:0:0:
182,192,199157,1,0,0:0:0:0:
256,192,199265,1,0,0:0:0:0:
182,192,199372,1,0,0:0:0:0:
36,192,199372,1,0,0:0:0:0:
402,192,199372,1,0,0:0:0:0:
475,192,199586,1,0,0:0:0:0:
182,192,199586,1,0,0:0:0:0:
329,192,199693,1,0,0:0:0:0:
402,192,199800,1,0,0:0:0:0:
256,192,199800,1,0,0:0:0:0:
36,192,199800,1,0,0:0:0:0:
329,192,199907,1,0,0:0:0:0:
109,192,200015,1,0,0:0:0:0:
402,192,200015,1,0,0:0:0:0:
182,192,200122,1,0,0:0:0:0:
36,192,200229,1,0,0:0:0:0:
402,192,200229,1,0,0:0:0:0:
109,192,200443,1,0,0:0:0:0:
329,192,200443,1,0,0:0:0:0:
475,192,200550,1,0,0:0:0:0:
256,192,200657,1,0,0:0:0:0:
36,192,200657,1,0,0:0:0:0:
402,192,200657,1,0,0:0:0:0:
109,192,200765,1,0,0:0:0:0:
475,192,200872,1,0,0:0:0:0:
182,192,200872,1,0,0:0:0:0:
182,192,201086,1,0,0:0:0:0:
36,192,201086,1,0,0:0:0:0:
402,192,201086,1,0,0:0:0:0:
182,192,201300,1,0,0:0:0:0:
475,192,201300,1,0,0:0:0:0:
329,192,201407,1,0,0:0:0:0:
256,192,201515,1,0,0:0:0:0:
36,192,201515,1,0,0:0:0:0:
402,192,201515,1,0,0:0:0:0:
329,192,201622,1,0,0:0:0:0:
402,192,201729,1,0,0:0:0:0:
109,192,201729,1,0,0:0:0:0:
182,192,201836,1,0,0:0:0:0:
402,192,201943,1,0,0:0:0:0:
109,192,201943,1,0,0:0:0:0:
36,192,202157,1,0,0:0:0:0:
475,192,202157,1,0,0:0:0:0:
182,192,202265,1,0,0:0:0:0:
329,192,202265,1,0,0:0:0:0:
256,192,202372,1,0,0:0:0:0:
109,192,202372,1,0,0:0:0:0:
402,192,202372,1,0,0:0:0:0:
329,192,202586,1,0,0:0:0:0:
475,192,202586,1,0,0:0:0:0:
329,192,202800,1,0,0:0:0:0:
402,192,202800,1,0,0:0:0:0:
109,192,202800,1,0,0:0:0:0:
475,192,203015,1,0,0:0:0:0:
36,192,203015,1,0,0:0:0:0:
475,192,203229,1,0,0:0:0:0:
36,192,203229,1,0,0:0:0:0:
256,192,203229,1,0,0:0:0:0:
402,192,203336,1,0,0:0:0:0:
36,192,203443,1,0,0:0:0:0:
329,192,203550,1,0,0:0:0:0:
36,192,203657,1,0,0:0:0:0:
182,192,203657,1,0,0:0:0:0:
329,192,203765,1,0,0:0:0:0:
109,192,203872,1,0,0:0:0:0:
182,192,203872,1,0,0:0:0:0:
402,192,203979,1,0,0:0:0:0:
329,192,203979,1,0,0:0:0:0:
36,192,204086,1,0,0:0:0:0:
182,192,204086,1,0,0:0:0:0:
475,192,204193,1,0,0:0:0:0:
329,192,204300,1,0,0:0:0:0:
109,192,204300,1,0,0:0:0:0:
402,192,204515,1,0,0:0:0:0:
329,192,204515,128,0,205157:0:0:0:0:
36,192,204515,1,0,0:0:0:0:
109,192,204622,1,0,0:0:0:0:
475,192,204729,1,0,0:0:0:0:
182,192,204729,1,0,0:0:0:0:
256,192,204836,1,0,0:0:0:0:
402,192,204943,1,0,0:0:0:0:
36,192,204943,1,0,0:0:0:0:
109,192,205050,1,0,0:0:0:0:
182,192,205157,1,0,0:0:0:0:
475,192,205157,128,0,206229:0:0:0:0:
256,192,205265,1,0,0:0:0:0:
109,192,205372,1,0,0:0:0:0:
402,192,205372,1,0,0:0:0:0:
182,192,205479,1,0,0:0:0:0:
256,192,205586,1,0,0:0:0:0:
36,192,205586,1,0,0:0:0:0:
329,192,205693,1,0,0:0:0:0:
402,192,205800,1,0,0:0:0:0:
109,192,205800,1,0,0:0:0:0:
329,192,205907,1,0,0:0:0:0:
256,192,206015,1,0,0:0:0:0:
36,192,206015,1,0,0:0:0:0:
109,192,206086,1,0,0:0:0:0:
182,192,206157,1,0,0:0:0:0:
256,192,206229,1,0,0:0:0:0:
36,192,206229,1,0,0:0:0:0:
402,192,206229,1,0,0:0:0:0:
256,192,206550,1,0,0:0:0:0:
475,192,206550,1,0,0:0:0:0:
109,192,206550,1,0,0:0:0:0:
256,192,206872,1,0,0:0:0:0:
402,192,206872,1,0,0:0:0:0:
109,192,206872,1,0,0:0:0:0:
182,192,207515,1,0,0:0:0:0:
36,192,207515,1,0,0:0:0:0:
329,192,207515,1,0,0:0:0:0:
475,192,207515,1,0,0:0:0:0:
182,192,207622,1,0,0:0:0:0:
329,192,207729,1,0,0:0:0:0:
109,192,207729,1,0,0:0:0:0:
402,192,207836,1,0,0:0:0:0:
256,192,207943,1,0,0:0:0:0:
475,192,207943,1,0,0:0:0:0:
36,192,207943,1,0,0:0:0:0:
182,192,208050,1,0,0:0:0:0:
109,192,208157,1,0,0:0:0:0:
402,192,208157,1,0,0:0:0:0:
329,192,208265,1,0,0:0:0:0:
36,192,208372,1,0,0:0:0:0:
475,192,208372,1,0,0:0:0:0:
256,192,208372,1,0,0:0:0:0:
182,192,208479,1,0,0:0:0:0:
109,192,208586,1,0,0:0:0:0:
329,192,208586,1,0,0:0:0:0:
475,192,208693,1,0,0:0:0:0:
256,192,208693,1,0,0:0:0:0:
182,192,208800,1,0,0:0:0:0:
36,192,208800,1,0,0:0:0:0:
402,192,208800,1,0,0:0:0:0:
329,192,208907,1,0,0:0:0:0:
182,192,209015,1,0,0:0:0:0:
475,192,209015,1,0,0:0:0:0:
329,192,209122,1,0,0:0:0:0:
402,192,209229,1,0,0:0:0:0:
109,192,209229,1,0,0:0:0:0:
402,192,209336,1,0,0:0:0:0:
182,192,209336,1,0,0:0:0:0:
36,192,209443,1,0,0:0:0:0:
329,192,209443,1,0,0:0:0:0:
182,192,209550,1,0,0:0:0:0:
256,192,209657,1,0,0:0:0:0:
475,192,209657,1,0,0:0:0:0:
402,192,209765,1,0,0:0:0:0:
109,192,209872,1,0,0:0:0:0:
329,192,209872,1,0,0:0:0:0:
182,192,209979,1,0,0:0:0:0:
475,192,210086,1,0,0:0:0:0:
256,192,210086,1,0,0:0:0:0:
36,192,210086,1,0,0:0:0:0:
109,192,210193,1,0,0:0:0:0:
402,192,210300,1,0,0:0:0:0:
182,192,210300,1,0,0:0:0:0:
256,192,210407,1,0,0:0:0:0:
36,192,210407,1,0,0:0:0:0:
329,192,210515,1,0,0:0:0:0:
475,192,210515,1,0,0:0:0:0:
109,192,210515,1,0,0:0:0:0:
182,192,210622,1,0,0:0:0:0:
36,192,210729,1,0,0:0:0:0:
329,192,210729,1,0,0:0:0:0:
182,192,210836,1,0,0:0:0:0:
329,192,210943,1,0,0:0:0:0:
475,192,210943,1,0,0:0:0:0:
36,192,210943,1,0,0:0:0:0:
329,192,211050,1,0,0:0:0:0:
109,192,211157,1,0,0:0:0:0:
182,192,211157,1,0,0:0:0:0:
329,192,211265,1,0,0:0:0:0:
256,192,211372,1,0,0:0:0:0:
36,192,211372,1,0,0:0:0:0:
475,192,211372,1,0,0:0:0:0:
402,192,211479,1,0,0:0:0:0:
329,192,211586,1,0,0:0:0:0:
109,192,211586,1,0,0:0:0:0:
402,192,211693,1,0,0:0:0:0:
182,192,211800,1,0,0:0:0:0:
36,192,211800,1,0,0:0:0:0:
475,192,211800,1,0,0:0:0:0:
182,192,211907,1,0,0:0:0:0:
402,192,212015,1,0,0:0:0:0:
329,192,212015,1,0,0:0:0:0:
182,192,212122,1,0,0:0:0:0:
256,192,212229,1,0,0:0:0:0:
475,192,212229,1,0,0:0:0:0:
36,192,212229,1,0,0:0:0:0:
109,192,212336,1,0,0:0:0:0:
182,192,212443,1,0,0:0:0:0:
402,192,212443,1,0,0:0:0:0:
109,192,212550,1,0,0:0:0:0:
36,192,212657,1,0,0:0:0:0:
329,192,212657,1,0,0:0:0:0:
475,192,212657,1,0,0:0:0:0:
109,192,212872,1,0,0:0:0:0:
256,192,212872,1,0,0:0:0:0:
402,192,212872,1,0,0:0:0:0:
329,192,212979,1,0,0:0:0:0:
182,192,213086,1,0,0:0:0:0:
36,192,213086,1,0,0:0:0:0:
475,192,213086,1,0,0:0:0:0:
109,192,213300,1,0,0:0:0:0:
256,192,213300,1,0,0:0:0:0:
402,192,213300,1,0,0:0:0:0:
182,192,213407,1,0,0:0:0:0:
36,192,213515,1,0,0:0:0:0:
329,192,213515,1,0,0:0:0:0:
475,192,213515,1,0,0:0:0:0:
109,192,213729,1,0,0:0:0:0:
182,192,213729,1,0,0:0:0:0:
329,192,213836,1,0,0:0:0:0:
402,192,213836,1,0,0:0:0:0:
182,192,213943,1,0,0:0:0:0:
36,192,213943,1,0,0:0:0:0:
329,192,214050,1,0,0:0:0:0:
182,192,214157,1,0,0:0:0:0:
36,192,214157,1,0,0:0:0:0:
329,192,214265,1,0,0:0:0:0:
256,192,214372,1,0,0:0:0:0:
109,192,214372,1,0,0:0:0:0:
475,192,214372,1,0,0:0:0:0:
109,192,214479,1,0,0:0:0:0:
329,192,214586,1,0,0:0:0:0:
182,192,214693,1,0,0:0:0:0:
402,192,214800,1,0,0:0:0:0:
36,192,214800,1,0,0:0:0:0:
109,192,214800,1,0,0:0:0:0:
256,192,214907,1,0,0:0:0:0:
475,192,215015,1,0,0:0:0:0:
182,192,215015,1,0,0:0:0:0:
329,192,215122,1,0,0:0:0:0:
182,192,215229,1,0,0:0:0:0:
36,192,215229,1,0,0:0:0:0:
475,192,215229,1,0,0:0:0:0:
402,192,215336,1,0,0:0:0:0:
256,192,215443,1,0,0:0:0:0:
109,192,215443,1,0,0:0:0:0:
402,192,215550,1,0,0:0:0:0:
329,192,215550,1,0,0:0:0:0:
182,192,215657,1,0,0:0:0:0:
36,192,215657,1,0,0:0:0:0:
475,192,215657,1,0,0:0:0:0:
329,192,215765,1,0,0:0:0:0:
182,192,215872,1,0,0:0:0:0:
475,192,215872,1,0,0:0:0:0:
329,192,215979,1,0,0:0:0:0:
109,192,215979,1,0,0:0:0:0:
402,192,216086,1,0,0:0:0:0:
256,192,216086,1,0,0:0:0:0:
36,192,216086,1,0,0:0:0:0:
402,192,216193,1,0,0:0:0:0:
182,192,216300,1,0,0:0:0:0:
329,192,216407,1,0,0:0:0:0:
109,192,216515,1,0,0:0:0:0:
402,192,216515,1,0,0:0:0:0:
475,192,216515,1,0,0:0:0:0:
256,192,216622,1,0,0:0:0:0:
36,192,216729,1,0,0:0:0:0:
329,192,216729,1,0,0:0:0:0:
182,192,216836,1,0,0:0:0:0:
329,192,216943,1,0,0:0:0:0:
475,192,216943,1,0,0:0:0:0:
36,192,216943,1,0,0:0:0:0:
109,192,217050,1,0,0:0:0:0:
402,192,217157,1,0,0:0:0:0:
256,192,217157,1,0,0:0:0:0:
182,192,217265,1,0,0:0:0:0:
109,192,217265,1,0,0:0:0:0:
36,192,217372,1,0,0:0:0:0:
329,192,217372,1,0,0:0:0:0:
475,192,217372,1,0,0:0:0:0:
182,192,217479,1,0,0:0:0:0:
36,192,217586,1,0,0:0:0:0:
329,192,217586,1,0,0:0:0:0:
182,192,217693,1,0,0:0:0:0:
256,192,217800,1,0,0:0:0:0:
475,192,217800,1,0,0:0:0:0:
109,192,217800,1,0,0:0:0:0:
109,192,217907,1,0,0:0:0:0:
329,192,218015,1,0,0:0:0:0:
182,192,218122,1,0,0:0:0:0:
402,192,218229,1,0,0:0:0:0:
36,192,218229,1,0,0:0:0:0:
109,192,218229,1,0,0:0:0:0:
256,192,218336,1,0,0:0:0:0:
475,192,218443,1,0,0:0:0:0:
182,192,218443,1,0,0:0:0:0:
329,192,218550,1,0,0:0:0:0:
402,192,218657,1,0,0:0:0:0:
256,192,218657,1,0,0:0:0:0:
36,192,218657,1,0,0:0:0:0:
182,192,218765,1,0,0:0:0:0:
329,192,218872,1,0,0:0:0:0:
475,192,218872,1,0,0:0:0:0:
182,192,218979,1,0,0:0:0:0:
256,192,219086,1,0,0:0:0:0:
109,192,219086,128,0,219515:0:0:0:0:
402,192,219086,128,0,219515:0:0:0:0:
182,192,219300,128,0,219515:0:0:0:0:
329,192,219300,128,0,219515:0:0:0:0:
475,192,220586,1,0,0:0:0:0:
329,192,220586,1,0,0:0:0:0:
182,192,220586,1,0,0:0:0:0:
109,192,220586,1,0,0:0:0:0:
36,192,220800,1,0,0:0:0:0:
182,192,220800,1,0,0:0:0:0:
329,192,220800,1,0,0:0:0:0:
402,192,220800,1,0,0:0:0:0:
475,192,221229,1,0,0:0:0:0:
329,192,221229,1,0,0:0:0:0:
182,192,221229,1,0,0:0:0:0:
36,192,221229,1,0,0:0:0:0:
329,192,221336,1,0,0:0:0:0:
109,192,221336,1,0,0:0:0:0:
256,192,221443,1,0,0:0:0:0:
475,192,221443,1,0,0:0:0:0:
109,192,221550,1,0,0:0:0:0:
402,192,221550,1,0,0:0:0:0:
109,192,221657,1,0,0:0:0:0:
182,192,221657,1,0,0:0:0:0:
329,192,221657,1,0,0:0:0:0:
475,192,221765,1,0,0:0:0:0:
182,192,221872,1,0,0:0:0:0:
256,192,221872,1,0,0:0:0:0:
36,192,221872,1,0,0:0:0:0:
475,192,221979,1,0,0:0:0:0:
182,192,221979,1,0,0:0:0:0:
109,192,222086,1,0,0:0:0:0:
329,192,222086,1,0,0:0:0:0:
402,192,222086,1,0,0:0:0:0:
182,192,222193,1,0,0:0:0:0:
402,192,222193,1,0,0:0:0:0:
256,192,222300,1,0,0:0:0:0:
36,192,222300,1,0,0:0:0:0:
402,192,222407,1,0,0:0:0:0:
182,192,222407,1,0,0:0:0:0:
329,192,222515,1,0,0:0:0:0:
109,192,222515,1,0,0:0:0:0:
475,192,222622,1,0,0:0:0:0:
402,192,222729,1,0,0:0:0:0:
182,192,222729,1,0,0:0:0:0:
36,192,222836,1,0,0:0:0:0:
329,192,222836,1,0,0:0:0:0:
256,192,222943,1,0,0:0:0:0:
109,192,222943,1,0,0:0:0:0:
475,192,222943,1,0,0:0:0:0:
329,192,223050,1,0,0:0:0:0:
109,192,223050,1,0,0:0:0:0:
36,192,223157,1,0,0:0:0:0:
256,192,223157,1,0,0:0:0:0:
109,192,223265,1,0,0:0:0:0:
402,192,223265,1,0,0:0:0:0:
402,192,223372,1,0,0:0:0:0:
329,192,223372,1,0,0:0:0:0:
182,192,223372,1,0,0:0:0:0:
36,192,223479,1,0,0:0:0:0:
475,192,223586,1,0,0:0:0:0:
109,192,223586,1,0,0:0:0:0:
329,192,223586,1,0,0:0:0:0:
329,192,223693,1,0,0:0:0:0:
402,192,223800,1,0,0:0:0:0:
182,192,223800,1,0,0:0:0:0:
36,192,223800,1,0,0:0:0:0:
182,192,223907,1,0,0:0:0:0:
329,192,223907,1,0,0:0:0:0:
475,192,224015,1,0,0:0:0:0:
109,192,224015,1,0,0:0:0:0:
329,192,224122,1,0,0:0:0:0:
182,192,224122,1,0,0:0:0:0:
256,192,224229,1,0,0:0:0:0:
402,192,224229,1,0,0:0:0:0:
402,192,224336,1,0,0:0:0:0:
36,192,224443,1,0,0:0:0:0:
182,192,224443,1,0,0:0:0:0:
182,192,224550,1,0,0:0:0:0:
475,192,224657,1,0,0:0:0:0:
329,192,224657,1,0,0:0:0:0:
36,192,224657,1,0,0:0:0:0:
109,192,224765,1,0,0:0:0:0:
329,192,224765,1,0,0:0:0:0:
256,192,224872,1,0,0:0:0:0:
475,192,224872,1,0,0:0:0:0:
109,192,224979,1,0,0:0:0:0:
402,192,224979,1,0,0:0:0:0:
182,192,225086,1,0,0:0:0:0:
329,192,225086,1,0,0:0:0:0:
109,192,225086,1,0,0:0:0:0:
475,192,225193,1,0,0:0:0:0:
36,192,225300,1,0,0:0:0:0:
182,192,225300,1,0,0:0:0:0:
256,192,225300,1,0,0:0:0:0:
475,192,225407,1,0,0:0:0:0:
182,192,225407,1,0,0:0:0:0:
109,192,225515,1,0,0:0:0:0:
402,192,225515,1,0,0:0:0:0:
329,192,225515,1,0,0:0:0:0:
182,192,225622,1,0,0:0:0:0:
402,192,225622,1,0,0:0:0:0:
256,192,225729,1,0,0:0:0:0:
36,192,225729,1,0,0:0:0:0:
182,192,225836,1,0,0:0:0:0:
402,192,225836,1,0,0:0:0:0:
329,192,225943,1,0,0:0:0:0:
109,192,225943,1,0,0:0:0:0:
475,192,226050,1,0,0:0:0:0:
182,192,226157,1,0,0:0:0:0:
402,192,226157,1,0,0:0:0:0:
36,192,226265,1,0,0:0:0:0:
329,192,226265,1,0,0:0:0:0:
109,192,226372,1,0,0:0:0:0:
256,192,226372,1,0,0:0:0:0:
475,192,226372,1,0,0:0:0:0:
182,192,226372,1,0,0:0:0:0:
402,192,226479,1,0,0:0:0:0:
36,192,226586,1,0,0:0:0:0:
329,192,226586,1,0,0:0:0:0:
109,192,226586,1,0,0:0:0:0:
182,192,226693,1,0,0:0:0:0:
329,192,226800,1,0,0:0:0:0:
402,192,226800,1,0,0:0:0:0:
256,192,226800,1,0,0:0:0:0:
36,192,226800,1,0,0:0:0:0:
109,192,226907,1,0,0:0:0:0:
475,192,227015,1,0,0:0:0:0:
182,192,227015,1,0,0:0:0:0:
402,192,227015,1,0,0:0:0:0:
329,192,227122,1,0,0:0:0:0:
402,192,227122,1,0,0:0:0:0:
182,192,227229,1,0,0:0:0:0:
109,192,227229,1,0,0:0:0:0:
256,192,227229,1,0,0:0:0:0:
109,192,227443,1,0,0:0:0:0:
182,192,227443,1,0,0:0:0:0:
475,192,227550,1,0,0:0:0:0:
329,192,227550,1,0,0:0:0:0:
36,192,227657,1,0,0:0:0:0:
182,192,227657,1,0,0:0:0:0:
256,192,227657,1,0,0:0:0:0:
402,192,227765,1,0,0:0:0:0:
182,192,227872,1,0,0:0:0:0:
36,192,227872,1,0,0:0:0:0:
329,192,227872,1,0,0:0:0:0:
402,192,227979,1,0,0:0:0:0:
475,192,228086,1,0,0:0:0:0:
329,192,228086,1,0,0:0:0:0:
182,192,228086,1,0,0:0:0:0:
36,192,228086,1,0,0:0:0:0:
329,192,228193,1,0,0:0:0:0:
109,192,228193,1,0,0:0:0:0:
256,192,228300,1,0,0:0:0:0:
475,192,228300,1,0,0:0:0:0:
109,192,228407,1,0,0:0:0:0:
402,192,228407,1,0,0:0:0:0:
109,192,228515,1,0,0:0:0:0:
182,192,228515,1,0,0:0:0:0:
329,192,228515,1,0,0:0:0:0:
475,192,228622,1,0,0:0:0:0:
182,192,228729,1,0,0:0:0:0:
256,192,228729,1,0,0:0:0:0:
36,192,228729,1,0,0:0:0:0:
475,192,228836,1,0,0:0:0:0:
182,192,228836,1,0,0:0:0:0:
109,192,228943,1,0,0:0:0:0:
329,192,228943,1,0,0:0:0:0:
402,192,228943,1,0,0:0:0:0:
182,192,229050,1,0,0:0:0:0:
402,192,229050,1,0,0:0:0:0:
256,192,229157,1,0,0:0:0:0:
36,192,229157,1,0,0:0:0:0:
402,192,229265,1,0,0:0:0:0:
182,192,229265,1,0,0:0:0:0:
329,192,229372,1,0,0:0:0:0:
109,192,229372,1,0,0:0:0:0:
475,192,229479,1,0,0:0:0:0:
402,192,229586,1,0,0:0:0:0:
182,192,229586,1,0,0:0:0:0:
36,192,229693,1,0,0:0:0:0:
329,192,229693,1,0,0:0:0:0:
256,192,229800,1,0,0:0:0:0:
109,192,229800,1,0,0:0:0:0:
475,192,229800,1,0,0:0:0:0:
329,192,229907,1,0,0:0:0:0:
109,192,229907,1,0,0:0:0:0:
36,192,230015,1,0,0:0:0:0:
256,192,230015,1,0,0:0:0:0:
109,192,230122,1,0,0:0:0:0:
402,192,230122,1,0,0:0:0:0:
402,192,230229,1,0,0:0:0:0:
329,192,230229,1,0,0:0:0:0:
182,192,230229,1,0,0:0:0:0:
36,192,230336,1,0,0:0:0:0:
475,192,230443,1,0,0:0:0:0:
109,192,230443,1,0,0:0:0:0:
329,192,230443,1,0,0:0:0:0:
329,192,230550,1,0,0:0:0:0:
402,192,230657,1,0,0:0:0:0:
182,192,230657,1,0,0:0:0:0:
36,192,230657,1,0,0:0:0:0:
182,192,230765,1,0,0:0:0:0:
329,192,230765,1,0,0:0:0:0:
475,192,230872,1,0,0:0:0:0:
109,192,230872,1,0,0:0:0:0:
329,192,230979,1,0,0:0:0:0:
182,192,230979,1,0,0:0:0:0:
256,192,231086,1,0,0:0:0:0:
402,192,231086,1,0,0:0:0:0:
402,192,231193,1,0,0:0:0:0:
36,192,231300,1,0,0:0:0:0:
182,192,231300,1,0,0:0:0:0:
182,192,231407,1,0,0:0:0:0:
475,192,231515,1,0,0:0:0:0:
329,192,231515,1,0,0:0:0:0:
36,192,231515,1,0,0:0:0:0:
109,192,231622,1,0,0:0:0:0:
329,192,231622,1,0,0:0:0:0:
256,192,231729,1,0,0:0:0:0:
475,192,231729,1,0,0:0:0:0:
109,192,231836,1,0,0:0:0:0:
402,192,231836,1,0,0:0:0:0:
182,192,231943,1,0,0:0:0:0:
329,192,231943,1,0,0:0:0:0:
109,192,231943,1,0,0:0:0:0:
475,192,232050,1,0,0:0:0:0:
36,192,232157,1,0,0:0:0:0:
182,192,232157,1,0,0:0:0:0:
256,192,232157,1,0,0:0:0:0:
475,192,232265,1,0,0:0:0:0:
182,192,232265,1,0,0:0:0:0:
109,192,232372,1,0,0:0:0:0:
402,192,232372,1,0,0:0:0:0:
329,192,232372,1,0,0:0:0:0:
182,192,232479,1,0,0:0:0:0:
402,192,232479,1,0,0:0:0:0:
256,192,232586,1,0,0:0:0:0:
36,192,232586,1,0,0:0:0:0:
182,192,232693,1,0,0:0:0:0:
402,192,232693,1,0,0:0:0:0:
329,192,232800,1,0,0:0:0:0:
109,192,232800,1,0,0:0:0:0:
475,192,232907,1,0,0:0:0:0:
182,192,233015,1,0,0:0:0:0:
402,192,233015,1,0,0:0:0:0:
36,192,233122,1,0,0:0:0:0:
329,192,233122,1,0,0:0:0:0:
109,192,233229,1,0,0:0:0:0:
475,192,233229,1,0,0:0:0:0:
256,192,233229,1,0,0:0:0:0:
402,192,233336,1,0,0:0:0:0:
329,192,233336,1,0,0:0:0:0:
109,192,233443,1,0,0:0:0:0:
182,192,233443,1,0,0:0:0:0:
329,192,233550,1,0,0:0:0:0:
256,192,233550,1,0,0:0:0:0:
36,192,233657,1,0,0:0:0:0:
109,192,233657,1,0,0:0:0:0:
475,192,233657,1,0,0:0:0:0:
182,192,233765,1,0,0:0:0:0:
329,192,233765,1,0,0:0:0:0:
475,192,233872,1,0,0:0:0:0:
36,192,233872,1,0,0:0:0:0:
182,192,233979,1,0,0:0:0:0:
329,192,233979,1,0,0:0:0:0:
402,192,234086,1,0,0:0:0:0:
256,192,234086,1,0,0:0:0:0:
109,192,234086,1,0,0:0:0:0:
109,192,234300,1,0,0:0:0:0:
256,192,234300,1,0,0:0:0:0:
402,192,234300,1,0,0:0:0:0:
36,192,234515,128,0,234729:0:0:0:0:
182,192,234515,128,0,234943:0:0:0:0:
329,192,234515,128,0,234943:0:0:0:0:
475,192,234515,128,0,234729:0:0:0:0:
109,192,234729,128,0,234943:0:0:0:0:
402,192,234729,128,0,234943:0:0:0:0:
475,192,234943,1,0,0:0:0:0:
256,192,234943,1,0,0:0:0:0:
36,192,234943,1,0,0:0:0:0:
329,192,235050,1,0,0:0:0:0:
475,192,235157,1,0,0:0:0:0:
182,192,235157,1,0,0:0:0:0:
329,192,235265,1,0,0:0:0:0:
256,192,235372,128,0,235800:0:0:0:0:
36,192,235372,128,0,236657:0:0:0:0:
109,192,235372,1,0,0:0:0:0:
475,192,235372,1,0,0:0:0:0:
402,192,235479,1,0,0:0:0:0:
182,192,235586,1,0,0:0:0:0:
329,192,235586,1,0,0:0:0:0:
402,192,235693,1,0,0:0:0:0:
109,192,235800,1,0,0:0:0:0:
475,192,235800,1,0,0:0:0:0:
182,192,235907,1,0,0:0:0:0:
329,192,235907,1,0,0:0:0:0:
475,192,236015,1,0,0:0:0:0:
256,192,236122,1,0,0:0:0:0:
402,192,236122,1,0,0:0:0:0:
109,192,236229,1,0,0:0:0:0:
329,192,236229,1,0,0:0:0:0:
182,192,236336,1,0,0:0:0:0:
475,192,236336,1,0,0:0:0:0:
402,192,236443,1,0,0:0:0:0:
256,192,236443,1,0,0:0:0:0:
182,192,236550,1,0,0:0:0:0:
109,192,236657,1,0,0:0:0:0:
475,192,236657,1,0,0:0:0:0:
329,192,236657,1,0,0:0:0:0:
182,192,236765,1,0,0:0:0:0:
256,192,236872,1,0,0:0:0:0:
36,192,236872,1,0,0:0:0:0:
402,192,236872,1,0,0:0:0:0:
182,192,237086,1,0,0:0:0:0:
36,192,237086,1,0,0:0:0:0:
475,192,237086,1,0,0:0:0:0:
329,192,237193,1,0,0:0:0:0:
402,192,237300,1,0,0:0:0:0:
109,192,237300,1,0,0:0:0:0:
256,192,237300,1,0,0:0:0:0:
182,192,237407,1,0,0:0:0:0:
329,192,237407,1,0,0:0:0:0:
475,192,237515,1,0,0:0:0:0:
36,192,237515,1,0,0:0:0:0:
109,192,237622,1,0,0:0:0:0:
329,192,237622,1,0,0:0:0:0:
402,192,237729,1,0,0:0:0:0:
182,192,237729,1,0,0:0:0:0:
109,192,237836,1,0,0:0:0:0:
329,192,237836,1,0,0:0:0:0:
36,192,237943,1,0,0:0:0:0:
475,192,237943,1,0,0:0:0:0:
256,192,237943,1,0,0:0:0:0:
109,192,238157,1,0,0:0:0:0:
329,192,238157,1,0,0:0:0:0:
402,192,238157,1,0,0:0:0:0:
475,192,238372,128,0,239229:0:0:0:0:
256,192,238372,128,0,239015:0:0:0:0:
36,192,238372,1,0,0:0:0:0:
402,192,238372,1,0,0:0:0:0:
182,192,238479,1,0,0:0:0:0:
329,192,238586,1,0,0:0:0:0:
109,192,238586,1,0,0:0:0:0:
182,192,238693,1,0,0:0:0:0:
402,192,238800,1,0,0:0:0:0:
36,192,238800,1,0,0:0:0:0:
109,192,238907,1,0,0:0:0:0:
182,192,239015,1,0,0:0:0:0:
329,192,239015,1,0,0:0:0:0:
109,192,239122,1,0,0:0:0:0:
256,192,239122,1,0,0:0:0:0:
182,192,239229,1,0,0:0:0:0:
402,192,239229,1,0,0:0:0:0:
36,192,239229,1,0,0:0:0:0:
329,192,239443,1,0,0:0:0:0:
109,192,239443,1,0,0:0:0:0:
402,192,239443,1,0,0:0:0:0:
182,192,239550,1,0,0:0:0:0:
475,192,239550,1,0,0:0:0:0:
256,192,239657,1,0,0:0:0:0:
402,192,239657,1,0,0:0:0:0:
36,192,239657,1,0,0:0:0:0:
109,192,239765,1,0,0:0:0:0:
182,192,239872,1,0,0:0:0:0:
329,192,239872,1,0,0:0:0:0:
475,192,239872,1,0,0:0:0:0:
329,192,240086,1,0,0:0:0:0:
402,192,240086,1,0,0:0:0:0:
475,192,240086,1,0,0:0:0:0:
109,192,240086,1,0,0:0:0:0:
109,192,240193,1,0,0:0:0:0:
182,192,240300,1,0,0:0:0:0:
256,192,240407,1,0,0:0:0:0:
182,192,240515,1,0,0:0:0:0:
109,192,240515,1,0,0:0:0:0:
36,192,240515,1,0,0:0:0:0:
402,192,240515,1,0,0:0:0:0:
402,192,240622,1,0,0:0:0:0:
329,192,240729,1,0,0:0:0:0:
256,192,240836,1,0,0:0:0:0:
329,192,240943,1,0,0:0:0:0:
475,192,240943,1,0,0:0:0:0:
402,192,240943,1,0,0:0:0:0:
109,192,240943,1,0,0:0:0:0:
182,192,241050,1,0,0:0:0:0:
36,192,241157,1,0,0:0:0:0:
256,192,241157,1,0,0:0:0:0:
402,192,241157,1,0,0:0:0:0:
329,192,241265,1,0,0:0:0:0:
475,192,241372,1,0,0:0:0:0:
109,192,241372,1,0,0:0:0:0:
256,192,241372,1,0,0:0:0:0:
109,192,241586,1,0,0:0:0:0:
182,192,241586,1,0,0:0:0:0:
402,192,241586,128,0,242229:0:0:0:0:
256,192,241693,1,0,0:0:0:0:
475,192,241800,1,0,0:0:0:0:
36,192,241800,1,0,0:0:0:0:
182,192,241800,1,0,0:0:0:0:
256,192,241907,1,0,0:0:0:0:
36,192,242015,1,0,0:0:0:0:
109,192,242015,1,0,0:0:0:0:
182,192,242122,1,0,0:0:0:0:
329,192,242229,1,0,0:0:0:0:
475,192,242229,1,0,0:0:0:0:
109,192,242229,1,0,0:0:0:0:
182,192,242336,1,0,0:0:0:0:
36,192,242443,1,0,0:0:0:0:
256,192,242443,1,0,0:0:0:0:
402,192,242443,1,0,0:0:0:0:
329,192,242550,1,0,0:0:0:0:
109,192,242657,1,0,0:0:0:0:
256,192,242657,1,0,0:0:0:0:
329,192,242765,1,0,0:0:0:0:
475,192,242765,1,0,0:0:0:0:
182,192,242872,1,0,0:0:0:0:
36,192,242872,1,0,0:0:0:0:
256,192,242979,1,0,0:0:0:0:
402,192,242979,1,0,0:0:0:0:
109,192,243086,1,0,0:0:0:0:
36,192,243086,1,0,0:0:0:0:
329,192,243086,1,0,0:0:0:0:
475,192,243193,1,0,0:0:0:0:
329,192,243300,1,0,0:0:0:0:
182,192,243300,1,0,0:0:0:0:
109,192,243300,1,0,0:0:0:0:
402,192,243407,1,0,0:0:0:0:
256,192,243515,1,0,0:0:0:0:
109,192,243515,1,0,0:0:0:0:
475,192,243515,128,0,243729:0:0:0:0:
182,192,243622,1,0,0:0:0:0:
36,192,243729,1,0,0:0:0:0:
402,192,243729,1,0,0:0:0:0:
329,192,243836,128,0,243943:0:0:0:0:
182,192,243836,128,0,243943:0:0:0:0:
475,192,243943,128,0,244157:0:0:0:0:
36,192,243943,128,0,244157:0:0:0:0:
256,192,243943,1,0,0:0:0:0:
109,192,244157,128,0,244586:0:0:0:0:
402,192,244157,128,0,244586:0:0:0:0:
329,192,244157,1,0,0:0:0:0:
256,192,244265,1,0,0:0:0:0:
182,192,244372,1,0,0:0:0:0:
475,192,244372,1,0,0:0:0:0:
329,192,244479,1,0,0:0:0:0:
256,192,244586,128,0,245015:0:0:0:0:
36,192,244586,1,0,0:0:0:0:
182,192,244693,1,0,0:0:0:0:
329,192,244800,1,0,0:0:0:0:
475,192,244800,1,0,0:0:0:0:
109,192,244907,1,0,0:0:0:0:
329,192,245015,1,0,0:0:0:0:
182,192,245015,1,0,0:0:0:0:
329,192,245122,1,0,0:0:0:0:
36,192,245229,1,0,0:0:0:0:
256,192,245229,1,0,0:0:0:0:
402,192,245229,1,0,0:0:0:0:
182,192,245336,1,0,0:0:0:0:
475,192,245443,1,0,0:0:0:0:
329,192,245443,1,0,0:0:0:0:
109,192,245443,1,0,0:0:0:0:
329,192,245550,1,0,0:0:0:0:
256,192,245657,1,0,0:0:0:0:
36,192,245657,1,0,0:0:0:0:
402,192,245657,1,0,0:0:0:0:
36,192,245765,1,0,0:0:0:0:
182,192,245765,1,0,0:0:0:0:
475,192,245872,1,0,0:0:0:0:
329,192,245872,1,0,0:0:0:0:
256,192,245979,1,0,0:0:0:0:
109,192,245979,1,0,0:0:0:0:
475,192,246086,1,0,0:0:0:0:
402,192,246086,1,0,0:0:0:0:
182,192,246086,1,0,0:0:0:0:
329,192,246193,1,0,0:0:0:0:
36,192,246300,1,0,0:0:0:0:
475,192,246300,1,0,0:0:0:0:
182,192,246407,1,0,0:0:0:0:
329,192,246407,1,0,0:0:0:0:
109,192,246515,1,0,0:0:0:0:
256,192,246515,1,0,0:0:0:0:
402,192,246515,1,0,0:0:0:0:
36,192,246622,1,0,0:0:0:0:
182,192,246729,1,0,0:0:0:0:
329,192,246729,1,0,0:0:0:0:
475,192,246729,1,0,0:0:0:0:
109,192,246836,1,0,0:0:0:0:
256,192,246943,1,0,0:0:0:0:
402,192,246943,1,0,0:0:0:0:
109,192,246943,1,0,0:0:0:0:
329,192,247050,1,0,0:0:0:0:
475,192,247157,1,0,0:0:0:0:
182,192,247157,1,0,0:0:0:0:
329,192,247265,1,0,0:0:0:0:
109,192,247372,1,0,0:0:0:0:
256,192,247372,1,0,0:0:0:0:
402,192,247372,1,0,0:0:0:0:
182,192,247479,1,0,0:0:0:0:
36,192,247586,1,0,0:0:0:0:
402,192,247586,1,0,0:0:0:0:
329,192,247586,1,0,0:0:0:0:
182,192,247693,1,0,0:0:0:0:
109,192,247693,1,0,0:0:0:0:
36,192,247800,1,0,0:0:0:0:
475,192,247800,1,0,0:0:0:0:
329,192,247800,1,0,0:0:0:0:
182,192,247907,1,0,0:0:0:0:
329,192,248015,1,0,0:0:0:0:
402,192,248015,1,0,0:0:0:0:
109,192,248015,1,0,0:0:0:0:
182,192,248122,1,0,0:0:0:0:
329,192,248229,1,0,0:0:0:0:
475,192,248229,1,0,0:0:0:0:
36,192,248229,1,0,0:0:0:0:
109,192,248336,1,0,0:0:0:0:
182,192,248443,1,0,0:0:0:0:
329,192,248443,1,0,0:0:0:0:
402,192,248550,1,0,0:0:0:0:
475,192,248657,1,0,0:0:0:0:
109,192,248657,1,0,0:0:0:0:
36,192,248657,1,0,0:0:0:0:
256,192,248657,1,0,0:0:0:0:
109,192,248765,1,0,0:0:0:0:
329,192,248765,1,0,0:0:0:0:
402,192,248872,1,0,0:0:0:0:
329,192,248872,1,0,0:0:0:0:
182,192,248979,1,0,0:0:0:0:
109,192,248979,1,0,0:0:0:0:
182,192,249086,1,0,0:0:0:0:
475,192,249086,1,0,0:0:0:0:
402,192,249086,1,0,0:0:0:0:
329,192,249193,1,0,0:0:0:0:
475,192,249300,1,0,0:0:0:0:
36,192,249300,1,0,0:0:0:0:
182,192,249300,1,0,0:0:0:0:
402,192,249407,1,0,0:0:0:0:
329,192,249515,1,0,0:0:0:0:
182,192,249515,1,0,0:0:0:0:
109,192,249515,1,0,0:0:0:0:
329,192,249622,1,0,0:0:0:0:
475,192,249622,1,0,0:0:0:0:
109,192,249729,1,0,0:0:0:0:
256,192,249729,1,0,0:0:0:0:
329,192,249836,1,0,0:0:0:0:
475,192,249836,1,0,0:0:0:0:
182,192,249943,1,0,0:0:0:0:
36,192,249943,1,0,0:0:0:0:
402,192,249943,1,0,0:0:0:0:
329,192,250050,1,0,0:0:0:0:
256,192,250157,1,0,0:0:0:0:
36,192,250157,1,0,0:0:0:0:
329,192,250265,1,0,0:0:0:0:
109,192,250265,1,0,0:0:0:0:
475,192,250372,1,0,0:0:0:0:
36,192,250372,1,0,0:0:0:0:
182,192,250372,1,0,0:0:0:0:
182,192,250479,1,0,0:0:0:0:
329,192,250479,1,0,0:0:0:0:
329,192,250586,1,0,0:0:0:0:
402,192,250586,1,0,0:0:0:0:
109,192,250693,1,0,0:0:0:0:
182,192,250693,1,0,0:0:0:0:
475,192,250800,1,0,0:0:0:0:
329,192,250800,1,0,0:0:0:0:
109,192,250800,1,0,0:0:0:0:
256,192,250907,1,0,0:0:0:0:
402,192,250907,1,0,0:0:0:0:
36,192,251015,1,0,0:0:0:0:
182,192,251015,1,0,0:0:0:0:
402,192,251122,1,0,0:0:0:0:
256,192,251122,1,0,0:0:0:0:
109,192,251229,1,0,0:0:0:0:
182,192,251229,1,0,0:0:0:0:
329,192,251229,1,0,0:0:0:0:
329,192,251336,1,0,0:0:0:0:
36,192,251443,1,0,0:0:0:0:
402,192,251443,1,0,0:0:0:0:
182,192,251550,1,0,0:0:0:0:
329,192,251550,1,0,0:0:0:0:
256,192,251657,1,0,0:0:0:0:
475,192,251657,1,0,0:0:0:0:
109,192,251657,1,0,0:0:0:0:
402,192,251765,1,0,0:0:0:0:
182,192,251765,1,0,0:0:0:0:
329,192,251872,1,0,0:0:0:0:
36,192,251872,1,0,0:0:0:0:
182,192,251979,1,0,0:0:0:0:
402,192,251979,1,0,0:0:0:0:
475,192,252086,1,0,0:0:0:0:
256,192,252086,1,0,0:0:0:0:
109,192,252086,1,0,0:0:0:0:
109,192,252193,1,0,0:0:0:0:
329,192,252193,1,0,0:0:0:0:
475,192,252300,1,0,0:0:0:0:
182,192,252300,1,0,0:0:0:0:
329,192,252407,1,0,0:0:0:0:
36,192,252407,1,0,0:0:0:0:
109,192,252515,1,0,0:0:0:0:
256,192,252515,1,0,0:0:0:0:
402,192,252622,1,0,0:0:0:0:
109,192,252729,1,0,0:0:0:0:
182,192,252729,1,0,0:0:0:0:
329,192,252836,1,0,0:0:0:0:
256,192,252943,1,0,0:0:0:0:
36,192,252943,1,0,0:0:0:0:
475,192,252943,1,0,0:0:0:0:
182,192,253050,1,0,0:0:0:0:
329,192,253050,1,0,0:0:0:0:
109,192,253157,1,0,0:0:0:0:
402,192,253157,1,0,0:0:0:0:
256,192,253265,1,0,0:0:0:0:
36,192,253372,1,0,0:0:0:0:
475,192,253372,1,0,0:0:0:0:
182,192,253372,1,0,0:0:0:0:
329,192,253372,1,0,0:0:0:0:
402,192,253586,1,0,0:0:0:0:
109,192,253586,1,0,0:0:0:0:
329,192,253693,1,0,0:0:0:0:
182,192,253693,1,0,0:0:0:0:
36,192,253800,1,0,0:0:0:0:
475,192,253800,1,0,0:0:0:0:
256,192,253800,1,0,0:0:0:0:
182,192,253907,1,0,0:0:0:0:
402,192,253907,1,0,0:0:0:0:
329,192,254015,1,0,0:0:0:0:
109,192,254015,1,0,0:0:0:0:
402,192,254122,1,0,0:0:0:0:
475,192,254229,1,0,0:0:0:0:
36,192,254229,1,0,0:0:0:0:
256,192,254229,1,0,0:0:0:0:
329,192,254336,1,0,0:0:0:0:
109,192,254336,1,0,0:0:0:0:
182,192,254443,1,0,0:0:0:0:
402,192,254443,1,0,0:0:0:0:
109,192,254550,1,0,0:0:0:0:
36,192,254657,1,0,0:0:0:0:
256,192,254657,1,0,0:0:0:0:
475,192,254657,1,0,0:0:0:0:
329,192,254657,1,0,0:0:0:0:
36,192,254872,1,0,0:0:0:0:
182,192,254872,1,0,0:0:0:0:
475,192,254872,1,0,0:0:0:0:
329,192,254979,1,0,0:0:0:0:
256,192,255086,1,0,0:0:0:0:
36,192,255086,1,0,0:0:0:0:
475,192,255086,1,0,0:0:0:0:
182,192,255193,1,0,0:0:0:0:
475,192,255300,1,0,0:0:0:0:
329,192,255300,1,0,0:0:0:0:
36,192,255300,1,0,0:0:0:0:
109,192,255515,1,0,0:0:0:0:
36,192,255515,1,0,0:0:0:0:
402,192,255515,1,0,0:0:0:0:
329,192,255515,1,0,0:0:0:0:
109,192,255622,1,0,0:0:0:0:
256,192,255622,1,0,0:0:0:0:
475,192,255729,1,0,0:0:0:0:
329,192,255729,1,0,0:0:0:0:
109,192,255836,1,0,0:0:0:0:
109,192,255943,1,0,0:0:0:0:
256,192,255943,1,0,0:0:0:0:
402,192,256050,1,0,0:0:0:0:
329,192,256050,1,0,0:0:0:0:
182,192,256157,1,0,0:0:0:0:
36,192,256157,1,0,0:0:0:0:
256,192,256265,1,0,0:0:0:0:
329,192,256372,1,0,0:0:0:0:
475,192,256372,1,0,0:0:0:0:
109,192,256372,1,0,0:0:0:0:
182,192,256479,1,0,0:0:0:0:
256,192,256586,1,0,0:0:0:0:
36,192,256586,1,0,0:0:0:0:
402,192,256586,1,0,0:0:0:0:
402,192,256693,1,0,0:0:0:0:
329,192,256693,1,0,0:0:0:0:
109,192,256800,1,0,0:0:0:0:
182,192,256800,1,0,0:0:0:0:
36,192,256800,1,0,0:0:0:0:
402,192,256907,1,0,0:0:0:0:
329,192,257015,1,0,0:0:0:0:
36,192,257015,1,0,0:0:0:0:
402,192,257015,1,0,0:0:0:0:
182,192,257122,1,0,0:0:0:0:
256,192,257229,1,0,0:0:0:0:
475,192,257229,1,0,0:0:0:0:
109,192,257229,1,0,0:0:0:0:
109,192,257336,1,0,0:0:0:0:
329,192,257336,1,0,0:0:0:0:
475,192,257443,1,0,0:0:0:0:
182,192,257443,1,0,0:0:0:0:
329,192,257550,1,0,0:0:0:0:
475,192,257657,1,0,0:0:0:0:
36,192,257657,1,0,0:0:0:0:
256,192,257657,1,0,0:0:0:0:
182,192,257765,1,0,0:0:0:0:
329,192,257872,1,0,0:0:0:0:
402,192,257872,1,0,0:0:0:0:
109,192,257979,1,0,0:0:0:0:
329,192,258086,1,0,0:0:0:0:
475,192,258086,1,0,0:0:0:0:
182,192,258086,1,0,0:0:0:0:
36,192,258193,1,0,0:0:0:0:
109,192,258300,1,0,0:0:0:0:
402,192,258300,1,0,0:0:0:0:
329,192,258407,1,0,0:0:0:0:
402,192,258407,1,0,0:0:0:0:
182,192,258407,1,0,0:0:0:0:
36,192,258515,1,0,0:0:0:0:
256,192,258515,1,0,0:0:0:0:
329,192,258622,1,0,0:0:0:0:
109,192,258622,1,0,0:0:0:0:
329,192,258729,1,0,0:0:0:0:
475,192,258729,1,0,0:0:0:0:
182,192,258729,1,0,0:0:0:0:
256,192,258836,1,0,0:0:0:0:
182,192,258943,1,0,0:0:0:0:
36,192,258943,1,0,0:0:0:0:
402,192,258943,1,0,0:0:0:0:
182,192,259050,1,0,0:0:0:0:
329,192,259157,1,0,0:0:0:0:
475,192,259157,1,0,0:0:0:0:
329,192,259265,1,0,0:0:0:0:
36,192,259372,1,0,0:0:0:0:
256,192,259372,1,0,0:0:0:0:
109,192,259372,1,0,0:0:0:0:
329,192,259479,1,0,0:0:0:0:
402,192,259479,1,0,0:0:0:0:
256,192,259586,1,0,0:0:0:0:
36,192,259586,1,0,0:0:0:0:
475,192,259693,1,0,0:0:0:0:
182,192,259693,1,0,0:0:0:0:
329,192,259800,1,0,0:0:0:0:
475,192,259800,1,0,0:0:0:0:
109,192,259800,1,0,0:0:0:0:
182,192,259907,1,0,0:0:0:0:
402,192,260015,1,0,0:0:0:0:
109,192,260015,1,0,0:0:0:0:
402,192,260122,1,0,0:0:0:0:
256,192,260122,1,0,0:0:0:0:
182,192,260229,1,0,0:0:0:0:
36,192,260229,1,0,0:0:0:0:
402,192,260336,1,0,0:0:0:0:
402,192,260443,1,0,0:0:0:0:
256,192,260443,1,0,0:0:0:0:
109,192,260550,1,0,0:0:0:0:
182,192,260657,1,0,0:0:0:0:
329,192,260657,1,0,0:0:0:0:
109,192,260800,1,0,0:0:0:0:
329,192,260872,1,0,0:0:0:0:
36,192,261015,1,0,0:0:0:0:
256,192,261086,1,0,0:0:0:0:
402,192,261229,1,0,0:0:0:0:
329,192,261443,1,0,0:0:0:0:
329,192,261657,1,0,0:0:0:0:
182,192,261729,1,0,0:0:0:0:
109,192,261943,1,0,0:0:0:0:
256,192,262157,1,0,0:0:0:0:
