osu file format v14

[General]
AudioFilename: audio.mp3
AudioLeadIn: 0
PreviewTime: 46217
Countdown: 0
SampleSet: None
StackLeniency: 0.7
Mode: 3
LetterboxInBreaks: 0
SpecialStyle: 0
WidescreenStoryboard: 1

[Editor]
DistanceSpacing: 1
BeatDivisor: 4
GridSize: 8
TimelineZoom: 1.5

[Metadata]
Title:kagakunoqikaratesuge!
TitleUnicode:かがくのちからってすげー!
Artist:Kagamine Len
ArtistUnicode:鏡音レン
Creator:paperlens
Version:Hard
Source:
Tags:さつき が てんこもり 身辺整理 かがみね★ふぇすた 2013 starring 鏡音リン・レン VOCALOID インディペンデントレーベル
BeatmapID:1032206
BeatmapSetID:483829

[Difficulty]
HPDrainRate:8
CircleSize:4
OverallDifficulty:7
ApproachRate:5
SliderMultiplier:1.4
SliderTickRate:1

[Events]
//Background and Video events
0,0,"QQ图片20160709151002.jpg",0,0
//Break Periods
2,154282,175804
//Storyboard Layer 0 (Background)
//Storyboard Layer 1 (Fail)
//Storyboard Layer 2 (Pass)
//Storyboard Layer 3 (Foreground)
//Storyboard Sound Samples

[TimingPoints]
375,337.078651685393,4,2,0,6,1,0
46217,-200,4,2,0,6,0,1
46442,-75.187969924812,4,2,0,6,0,1
46554,-200,4,2,0,6,0,1
46779,-75.187969924812,4,2,0,6,0,1
46891,-100,4,2,0,6,0,1
51610,-200,4,2,0,6,0,1
51835,-75.187969924812,4,2,0,6,0,1
51948,-200,4,2,0,6,0,1
52172,-75.187969924812,4,2,0,6,0,1
52285,-100,4,2,0,6,0,1
57004,-200,4,2,0,6,0,1
57228,-75.187969924812,4,2,0,6,0,1
57341,-200,4,2,0,6,0,1
57566,-75.187969924812,4,2,0,6,0,1
57678,-100,4,2,0,6,0,1
62397,-200,4,2,0,6,0,1
62622,-75.187969924812,4,2,0,6,0,1
62734,-200,4,2,0,6,0,1
62959,-75.187969924812,4,2,0,6,0,1
63071,-100,4,2,0,6,0,1
67790,-100,4,2,0,6,0,0
110936,-200,4,2,0,6,0,1
111161,-75.187969924812,4,2,0,6,0,1
111273,-200,4,2,0,6,0,1
111498,-75.187969924812,4,2,0,6,0,1
111610,-100,4,2,0,6,0,1
116330,-200,4,2,0,6,0,1
116554,-75.187969924812,4,2,0,6,0,1
116667,-200,4,2,0,6,0,1
116891,-75.187969924812,4,2,0,6,0,1
117004,-100,4,2,0,6,0,1
121723,-200,4,2,0,6,0,1
121948,-75.187969924812,4,2,0,6,0,1
122060,-200,4,2,0,6,0,1
122285,-75.187969924812,4,2,0,6,0,1
122397,-100,4,2,0,6,0,1
127116,-200,4,2,0,6,0,1
127341,-75.187969924812,4,2,0,6,0,1
127453,-200,4,2,0,6,0,1
127678,-75.187969924812,4,2,0,6,0,1
127790,-100,4,2,0,6,0,1
132509,-100,4,2,0,6,0,0
164869,-200,4,2,0,6,0,1
165094,-75.187969924812,4,2,0,6,0,1
165206,-200,4,2,0,6,0,1
165431,-75.187969924812,4,2,0,6,0,1
165543,-100,4,2,0,6,0,1
170262,-200,4,2,0,6,0,1
170487,-75.187969924812,4,2,0,6,0,1
170599,-200,4,2,0,6,0,1
170824,-75.187969924812,4,2,0,6,0,1
170936,-100,4,2,0,6,0,1
177004,-100,4,2,0,6,0,0

[HitObjects]
448,192,375,5,0,0:0:0:0:
64,192,712,1,0,0:0:0:0:
320,192,1049,1,0,0:0:0:0:
192,192,1217,1,0,0:0:0:0:
448,192,1386,1,0,0:0:0:0:
64,192,1723,1,0,0:0:0:0:
320,192,1891,1,0,0:0:0:0:
192,192,2060,1,0,0:0:0:0:
448,192,2228,1,0,0:0:0:0:
64,192,2397,1,0,0:0:0:0:
192,192,2566,1,0,0:0:0:0:
320,192,2734,1,0,0:0:0:0:
192,192,3071,1,0,0:0:0:0:
64,192,3071,1,0,0:0:0:0:
448,192,3071,128,0,3914:0:0:0:0:
320,192,3408,1,0,0:0:0:0:
64,192,3408,1,0,0:0:0:0:
64,192,3745,1,0,0:0:0:0:
320,192,3914,1,0,0:0:0:0:
192,192,4082,1,0,0:0:0:0:
64,192,4082,1,0,0:0:0:0:
448,192,4251,128,0,4925:0:0:0:0:
64,192,4419,1,0,0:0:0:0:
64,192,4757,1,0,0:0:0:0:
320,192,4757,1,0,0:0:0:0:
192,192,4925,1,0,0:0:0:0:
320,192,5094,1,0,0:0:0:0:
192,192,5262,1,0,0:0:0:0:
320,192,5431,1,0,0:0:0:0:
64,192,5431,1,0,0:0:0:0:
448,192,5599,128,0,6273:0:0:0:0:
64,192,5768,1,0,0:0:0:0:
320,192,6105,1,0,0:0:0:0:
64,192,6105,1,0,0:0:0:0:
192,192,6273,1,0,0:0:0:0:
320,192,6442,1,0,0:0:0:0:
448,192,6610,1,0,0:0:0:0:
64,192,6779,1,0,0:0:0:0:
192,192,6779,1,0,0:0:0:0:
448,192,6948,1,0,0:0:0:0:
64,192,7116,1,0,0:0:0:0:
320,192,7285,1,0,0:0:0:0:
192,192,7453,1,0,0:0:0:0:
64,192,7453,1,0,0:0:0:0:
448,192,7622,1,0,0:0:0:0:
320,192,7790,128,0,8127:0:0:0:0:
64,192,7790,128,0,8127:0:0:0:0:
192,192,8127,128,0,8464:0:0:0:0:
448,192,8127,128,0,8464:0:0:0:0:
64,192,8464,128,0,9307:0:0:0:0:
320,192,8464,1,0,0:0:0:0:
192,192,8801,1,0,0:0:0:0:
448,192,8801,1,0,0:0:0:0:
448,192,9139,1,0,0:0:0:0:
192,192,9307,1,0,0:0:0:0:
320,192,9476,1,0,0:0:0:0:
448,192,9476,1,0,0:0:0:0:
64,192,9644,128,0,10318:0:0:0:0:
448,192,9813,1,0,0:0:0:0:
448,192,10150,1,0,0:0:0:0:
192,192,10150,1,0,0:0:0:0:
320,192,10318,1,0,0:0:0:0:
192,192,10487,1,0,0:0:0:0:
320,192,10655,1,0,0:0:0:0:
192,192,10824,1,0,0:0:0:0:
64,192,10824,1,0,0:0:0:0:
448,192,10992,128,0,11667:0:0:0:0:
64,192,11161,1,0,0:0:0:0:
320,192,11498,1,0,0:0:0:0:
64,192,11498,1,0,0:0:0:0:
192,192,11667,1,0,0:0:0:0:
320,192,11835,1,0,0:0:0:0:
448,192,12004,1,0,0:0:0:0:
64,192,12172,1,0,0:0:0:0:
192,192,12172,1,0,0:0:0:0:
448,192,12341,1,0,0:0:0:0:
64,192,12509,1,0,0:0:0:0:
320,192,12509,1,0,0:0:0:0:
448,192,12678,1,0,0:0:0:0:
192,192,12846,1,0,0:0:0:0:
64,192,12846,1,0,0:0:0:0:
320,192,13015,1,0,0:0:0:0:
192,192,13099,1,0,0:0:0:0:
448,192,13183,128,0,13521:0:0:0:0:
64,192,13183,128,0,13521:0:0:0:0:
320,192,13521,128,0,13858:0:0:0:0:
192,192,13521,128,0,13858:0:0:0:0:
64,192,13858,1,0,0:0:0:0:
448,192,13858,128,0,14700:0:0:0:0:
320,192,14195,1,0,0:0:0:0:
64,192,14195,1,0,0:0:0:0:
64,192,14532,1,0,0:0:0:0:
320,192,14700,1,0,0:0:0:0:
64,192,14869,1,0,0:0:0:0:
192,192,14869,1,0,0:0:0:0:
448,192,15037,128,0,15712:0:0:0:0:
64,192,15206,1,0,0:0:0:0:
320,192,15543,1,0,0:0:0:0:
64,192,15543,1,0,0:0:0:0:
192,192,15712,1,0,0:0:0:0:
320,192,15880,1,0,0:0:0:0:
192,192,16049,1,0,0:0:0:0:
64,192,16217,1,0,0:0:0:0:
320,192,16217,1,0,0:0:0:0:
448,192,16386,128,0,17060:0:0:0:0:
64,192,16554,1,0,0:0:0:0:
64,192,16891,1,0,0:0:0:0:
320,192,16891,1,0,0:0:0:0:
192,192,17060,1,0,0:0:0:0:
320,192,17228,1,0,0:0:0:0:
448,192,17397,1,0,0:0:0:0:
192,192,17566,1,0,0:0:0:0:
64,192,17566,1,0,0:0:0:0:
448,192,17734,1,0,0:0:0:0:
64,192,17903,1,0,0:0:0:0:
320,192,18071,1,0,0:0:0:0:
192,192,18240,1,0,0:0:0:0:
64,192,18240,1,0,0:0:0:0:
448,192,18408,1,0,0:0:0:0:
320,192,18577,128,0,18914:0:0:0:0:
64,192,18577,128,0,18914:0:0:0:0:
192,192,18914,128,0,19251:0:0:0:0:
448,192,18914,128,0,19251:0:0:0:0:
320,192,19251,1,0,0:0:0:0:
64,192,19251,128,0,20094:0:0:0:0:
192,192,19588,1,0,0:0:0:0:
448,192,19588,1,0,0:0:0:0:
448,192,19925,1,0,0:0:0:0:
192,192,20094,1,0,0:0:0:0:
448,192,20262,1,0,0:0:0:0:
320,192,20262,1,0,0:0:0:0:
64,192,20431,128,0,21105:0:0:0:0:
448,192,20599,1,0,0:0:0:0:
192,192,20936,1,0,0:0:0:0:
448,192,20936,1,0,0:0:0:0:
320,192,21105,1,0,0:0:0:0:
192,192,21273,1,0,0:0:0:0:
320,192,21442,1,0,0:0:0:0:
192,192,21610,1,0,0:0:0:0:
64,192,21610,1,0,0:0:0:0:
448,192,21779,128,0,22453:0:0:0:0:
64,192,21948,1,0,0:0:0:0:
64,192,22285,1,0,0:0:0:0:
320,192,22285,1,0,0:0:0:0:
192,192,22453,1,0,0:0:0:0:
320,192,22622,1,0,0:0:0:0:
448,192,22790,1,0,0:0:0:0:
64,192,22959,1,0,0:0:0:0:
192,192,22959,1,0,0:0:0:0:
448,192,23127,1,0,0:0:0:0:
64,192,23296,1,0,0:0:0:0:
320,192,23380,1,0,0:0:0:0:
192,192,23464,1,0,0:0:0:0:
320,192,23549,1,0,0:0:0:0:
64,192,23633,1,0,0:0:0:0:
448,192,23801,1,0,0:0:0:0:
192,192,23886,1,0,0:0:0:0:
320,192,23970,1,0,0:0:0:0:
192,192,24054,1,0,0:0:0:0:
448,192,24139,1,0,0:0:0:0:
64,192,24223,1,0,0:0:0:0:
320,192,24307,1,0,0:0:0:0:
448,192,24307,1,0,0:0:0:0:
192,192,24644,1,0,0:0:0:0:
64,192,24644,1,0,0:0:0:0:
448,192,24644,1,0,0:0:0:0:
320,192,24813,1,0,0:0:0:0:
192,192,24981,1,0,0:0:0:0:
448,192,24981,1,0,0:0:0:0:
64,192,25150,1,0,0:0:0:0:
192,192,25318,1,0,0:0:0:0:
320,192,25487,1,0,0:0:0:0:
64,192,25487,1,0,0:0:0:0:
448,192,25655,1,0,0:0:0:0:
64,192,25655,1,0,0:0:0:0:
192,192,25824,1,0,0:0:0:0:
192,192,25992,1,0,0:0:0:0:
448,192,25992,1,0,0:0:0:0:
320,192,26161,1,0,0:0:0:0:
192,192,26330,1,0,0:0:0:0:
448,192,26330,1,0,0:0:0:0:
64,192,26498,1,0,0:0:0:0:
192,192,26667,1,0,0:0:0:0:
320,192,26835,1,0,0:0:0:0:
64,192,26835,1,0,0:0:0:0:
448,192,27004,1,0,0:0:0:0:
64,192,27004,1,0,0:0:0:0:
192,192,27172,1,0,0:0:0:0:
192,192,27341,1,0,0:0:0:0:
64,192,27341,128,0,27678:0:0:0:0:
448,192,27341,1,0,0:0:0:0:
320,192,27509,1,0,0:0:0:0:
192,192,27678,1,0,0:0:0:0:
448,192,27678,1,0,0:0:0:0:
64,192,27846,1,0,0:0:0:0:
192,192,28015,1,0,0:0:0:0:
320,192,28183,1,0,0:0:0:0:
64,192,28183,1,0,0:0:0:0:
448,192,28352,1,0,0:0:0:0:
64,192,28352,1,0,0:0:0:0:
192,192,28521,1,0,0:0:0:0:
448,192,28521,1,0,0:0:0:0:
192,192,28858,1,0,0:0:0:0:
448,192,28858,1,0,0:0:0:0:
320,192,29026,1,0,0:0:0:0:
64,192,29195,1,0,0:0:0:0:
192,192,29363,1,0,0:0:0:0:
448,192,29363,1,0,0:0:0:0:
320,192,29700,1,0,0:0:0:0:
192,192,29700,1,0,0:0:0:0:
64,192,30037,1,0,0:0:0:0:
448,192,30037,1,0,0:0:0:0:
320,192,30122,1,0,0:0:0:0:
192,192,30206,1,0,0:0:0:0:
320,192,30290,1,0,0:0:0:0:
448,192,30374,1,0,0:0:0:0:
64,192,30374,1,0,0:0:0:0:
192,192,30543,1,0,0:0:0:0:
320,192,30712,1,0,0:0:0:0:
64,192,30880,1,0,0:0:0:0:
448,192,30880,1,0,0:0:0:0:
64,192,31049,1,0,0:0:0:0:
320,192,31049,1,0,0:0:0:0:
192,192,31217,1,0,0:0:0:0:
192,192,31386,1,0,0:0:0:0:
448,192,31386,1,0,0:0:0:0:
64,192,31554,1,0,0:0:0:0:
192,192,31639,1,0,0:0:0:0:
448,192,31723,1,0,0:0:0:0:
320,192,31723,1,0,0:0:0:0:
64,192,31891,1,0,0:0:0:0:
192,192,32060,1,0,0:0:0:0:
320,192,32228,1,0,0:0:0:0:
64,192,32228,1,0,0:0:0:0:
448,192,32397,1,0,0:0:0:0:
64,192,32397,1,0,0:0:0:0:
192,192,32566,1,0,0:0:0:0:
192,192,32734,1,0,0:0:0:0:
64,192,32734,128,0,33071:0:0:0:0:
448,192,32734,1,0,0:0:0:0:
320,192,32903,1,0,0:0:0:0:
192,192,33071,1,0,0:0:0:0:
448,192,33071,1,0,0:0:0:0:
448,192,33408,1,0,0:0:0:0:
320,192,33408,1,0,0:0:0:0:
192,192,33577,1,0,0:0:0:0:
448,192,33745,1,0,0:0:0:0:
64,192,33745,1,0,0:0:0:0:
192,192,33914,1,0,0:0:0:0:
320,192,34082,1,0,0:0:0:0:
448,192,34082,128,0,34251:0:0:0:0:
64,192,34251,1,0,0:0:0:0:
448,192,34419,1,0,0:0:0:0:
320,192,34419,128,0,34588:0:0:0:0:
64,192,34588,1,0,0:0:0:0:
192,192,34672,1,0,0:0:0:0:
320,192,34757,1,0,0:0:0:0:
448,192,34757,128,0,34925:0:0:0:0:
192,192,34925,1,0,0:0:0:0:
64,192,35094,1,0,0:0:0:0:
448,192,35094,1,0,0:0:0:0:
320,192,35262,1,0,0:0:0:0:
192,192,35431,1,0,0:0:0:0:
64,192,35431,128,0,36779:0:0:0:0:
448,192,35768,1,0,0:0:0:0:
192,192,36105,128,0,36779:0:0:0:0:
448,192,36442,1,0,0:0:0:0:
320,192,36610,128,0,36779:0:0:0:0:
448,192,36779,128,0,37453:0:0:0:0:
64,192,37116,1,0,0:0:0:0:
320,192,37116,128,0,37453:0:0:0:0:
192,192,37453,128,0,38127:0:0:0:0:
64,192,37790,128,0,38127:0:0:0:0:
448,192,37790,1,0,0:0:0:0:
320,192,38127,128,0,39476:0:0:0:0:
448,192,38127,1,0,0:0:0:0:
64,192,38464,1,0,0:0:0:0:
448,192,38801,1,0,0:0:0:0:
64,192,39139,1,0,0:0:0:0:
64,192,39476,1,0,0:0:0:0:
448,192,39476,1,0,0:0:0:0:
448,192,39813,128,0,40150:0:0:0:0:
320,192,39813,1,0,0:0:0:0:
192,192,39981,1,0,0:0:0:0:
64,192,40150,128,0,40318:0:0:0:0:
320,192,40150,1,0,0:0:0:0:
192,192,40318,1,0,0:0:0:0:
320,192,40487,128,0,40824:0:0:0:0:
448,192,40487,128,0,40824:0:0:0:0:
192,192,40824,1,0,0:0:0:0:
64,192,40824,128,0,42172:0:0:0:0:
448,192,41161,1,0,0:0:0:0:
192,192,41498,128,0,42172:0:0:0:0:
448,192,41835,1,0,0:0:0:0:
320,192,42004,128,0,42172:0:0:0:0:
448,192,42172,128,0,42846:0:0:0:0:
64,192,42509,1,0,0:0:0:0:
320,192,42509,128,0,42846:0:0:0:0:
192,192,42846,128,0,43521:0:0:0:0:
64,192,43183,128,0,43521:0:0:0:0:
448,192,43183,1,0,0:0:0:0:
448,192,43521,1,0,0:0:0:0:
320,192,43605,1,0,0:0:0:0:
192,192,43689,1,0,0:0:0:0:
64,192,43773,1,0,0:0:0:0:
448,192,43858,1,0,0:0:0:0:
320,192,43942,1,0,0:0:0:0:
192,192,44026,1,0,0:0:0:0:
64,192,44110,1,0,0:0:0:0:
448,192,44195,1,0,0:0:0:0:
192,192,44279,1,0,0:0:0:0:
320,192,44363,1,0,0:0:0:0:
64,192,44448,1,0,0:0:0:0:
448,192,44532,1,0,0:0:0:0:
192,192,44616,1,0,0:0:0:0:
320,192,44700,1,0,0:0:0:0:
64,192,44785,1,0,0:0:0:0:
192,192,44869,1,0,0:0:0:0:
448,192,44869,128,0,45543:0:0:0:0:
192,192,45037,1,0,0:0:0:0:
192,192,45206,1,0,0:0:0:0:
192,192,45374,1,0,0:0:0:0:
320,192,45543,1,0,0:0:0:0:
64,192,45543,128,0,46049:0:0:0:0:
320,192,45712,1,0,0:0:0:0:
320,192,45880,1,0,0:0:0:0:
320,192,46049,1,0,0:0:0:0:
64,192,46217,1,0,0:0:0:0:
192,192,46217,1,0,0:0:0:0:
448,192,46217,1,0,0:0:0:0:
192,192,46554,1,0,0:0:0:0:
448,192,46554,1,0,0:0:0:0:
320,192,46891,1,0,0:0:0:0:
64,192,46891,1,0,0:0:0:0:
192,192,47060,1,0,0:0:0:0:
448,192,47228,1,0,0:0:0:0:
320,192,47228,1,0,0:0:0:0:
64,192,47397,1,0,0:0:0:0:
192,192,47566,1,0,0:0:0:0:
448,192,47566,1,0,0:0:0:0:
320,192,47734,1,0,0:0:0:0:
192,192,47903,1,0,0:0:0:0:
64,192,47903,1,0,0:0:0:0:
448,192,48071,1,0,0:0:0:0:
320,192,48071,1,0,0:0:0:0:
448,192,48408,1,0,0:0:0:0:
64,192,48408,1,0,0:0:0:0:
192,192,48577,1,0,0:0:0:0:
320,192,48577,1,0,0:0:0:0:
64,192,48745,1,0,0:0:0:0:
448,192,48914,1,0,0:0:0:0:
320,192,48998,1,0,0:0:0:0:
192,192,49082,1,0,0:0:0:0:
320,192,49167,1,0,0:0:0:0:
448,192,49251,1,0,0:0:0:0:
64,192,49251,1,0,0:0:0:0:
192,192,49335,1,0,0:0:0:0:
320,192,49419,1,0,0:0:0:0:
192,192,49504,1,0,0:0:0:0:
64,192,49588,1,0,0:0:0:0:
448,192,49588,1,0,0:0:0:0:
192,192,49757,1,0,0:0:0:0:
320,192,49757,1,0,0:0:0:0:
448,192,49925,1,0,0:0:0:0:
64,192,49925,1,0,0:0:0:0:
192,192,50094,1,0,0:0:0:0:
320,192,50094,1,0,0:0:0:0:
320,192,50262,1,0,0:0:0:0:
64,192,50262,1,0,0:0:0:0:
64,192,50431,1,0,0:0:0:0:
448,192,50431,1,0,0:0:0:0:
192,192,50599,1,0,0:0:0:0:
448,192,50599,1,0,0:0:0:0:
64,192,50768,1,0,0:0:0:0:
320,192,50768,1,0,0:0:0:0:
192,192,51105,1,0,0:0:0:0:
64,192,51105,1,0,0:0:0:0:
320,192,51273,1,0,0:0:0:0:
448,192,51273,1,0,0:0:0:0:
192,192,51442,1,0,0:0:0:0:
192,192,51610,1,0,0:0:0:0:
64,192,51610,1,0,0:0:0:0:
448,192,51610,1,0,0:0:0:0:
192,192,51948,1,0,0:0:0:0:
448,192,51948,1,0,0:0:0:0:
320,192,52285,1,0,0:0:0:0:
64,192,52285,1,0,0:0:0:0:
192,192,52453,1,0,0:0:0:0:
448,192,52622,1,0,0:0:0:0:
320,192,52622,1,0,0:0:0:0:
64,192,52790,1,0,0:0:0:0:
192,192,52959,1,0,0:0:0:0:
448,192,52959,1,0,0:0:0:0:
320,192,53127,1,0,0:0:0:0:
448,192,53296,1,0,0:0:0:0:
64,192,53296,1,0,0:0:0:0:
192,192,53464,1,0,0:0:0:0:
320,192,53464,1,0,0:0:0:0:
448,192,53801,1,0,0:0:0:0:
192,192,53801,1,0,0:0:0:0:
320,192,53970,1,0,0:0:0:0:
64,192,53970,1,0,0:0:0:0:
192,192,54139,1,0,0:0:0:0:
448,192,54307,1,0,0:0:0:0:
320,192,54307,1,0,0:0:0:0:
192,192,54476,1,0,0:0:0:0:
64,192,54560,1,0,0:0:0:0:
448,192,54644,1,0,0:0:0:0:
320,192,54644,1,0,0:0:0:0:
192,192,54813,1,0,0:0:0:0:
64,192,54813,1,0,0:0:0:0:
448,192,54981,1,0,0:0:0:0:
320,192,55066,1,0,0:0:0:0:
64,192,55150,1,0,0:0:0:0:
192,192,55234,1,0,0:0:0:0:
448,192,55318,1,0,0:0:0:0:
320,192,55403,1,0,0:0:0:0:
64,192,55487,1,0,0:0:0:0:
192,192,55571,1,0,0:0:0:0:
320,192,55655,1,0,0:0:0:0:
448,192,55655,1,0,0:0:0:0:
448,192,55824,1,0,0:0:0:0:
192,192,55992,1,0,0:0:0:0:
64,192,55992,1,0,0:0:0:0:
64,192,56161,1,0,0:0:0:0:
320,192,56161,1,0,0:0:0:0:
448,192,56330,1,0,0:0:0:0:
192,192,56498,1,0,0:0:0:0:
64,192,56498,1,0,0:0:0:0:
320,192,56667,1,0,0:0:0:0:
448,192,56667,1,0,0:0:0:0:
192,192,56835,1,0,0:0:0:0:
64,192,56835,1,0,0:0:0:0:
64,192,57004,1,0,0:0:0:0:
448,192,57004,1,0,0:0:0:0:
320,192,57004,1,0,0:0:0:0:
192,192,57341,1,0,0:0:0:0:
448,192,57341,1,0,0:0:0:0:
320,192,57678,1,0,0:0:0:0:
64,192,57678,1,0,0:0:0:0:
192,192,57846,1,0,0:0:0:0:
320,192,58015,1,0,0:0:0:0:
448,192,58015,1,0,0:0:0:0:
64,192,58183,1,0,0:0:0:0:
192,192,58268,1,0,0:0:0:0:
448,192,58352,1,0,0:0:0:0:
320,192,58352,1,0,0:0:0:0:
64,192,58521,1,0,0:0:0:0:
448,192,58521,1,0,0:0:0:0:
192,192,58689,1,0,0:0:0:0:
320,192,58689,1,0,0:0:0:0:
320,192,58858,1,0,0:0:0:0:
64,192,58858,1,0,0:0:0:0:
64,192,59195,1,0,0:0:0:0:
448,192,59195,1,0,0:0:0:0:
320,192,59363,1,0,0:0:0:0:
192,192,59363,1,0,0:0:0:0:
192,192,59532,1,0,0:0:0:0:
448,192,59700,1,0,0:0:0:0:
320,192,59700,1,0,0:0:0:0:
192,192,59869,1,0,0:0:0:0:
64,192,59953,1,0,0:0:0:0:
448,192,60037,1,0,0:0:0:0:
320,192,60037,1,0,0:0:0:0:
192,192,60206,1,0,0:0:0:0:
64,192,60290,1,0,0:0:0:0:
448,192,60374,1,0,0:0:0:0:
320,192,60374,1,0,0:0:0:0:
192,192,60543,1,0,0:0:0:0:
64,192,60627,1,0,0:0:0:0:
448,192,60712,1,0,0:0:0:0:
320,192,60712,1,0,0:0:0:0:
192,192,60880,1,0,0:0:0:0:
64,192,60964,1,0,0:0:0:0:
320,192,61049,1,0,0:0:0:0:
448,192,61049,1,0,0:0:0:0:
448,192,61217,1,0,0:0:0:0:
64,192,61217,1,0,0:0:0:0:
320,192,61386,1,0,0:0:0:0:
64,192,61386,1,0,0:0:0:0:
320,192,61554,1,0,0:0:0:0:
192,192,61554,1,0,0:0:0:0:
64,192,61891,1,0,0:0:0:0:
192,192,61891,1,0,0:0:0:0:
448,192,62060,1,0,0:0:0:0:
320,192,62060,1,0,0:0:0:0:
192,192,62228,1,0,0:0:0:0:
448,192,62397,1,0,0:0:0:0:
64,192,62397,1,0,0:0:0:0:
192,192,62397,1,0,0:0:0:0:
448,192,62734,1,0,0:0:0:0:
192,192,62734,1,0,0:0:0:0:
64,192,63071,1,0,0:0:0:0:
320,192,63071,1,0,0:0:0:0:
192,192,63240,1,0,0:0:0:0:
320,192,63408,1,0,0:0:0:0:
448,192,63408,1,0,0:0:0:0:
64,192,63577,1,0,0:0:0:0:
192,192,63577,1,0,0:0:0:0:
448,192,63745,1,0,0:0:0:0:
320,192,63745,1,0,0:0:0:0:
64,192,63914,1,0,0:0:0:0:
320,192,63914,1,0,0:0:0:0:
192,192,64082,1,0,0:0:0:0:
320,192,64251,1,0,0:0:0:0:
448,192,64251,1,0,0:0:0:0:
64,192,64588,1,0,0:0:0:0:
448,192,64588,1,0,0:0:0:0:
320,192,64757,1,0,0:0:0:0:
192,192,64757,1,0,0:0:0:0:
64,192,64925,1,0,0:0:0:0:
448,192,65094,1,0,0:0:0:0:
320,192,65094,1,0,0:0:0:0:
192,192,65262,1,0,0:0:0:0:
64,192,65346,1,0,0:0:0:0:
448,192,65431,1,0,0:0:0:0:
320,192,65431,1,0,0:0:0:0:
192,192,65599,1,0,0:0:0:0:
64,192,65683,1,0,0:0:0:0:
448,192,65768,1,0,0:0:0:0:
320,192,65768,1,0,0:0:0:0:
192,192,65936,1,0,0:0:0:0:
64,192,66021,1,0,0:0:0:0:
448,192,66105,1,0,0:0:0:0:
320,192,66105,1,0,0:0:0:0:
192,192,66273,1,0,0:0:0:0:
64,192,66273,1,0,0:0:0:0:
320,192,66442,1,0,0:0:0:0:
448,192,66442,1,0,0:0:0:0:
448,192,66610,1,0,0:0:0:0:
64,192,66610,1,0,0:0:0:0:
320,192,66948,1,0,0:0:0:0:
192,192,66948,1,0,0:0:0:0:
64,192,67285,1,0,0:0:0:0:
192,192,67285,1,0,0:0:0:0:
448,192,67453,1,0,0:0:0:0:
320,192,67453,1,0,0:0:0:0:
64,192,67790,1,0,0:0:0:0:
192,192,67790,1,0,0:0:0:0:
448,192,67790,1,0,0:0:0:0:
320,192,67959,1,0,0:0:0:0:
64,192,68127,1,0,0:0:0:0:
448,192,68127,1,0,0:0:0:0:
192,192,68296,1,0,0:0:0:0:
448,192,68464,1,0,0:0:0:0:
320,192,68633,1,0,0:0:0:0:
192,192,68801,1,0,0:0:0:0:
64,192,68801,1,0,0:0:0:0:
320,192,68970,1,0,0:0:0:0:
448,192,69139,1,0,0:0:0:0:
64,192,69139,1,0,0:0:0:0:
192,192,69307,1,0,0:0:0:0:
448,192,69476,1,0,0:0:0:0:
64,192,69476,1,0,0:0:0:0:
320,192,69644,1,0,0:0:0:0:
64,192,69813,1,0,0:0:0:0:
192,192,69981,1,0,0:0:0:0:
320,192,70150,1,0,0:0:0:0:
448,192,70150,1,0,0:0:0:0:
192,192,70318,1,0,0:0:0:0:
448,192,70487,1,0,0:0:0:0:
64,192,70487,1,0,0:0:0:0:
320,192,70655,1,0,0:0:0:0:
64,192,70824,1,0,0:0:0:0:
448,192,70824,1,0,0:0:0:0:
192,192,70992,1,0,0:0:0:0:
448,192,71161,1,0,0:0:0:0:
320,192,71330,1,0,0:0:0:0:
192,192,71498,1,0,0:0:0:0:
64,192,71498,1,0,0:0:0:0:
320,192,71667,1,0,0:0:0:0:
448,192,71667,1,0,0:0:0:0:
64,192,71835,1,0,0:0:0:0:
192,192,72004,1,0,0:0:0:0:
448,192,72004,1,0,0:0:0:0:
64,192,72172,1,0,0:0:0:0:
320,192,72341,1,0,0:0:0:0:
448,192,72341,1,0,0:0:0:0:
448,192,72509,1,0,0:0:0:0:
192,192,72509,1,0,0:0:0:0:
192,192,72678,1,0,0:0:0:0:
320,192,72846,1,0,0:0:0:0:
448,192,72846,1,0,0:0:0:0:
64,192,72846,1,0,0:0:0:0:
64,192,73183,1,0,0:0:0:0:
448,192,73183,1,0,0:0:0:0:
320,192,73352,1,0,0:0:0:0:
64,192,73521,1,0,0:0:0:0:
448,192,73521,1,0,0:0:0:0:
192,192,73689,1,0,0:0:0:0:
448,192,73858,1,0,0:0:0:0:
320,192,74026,1,0,0:0:0:0:
192,192,74195,1,0,0:0:0:0:
64,192,74195,1,0,0:0:0:0:
320,192,74363,1,0,0:0:0:0:
448,192,74532,1,0,0:0:0:0:
64,192,74532,1,0,0:0:0:0:
192,192,74700,1,0,0:0:0:0:
448,192,74869,1,0,0:0:0:0:
64,192,74869,1,0,0:0:0:0:
320,192,75037,1,0,0:0:0:0:
64,192,75206,1,0,0:0:0:0:
192,192,75374,1,0,0:0:0:0:
320,192,75543,1,0,0:0:0:0:
448,192,75543,1,0,0:0:0:0:
192,192,75712,1,0,0:0:0:0:
448,192,75880,1,0,0:0:0:0:
64,192,75880,1,0,0:0:0:0:
320,192,76049,1,0,0:0:0:0:
64,192,76217,1,0,0:0:0:0:
448,192,76217,1,0,0:0:0:0:
192,192,76386,1,0,0:0:0:0:
448,192,76554,1,0,0:0:0:0:
320,192,76723,1,0,0:0:0:0:
192,192,76891,1,0,0:0:0:0:
64,192,76891,1,0,0:0:0:0:
448,192,77060,1,0,0:0:0:0:
64,192,77228,1,0,0:0:0:0:
320,192,77228,1,0,0:0:0:0:
448,192,77397,1,0,0:0:0:0:
64,192,77566,1,0,0:0:0:0:
192,192,77566,1,0,0:0:0:0:
448,192,77734,1,0,0:0:0:0:
320,192,77818,1,0,0:0:0:0:
192,192,77903,1,0,0:0:0:0:
64,192,77903,1,0,0:0:0:0:
320,192,78071,1,0,0:0:0:0:
448,192,78071,1,0,0:0:0:0:
448,192,78240,1,0,0:0:0:0:
64,192,78240,1,0,0:0:0:0:
192,192,78240,1,0,0:0:0:0:
320,192,78408,1,0,0:0:0:0:
448,192,78577,1,0,0:0:0:0:
192,192,78577,1,0,0:0:0:0:
64,192,78577,1,0,0:0:0:0:
320,192,78745,1,0,0:0:0:0:
448,192,78914,1,0,0:0:0:0:
64,192,78914,1,0,0:0:0:0:
192,192,79082,1,0,0:0:0:0:
448,192,79251,1,0,0:0:0:0:
320,192,79419,1,0,0:0:0:0:
64,192,79588,1,0,0:0:0:0:
192,192,79588,1,0,0:0:0:0:
320,192,79757,1,0,0:0:0:0:
64,192,79925,1,0,0:0:0:0:
448,192,79925,1,0,0:0:0:0:
192,192,80094,1,0,0:0:0:0:
64,192,80262,1,0,0:0:0:0:
448,192,80262,1,0,0:0:0:0:
320,192,80431,1,0,0:0:0:0:
64,192,80599,1,0,0:0:0:0:
192,192,80768,1,0,0:0:0:0:
448,192,80936,1,0,0:0:0:0:
320,192,80936,1,0,0:0:0:0:
192,192,81105,1,0,0:0:0:0:
64,192,81273,1,0,0:0:0:0:
448,192,81273,1,0,0:0:0:0:
320,192,81442,1,0,0:0:0:0:
448,192,81610,1,0,0:0:0:0:
64,192,81610,1,0,0:0:0:0:
192,192,81779,1,0,0:0:0:0:
448,192,81948,1,0,0:0:0:0:
320,192,82116,1,0,0:0:0:0:
64,192,82285,1,0,0:0:0:0:
192,192,82285,1,0,0:0:0:0:
448,192,82453,1,0,0:0:0:0:
320,192,82453,1,0,0:0:0:0:
64,192,82622,1,0,0:0:0:0:
448,192,82790,1,0,0:0:0:0:
192,192,82790,1,0,0:0:0:0:
64,192,82959,1,0,0:0:0:0:
448,192,83127,1,0,0:0:0:0:
320,192,83127,1,0,0:0:0:0:
192,192,83296,1,0,0:0:0:0:
448,192,83296,1,0,0:0:0:0:
192,192,83464,1,0,0:0:0:0:
64,192,83633,1,0,0:0:0:0:
448,192,83633,1,0,0:0:0:0:
320,192,83633,1,0,0:0:0:0:
64,192,83970,1,0,0:0:0:0:
192,192,83970,1,0,0:0:0:0:
448,192,83970,1,0,0:0:0:0:
320,192,84139,1,0,0:0:0:0:
64,192,84307,1,0,0:0:0:0:
448,192,84307,1,0,0:0:0:0:
192,192,84476,1,0,0:0:0:0:
448,192,84644,1,0,0:0:0:0:
320,192,84813,1,0,0:0:0:0:
192,192,84981,1,0,0:0:0:0:
64,192,84981,1,0,0:0:0:0:
320,192,85150,1,0,0:0:0:0:
448,192,85318,1,0,0:0:0:0:
64,192,85318,1,0,0:0:0:0:
192,192,85487,1,0,0:0:0:0:
448,192,85655,1,0,0:0:0:0:
64,192,85655,1,0,0:0:0:0:
320,192,85824,1,0,0:0:0:0:
64,192,85992,1,0,0:0:0:0:
192,192,86161,1,0,0:0:0:0:
320,192,86330,1,0,0:0:0:0:
448,192,86330,1,0,0:0:0:0:
192,192,86498,1,0,0:0:0:0:
448,192,86667,1,0,0:0:0:0:
64,192,86667,1,0,0:0:0:0:
320,192,86835,1,0,0:0:0:0:
64,192,87004,1,0,0:0:0:0:
448,192,87004,1,0,0:0:0:0:
192,192,87172,1,0,0:0:0:0:
448,192,87341,1,0,0:0:0:0:
320,192,87509,1,0,0:0:0:0:
192,192,87678,1,0,0:0:0:0:
64,192,87678,1,0,0:0:0:0:
320,192,87846,1,0,0:0:0:0:
448,192,88015,1,0,0:0:0:0:
192,192,88099,1,0,0:0:0:0:
320,192,88183,1,0,0:0:0:0:
64,192,88268,1,0,0:0:0:0:
448,192,88352,1,0,0:0:0:0:
64,192,88521,1,0,0:0:0:0:
320,192,88605,1,0,0:0:0:0:
192,192,88689,1,0,0:0:0:0:
448,192,88773,1,0,0:0:0:0:
64,192,88858,1,0,0:0:0:0:
192,192,88942,1,0,0:0:0:0:
320,192,89026,1,0,0:0:0:0:
448,192,89026,1,0,0:0:0:0:
192,192,89363,1,0,0:0:0:0:
64,192,89363,1,0,0:0:0:0:
448,192,89363,1,0,0:0:0:0:
320,192,89532,1,0,0:0:0:0:
192,192,89616,1,0,0:0:0:0:
448,192,89700,1,0,0:0:0:0:
64,192,89700,1,0,0:0:0:0:
192,192,89869,1,0,0:0:0:0:
320,192,89953,1,0,0:0:0:0:
448,192,90037,1,0,0:0:0:0:
64,192,90037,1,0,0:0:0:0:
320,192,90206,1,0,0:0:0:0:
192,192,90206,1,0,0:0:0:0:
448,192,90374,1,0,0:0:0:0:
64,192,90374,1,0,0:0:0:0:
192,192,90543,1,0,0:0:0:0:
192,192,90712,1,0,0:0:0:0:
448,192,90712,1,0,0:0:0:0:
320,192,90880,1,0,0:0:0:0:
192,192,90964,1,0,0:0:0:0:
448,192,91049,1,0,0:0:0:0:
64,192,91049,1,0,0:0:0:0:
192,192,91217,1,0,0:0:0:0:
320,192,91301,1,0,0:0:0:0:
448,192,91386,1,0,0:0:0:0:
64,192,91386,1,0,0:0:0:0:
320,192,91554,1,0,0:0:0:0:
192,192,91554,1,0,0:0:0:0:
448,192,91723,1,0,0:0:0:0:
320,192,91723,1,0,0:0:0:0:
192,192,91891,1,0,0:0:0:0:
192,192,92060,1,0,0:0:0:0:
64,192,92060,128,0,92397:0:0:0:0:
448,192,92060,1,0,0:0:0:0:
320,192,92228,1,0,0:0:0:0:
192,192,92397,1,0,0:0:0:0:
448,192,92397,1,0,0:0:0:0:
64,192,92566,1,0,0:0:0:0:
192,192,92734,1,0,0:0:0:0:
320,192,92903,1,0,0:0:0:0:
64,192,92903,1,0,0:0:0:0:
448,192,93071,1,0,0:0:0:0:
64,192,93071,1,0,0:0:0:0:
192,192,93240,1,0,0:0:0:0:
448,192,93240,1,0,0:0:0:0:
192,192,93577,1,0,0:0:0:0:
448,192,93577,1,0,0:0:0:0:
320,192,93745,1,0,0:0:0:0:
64,192,93914,1,0,0:0:0:0:
192,192,94082,1,0,0:0:0:0:
448,192,94082,1,0,0:0:0:0:
320,192,94419,1,0,0:0:0:0:
192,192,94419,1,0,0:0:0:0:
64,192,94757,1,0,0:0:0:0:
448,192,94757,1,0,0:0:0:0:
320,192,94841,1,0,0:0:0:0:
192,192,94925,1,0,0:0:0:0:
320,192,95009,1,0,0:0:0:0:
448,192,95094,1,0,0:0:0:0:
64,192,95094,1,0,0:0:0:0:
192,192,95262,1,0,0:0:0:0:
320,192,95431,1,0,0:0:0:0:
64,192,95599,1,0,0:0:0:0:
448,192,95599,1,0,0:0:0:0:
64,192,95768,1,0,0:0:0:0:
320,192,95768,1,0,0:0:0:0:
192,192,95936,1,0,0:0:0:0:
192,192,96105,1,0,0:0:0:0:
448,192,96105,1,0,0:0:0:0:
320,192,96189,1,0,0:0:0:0:
448,192,96358,1,0,0:0:0:0:
320,192,96442,1,0,0:0:0:0:
64,192,96442,1,0,0:0:0:0:
192,192,96610,1,0,0:0:0:0:
320,192,96695,1,0,0:0:0:0:
448,192,96779,1,0,0:0:0:0:
64,192,96779,1,0,0:0:0:0:
320,192,96948,1,0,0:0:0:0:
192,192,96948,1,0,0:0:0:0:
448,192,97116,1,0,0:0:0:0:
64,192,97116,1,0,0:0:0:0:
192,192,97285,1,0,0:0:0:0:
320,192,97453,1,0,0:0:0:0:
320,192,97790,1,0,0:0:0:0:
320,192,98127,1,0,0:0:0:0:
320,192,98464,1,0,0:0:0:0:
192,192,98633,1,0,0:0:0:0:
64,192,98633,1,0,0:0:0:0:
320,192,98801,1,0,0:0:0:0:
448,192,98801,128,0,98970:0:0:0:0:
64,192,98970,1,0,0:0:0:0:
448,192,99139,1,0,0:0:0:0:
320,192,99139,128,0,99307:0:0:0:0:
64,192,99307,1,0,0:0:0:0:
192,192,99391,1,0,0:0:0:0:
320,192,99476,1,0,0:0:0:0:
448,192,99476,128,0,99644:0:0:0:0:
192,192,99644,1,0,0:0:0:0:
64,192,99813,1,0,0:0:0:0:
448,192,99813,1,0,0:0:0:0:
320,192,99981,1,0,0:0:0:0:
192,192,100150,1,0,0:0:0:0:
64,192,100150,128,0,101498:0:0:0:0:
448,192,100487,1,0,0:0:0:0:
192,192,100824,128,0,101498:0:0:0:0:
448,192,101161,1,0,0:0:0:0:
320,192,101330,128,0,101498:0:0:0:0:
448,192,101498,128,0,102172:0:0:0:0:
64,192,101835,1,0,0:0:0:0:
320,192,101835,128,0,102172:0:0:0:0:
192,192,102172,128,0,102846:0:0:0:0:
64,192,102509,128,0,102846:0:0:0:0:
448,192,102509,1,0,0:0:0:0:
320,192,102846,128,0,104195:0:0:0:0:
448,192,102846,1,0,0:0:0:0:
64,192,103183,1,0,0:0:0:0:
448,192,103521,1,0,0:0:0:0:
64,192,103858,1,0,0:0:0:0:
64,192,104195,1,0,0:0:0:0:
448,192,104195,1,0,0:0:0:0:
448,192,104532,128,0,104869:0:0:0:0:
320,192,104532,1,0,0:0:0:0:
192,192,104700,1,0,0:0:0:0:
64,192,104869,128,0,105037:0:0:0:0:
320,192,104869,1,0,0:0:0:0:
192,192,105037,1,0,0:0:0:0:
320,192,105206,128,0,105543:0:0:0:0:
448,192,105206,128,0,105543:0:0:0:0:
192,192,105543,1,0,0:0:0:0:
64,192,105543,128,0,106891:0:0:0:0:
448,192,105880,1,0,0:0:0:0:
192,192,106217,128,0,106891:0:0:0:0:
448,192,106554,1,0,0:0:0:0:
320,192,106723,128,0,106891:0:0:0:0:
448,192,106891,128,0,107566:0:0:0:0:
64,192,107228,1,0,0:0:0:0:
320,192,107228,128,0,107566:0:0:0:0:
192,192,107566,128,0,108240:0:0:0:0:
64,192,107903,128,0,108240:0:0:0:0:
448,192,107903,1,0,0:0:0:0:
448,192,108240,1,0,0:0:0:0:
320,192,108324,1,0,0:0:0:0:
192,192,108408,1,0,0:0:0:0:
64,192,108492,1,0,0:0:0:0:
448,192,108577,1,0,0:0:0:0:
320,192,108661,1,0,0:0:0:0:
192,192,108745,1,0,0:0:0:0:
64,192,108830,1,0,0:0:0:0:
448,192,108914,1,0,0:0:0:0:
192,192,108998,1,0,0:0:0:0:
320,192,109082,1,0,0:0:0:0:
64,192,109167,1,0,0:0:0:0:
448,192,109251,1,0,0:0:0:0:
192,192,109335,1,0,0:0:0:0:
320,192,109419,1,0,0:0:0:0:
64,192,109504,1,0,0:0:0:0:
192,192,109588,1,0,0:0:0:0:
448,192,109588,128,0,110262:0:0:0:0:
192,192,109757,1,0,0:0:0:0:
192,192,109925,1,0,0:0:0:0:
192,192,110094,1,0,0:0:0:0:
320,192,110262,1,0,0:0:0:0:
64,192,110262,128,0,110768:0:0:0:0:
320,192,110431,1,0,0:0:0:0:
320,192,110599,1,0,0:0:0:0:
320,192,110768,1,0,0:0:0:0:
64,192,110936,1,0,0:0:0:0:
192,192,110936,1,0,0:0:0:0:
448,192,110936,1,0,0:0:0:0:
192,192,111273,1,0,0:0:0:0:
448,192,111273,1,0,0:0:0:0:
320,192,111610,1,0,0:0:0:0:
64,192,111610,1,0,0:0:0:0:
192,192,111779,1,0,0:0:0:0:
448,192,111948,1,0,0:0:0:0:
320,192,111948,1,0,0:0:0:0:
64,192,112116,1,0,0:0:0:0:
192,192,112285,1,0,0:0:0:0:
448,192,112285,1,0,0:0:0:0:
320,192,112453,1,0,0:0:0:0:
192,192,112622,1,0,0:0:0:0:
64,192,112622,1,0,0:0:0:0:
448,192,112790,1,0,0:0:0:0:
320,192,112790,1,0,0:0:0:0:
448,192,113127,1,0,0:0:0:0:
64,192,113127,1,0,0:0:0:0:
192,192,113296,1,0,0:0:0:0:
320,192,113296,1,0,0:0:0:0:
64,192,113464,1,0,0:0:0:0:
448,192,113633,1,0,0:0:0:0:
320,192,113717,1,0,0:0:0:0:
192,192,113801,1,0,0:0:0:0:
320,192,113886,1,0,0:0:0:0:
448,192,113970,1,0,0:0:0:0:
64,192,113970,1,0,0:0:0:0:
192,192,114054,1,0,0:0:0:0:
320,192,114139,1,0,0:0:0:0:
192,192,114223,1,0,0:0:0:0:
64,192,114307,1,0,0:0:0:0:
448,192,114307,1,0,0:0:0:0:
192,192,114476,1,0,0:0:0:0:
320,192,114476,1,0,0:0:0:0:
448,192,114644,1,0,0:0:0:0:
64,192,114644,1,0,0:0:0:0:
192,192,114813,1,0,0:0:0:0:
320,192,114813,1,0,0:0:0:0:
320,192,114981,1,0,0:0:0:0:
64,192,114981,1,0,0:0:0:0:
64,192,115150,1,0,0:0:0:0:
448,192,115150,1,0,0:0:0:0:
192,192,115318,1,0,0:0:0:0:
448,192,115318,1,0,0:0:0:0:
64,192,115487,1,0,0:0:0:0:
320,192,115487,1,0,0:0:0:0:
192,192,115824,1,0,0:0:0:0:
64,192,115824,1,0,0:0:0:0:
320,192,115992,1,0,0:0:0:0:
448,192,115992,1,0,0:0:0:0:
192,192,116161,1,0,0:0:0:0:
192,192,116330,1,0,0:0:0:0:
64,192,116330,1,0,0:0:0:0:
448,192,116330,1,0,0:0:0:0:
192,192,116667,1,0,0:0:0:0:
448,192,116667,1,0,0:0:0:0:
320,192,117004,1,0,0:0:0:0:
64,192,117004,1,0,0:0:0:0:
192,192,117172,1,0,0:0:0:0:
448,192,117341,1,0,0:0:0:0:
320,192,117341,1,0,0:0:0:0:
64,192,117509,1,0,0:0:0:0:
192,192,117678,1,0,0:0:0:0:
448,192,117678,1,0,0:0:0:0:
320,192,117846,1,0,0:0:0:0:
448,192,118015,1,0,0:0:0:0:
64,192,118015,1,0,0:0:0:0:
192,192,118183,1,0,0:0:0:0:
320,192,118183,1,0,0:0:0:0:
448,192,118521,1,0,0:0:0:0:
192,192,118521,1,0,0:0:0:0:
320,192,118689,1,0,0:0:0:0:
64,192,118689,1,0,0:0:0:0:
192,192,118858,1,0,0:0:0:0:
448,192,119026,1,0,0:0:0:0:
320,192,119026,1,0,0:0:0:0:
192,192,119195,1,0,0:0:0:0:
64,192,119279,1,0,0:0:0:0:
448,192,119363,1,0,0:0:0:0:
320,192,119363,1,0,0:0:0:0:
192,192,119532,1,0,0:0:0:0:
64,192,119532,1,0,0:0:0:0:
448,192,119700,1,0,0:0:0:0:
320,192,119785,1,0,0:0:0:0:
64,192,119869,1,0,0:0:0:0:
192,192,119953,1,0,0:0:0:0:
448,192,120037,1,0,0:0:0:0:
320,192,120122,1,0,0:0:0:0:
64,192,120206,1,0,0:0:0:0:
192,192,120290,1,0,0:0:0:0:
320,192,120374,1,0,0:0:0:0:
448,192,120374,1,0,0:0:0:0:
448,192,120543,1,0,0:0:0:0:
192,192,120712,1,0,0:0:0:0:
64,192,120712,1,0,0:0:0:0:
64,192,120880,1,0,0:0:0:0:
320,192,120880,1,0,0:0:0:0:
448,192,121049,1,0,0:0:0:0:
192,192,121217,1,0,0:0:0:0:
64,192,121217,1,0,0:0:0:0:
320,192,121386,1,0,0:0:0:0:
448,192,121386,1,0,0:0:0:0:
192,192,121554,1,0,0:0:0:0:
64,192,121554,1,0,0:0:0:0:
64,192,121723,1,0,0:0:0:0:
448,192,121723,1,0,0:0:0:0:
320,192,121723,1,0,0:0:0:0:
192,192,122060,1,0,0:0:0:0:
448,192,122060,1,0,0:0:0:0:
320,192,122397,1,0,0:0:0:0:
64,192,122397,1,0,0:0:0:0:
192,192,122566,1,0,0:0:0:0:
320,192,122734,1,0,0:0:0:0:
448,192,122734,1,0,0:0:0:0:
64,192,122903,1,0,0:0:0:0:
192,192,122987,1,0,0:0:0:0:
448,192,123071,1,0,0:0:0:0:
320,192,123071,1,0,0:0:0:0:
64,192,123240,1,0,0:0:0:0:
448,192,123240,1,0,0:0:0:0:
192,192,123408,1,0,0:0:0:0:
320,192,123408,1,0,0:0:0:0:
320,192,123577,1,0,0:0:0:0:
64,192,123577,1,0,0:0:0:0:
64,192,123914,1,0,0:0:0:0:
448,192,123914,1,0,0:0:0:0:
320,192,124082,1,0,0:0:0:0:
192,192,124082,1,0,0:0:0:0:
192,192,124251,1,0,0:0:0:0:
448,192,124419,1,0,0:0:0:0:
64,192,124419,1,0,0:0:0:0:
320,192,124504,1,0,0:0:0:0:
192,192,124588,1,0,0:0:0:0:
320,192,124672,1,0,0:0:0:0:
448,192,124757,1,0,0:0:0:0:
64,192,124757,1,0,0:0:0:0:
192,192,124841,1,0,0:0:0:0:
320,192,124925,1,0,0:0:0:0:
192,192,125009,1,0,0:0:0:0:
448,192,125094,1,0,0:0:0:0:
64,192,125094,1,0,0:0:0:0:
192,192,125262,1,0,0:0:0:0:
320,192,125262,1,0,0:0:0:0:
448,192,125431,1,0,0:0:0:0:
64,192,125431,1,0,0:0:0:0:
192,192,125599,1,0,0:0:0:0:
320,192,125599,1,0,0:0:0:0:
64,192,125768,1,0,0:0:0:0:
192,192,125768,1,0,0:0:0:0:
448,192,125936,1,0,0:0:0:0:
320,192,125936,1,0,0:0:0:0:
64,192,126105,1,0,0:0:0:0:
448,192,126105,1,0,0:0:0:0:
320,192,126273,1,0,0:0:0:0:
192,192,126273,1,0,0:0:0:0:
64,192,126610,1,0,0:0:0:0:
192,192,126610,1,0,0:0:0:0:
448,192,126779,1,0,0:0:0:0:
320,192,126779,1,0,0:0:0:0:
192,192,126948,1,0,0:0:0:0:
448,192,127116,1,0,0:0:0:0:
64,192,127116,1,0,0:0:0:0:
192,192,127116,1,0,0:0:0:0:
448,192,127453,1,0,0:0:0:0:
192,192,127453,1,0,0:0:0:0:
64,192,127790,1,0,0:0:0:0:
320,192,127790,1,0,0:0:0:0:
192,192,127959,1,0,0:0:0:0:
320,192,128127,1,0,0:0:0:0:
448,192,128127,1,0,0:0:0:0:
64,192,128296,1,0,0:0:0:0:
192,192,128296,1,0,0:0:0:0:
448,192,128464,1,0,0:0:0:0:
320,192,128464,1,0,0:0:0:0:
64,192,128633,1,0,0:0:0:0:
320,192,128633,1,0,0:0:0:0:
192,192,128801,1,0,0:0:0:0:
320,192,128970,1,0,0:0:0:0:
448,192,128970,1,0,0:0:0:0:
64,192,129307,1,0,0:0:0:0:
448,192,129307,1,0,0:0:0:0:
320,192,129476,1,0,0:0:0:0:
192,192,129476,1,0,0:0:0:0:
192,192,129644,1,0,0:0:0:0:
448,192,129813,1,0,0:0:0:0:
64,192,129813,1,0,0:0:0:0:
320,192,129897,1,0,0:0:0:0:
192,192,129981,1,0,0:0:0:0:
64,192,130066,1,0,0:0:0:0:
448,192,130150,1,0,0:0:0:0:
320,192,130150,1,0,0:0:0:0:
192,192,130234,1,0,0:0:0:0:
64,192,130403,1,0,0:0:0:0:
448,192,130487,1,0,0:0:0:0:
320,192,130487,1,0,0:0:0:0:
192,192,130655,1,0,0:0:0:0:
64,192,130655,1,0,0:0:0:0:
448,192,130824,1,0,0:0:0:0:
320,192,130824,1,0,0:0:0:0:
192,192,130992,1,0,0:0:0:0:
64,192,130992,1,0,0:0:0:0:
320,192,131161,1,0,0:0:0:0:
448,192,131161,1,0,0:0:0:0:
192,192,131245,1,0,0:0:0:0:
64,192,131330,1,0,0:0:0:0:
320,192,131414,1,0,0:0:0:0:
192,192,131498,1,0,0:0:0:0:
448,192,131582,1,0,0:0:0:0:
320,192,131667,1,0,0:0:0:0:
192,192,131751,1,0,0:0:0:0:
64,192,131835,1,0,0:0:0:0:
320,192,131919,1,0,0:0:0:0:
192,192,132004,1,0,0:0:0:0:
448,192,132088,1,0,0:0:0:0:
320,192,132172,1,0,0:0:0:0:
64,192,132172,1,0,0:0:0:0:
320,192,132341,1,0,0:0:0:0:
64,192,132509,1,0,0:0:0:0:
192,192,132509,1,0,0:0:0:0:
448,192,132509,1,0,0:0:0:0:
64,192,132846,1,0,0:0:0:0:
448,192,132846,1,0,0:0:0:0:
192,192,133015,1,0,0:0:0:0:
320,192,133183,1,0,0:0:0:0:
448,192,133183,1,0,0:0:0:0:
192,192,133352,1,0,0:0:0:0:
64,192,133352,1,0,0:0:0:0:
320,192,133521,1,0,0:0:0:0:
448,192,133521,1,0,0:0:0:0:
192,192,133689,1,0,0:0:0:0:
320,192,133773,1,0,0:0:0:0:
64,192,133858,1,0,0:0:0:0:
448,192,133858,1,0,0:0:0:0:
192,192,133942,1,0,0:0:0:0:
320,192,134026,1,0,0:0:0:0:
64,192,134195,1,0,0:0:0:0:
192,192,134195,1,0,0:0:0:0:
320,192,134363,1,0,0:0:0:0:
192,192,134448,1,0,0:0:0:0:
448,192,134532,1,0,0:0:0:0:
64,192,134532,1,0,0:0:0:0:
320,192,134616,1,0,0:0:0:0:
192,192,134700,1,0,0:0:0:0:
64,192,134700,1,0,0:0:0:0:
320,192,134869,1,0,0:0:0:0:
448,192,134869,1,0,0:0:0:0:
192,192,135037,1,0,0:0:0:0:
448,192,135206,1,0,0:0:0:0:
64,192,135290,1,0,0:0:0:0:
320,192,135374,1,0,0:0:0:0:
192,192,135459,1,0,0:0:0:0:
448,192,135543,1,0,0:0:0:0:
64,192,135627,1,0,0:0:0:0:
320,192,135712,1,0,0:0:0:0:
192,192,135796,1,0,0:0:0:0:
448,192,135880,1,0,0:0:0:0:
64,192,135964,1,0,0:0:0:0:
192,192,136049,1,0,0:0:0:0:
448,192,136133,1,0,0:0:0:0:
64,192,136217,1,0,0:0:0:0:
192,192,136217,1,0,0:0:0:0:
448,192,136301,1,0,0:0:0:0:
320,192,136386,1,0,0:0:0:0:
192,192,136554,1,0,0:0:0:0:
448,192,136554,128,0,136891:0:0:0:0:
64,192,136723,128,0,137060:0:0:0:0:
320,192,136891,128,0,137228:0:0:0:0:
192,192,137060,128,0,137228:0:0:0:0:
448,192,137228,1,0,0:0:0:0:
64,192,137228,1,0,0:0:0:0:
448,192,137566,1,0,0:0:0:0:
64,192,137566,1,0,0:0:0:0:
320,192,137734,1,0,0:0:0:0:
192,192,137818,1,0,0:0:0:0:
448,192,137903,1,0,0:0:0:0:
64,192,137903,1,0,0:0:0:0:
448,192,138071,1,0,0:0:0:0:
320,192,138240,1,0,0:0:0:0:
64,192,138240,1,0,0:0:0:0:
448,192,138408,1,0,0:0:0:0:
320,192,138577,1,0,0:0:0:0:
448,192,138745,1,0,0:0:0:0:
192,192,138830,1,0,0:0:0:0:
320,192,138914,1,0,0:0:0:0:
64,192,138914,1,0,0:0:0:0:
320,192,139082,1,0,0:0:0:0:
448,192,139082,1,0,0:0:0:0:
64,192,139251,1,0,0:0:0:0:
448,192,139251,1,0,0:0:0:0:
192,192,139419,1,0,0:0:0:0:
320,192,139419,1,0,0:0:0:0:
64,192,139588,1,0,0:0:0:0:
192,192,139672,1,0,0:0:0:0:
320,192,139757,1,0,0:0:0:0:
448,192,139757,1,0,0:0:0:0:
64,192,139925,1,0,0:0:0:0:
320,192,140094,1,0,0:0:0:0:
448,192,140094,1,0,0:0:0:0:
192,192,140262,1,0,0:0:0:0:
64,192,140262,1,0,0:0:0:0:
448,192,140431,1,0,0:0:0:0:
320,192,140599,1,0,0:0:0:0:
64,192,140599,1,0,0:0:0:0:
192,192,140768,1,0,0:0:0:0:
192,192,140936,1,0,0:0:0:0:
448,192,140936,1,0,0:0:0:0:
320,192,141105,1,0,0:0:0:0:
64,192,141189,1,0,0:0:0:0:
320,192,141273,1,0,0:0:0:0:
64,192,141358,1,0,0:0:0:0:
192,192,141442,1,0,0:0:0:0:
448,192,141526,1,0,0:0:0:0:
320,192,141610,1,0,0:0:0:0:
64,192,141610,1,0,0:0:0:0:
192,192,141779,1,0,0:0:0:0:
320,192,141779,1,0,0:0:0:0:
64,192,141948,1,0,0:0:0:0:
448,192,141948,1,0,0:0:0:0:
320,192,142116,1,0,0:0:0:0:
64,192,142116,1,0,0:0:0:0:
320,192,142285,1,0,0:0:0:0:
448,192,142285,1,0,0:0:0:0:
192,192,142453,1,0,0:0:0:0:
64,192,142453,1,0,0:0:0:0:
320,192,142537,1,0,0:0:0:0:
64,192,142706,1,0,0:0:0:0:
320,192,142790,1,0,0:0:0:0:
64,192,142959,1,0,0:0:0:0:
448,192,142959,1,0,0:0:0:0:
320,192,143127,1,0,0:0:0:0:
192,192,143127,1,0,0:0:0:0:
192,192,143296,1,0,0:0:0:0:
64,192,143296,1,0,0:0:0:0:
448,192,143296,1,0,0:0:0:0:
64,192,143633,1,0,0:0:0:0:
448,192,143633,1,0,0:0:0:0:
192,192,143801,1,0,0:0:0:0:
320,192,143970,1,0,0:0:0:0:
448,192,143970,1,0,0:0:0:0:
192,192,144139,1,0,0:0:0:0:
64,192,144139,1,0,0:0:0:0:
320,192,144307,1,0,0:0:0:0:
448,192,144307,1,0,0:0:0:0:
192,192,144476,1,0,0:0:0:0:
320,192,144560,1,0,0:0:0:0:
64,192,144644,1,0,0:0:0:0:
448,192,144644,1,0,0:0:0:0:
192,192,144728,1,0,0:0:0:0:
320,192,144813,1,0,0:0:0:0:
64,192,144981,1,0,0:0:0:0:
192,192,144981,1,0,0:0:0:0:
320,192,145150,1,0,0:0:0:0:
192,192,145234,1,0,0:0:0:0:
448,192,145318,1,0,0:0:0:0:
64,192,145318,1,0,0:0:0:0:
320,192,145403,1,0,0:0:0:0:
192,192,145487,1,0,0:0:0:0:
64,192,145487,1,0,0:0:0:0:
448,192,145655,1,0,0:0:0:0:
192,192,145655,1,0,0:0:0:0:
320,192,145824,1,0,0:0:0:0:
448,192,145992,1,0,0:0:0:0:
64,192,145992,1,0,0:0:0:0:
320,192,146077,1,0,0:0:0:0:
192,192,146161,1,0,0:0:0:0:
64,192,146245,1,0,0:0:0:0:
448,192,146330,1,0,0:0:0:0:
192,192,146414,1,0,0:0:0:0:
192,192,146582,1,0,0:0:0:0:
448,192,146667,1,0,0:0:0:0:
192,192,146835,1,0,0:0:0:0:
448,192,146919,1,0,0:0:0:0:
320,192,147004,1,0,0:0:0:0:
448,192,147088,1,0,0:0:0:0:
64,192,147172,1,0,0:0:0:0:
448,192,147341,128,0,147678:0:0:0:0:
192,192,147341,1,0,0:0:0:0:
64,192,147509,128,0,147846:0:0:0:0:
320,192,147678,128,0,148015:0:0:0:0:
192,192,147846,128,0,148015:0:0:0:0:
448,192,148015,1,0,0:0:0:0:
64,192,148015,1,0,0:0:0:0:
192,192,148183,1,0,0:0:0:0:
320,192,148352,1,0,0:0:0:0:
448,192,148352,1,0,0:0:0:0:
320,192,148521,1,0,0:0:0:0:
64,192,148605,1,0,0:0:0:0:
192,192,148689,1,0,0:0:0:0:
448,192,148689,1,0,0:0:0:0:
448,192,148858,1,0,0:0:0:0:
320,192,148858,1,0,0:0:0:0:
64,192,149026,1,0,0:0:0:0:
320,192,149026,1,0,0:0:0:0:
192,192,149195,1,0,0:0:0:0:
448,192,149195,1,0,0:0:0:0:
320,192,149363,1,0,0:0:0:0:
192,192,149363,1,0,0:0:0:0:
320,192,149532,1,0,0:0:0:0:
64,192,149616,1,0,0:0:0:0:
192,192,149700,1,0,0:0:0:0:
448,192,149700,1,0,0:0:0:0:
320,192,149869,1,0,0:0:0:0:
448,192,149869,1,0,0:0:0:0:
64,192,150037,1,0,0:0:0:0:
320,192,150206,1,0,0:0:0:0:
192,192,150290,1,0,0:0:0:0:
64,192,150374,1,0,0:0:0:0:
448,192,150374,1,0,0:0:0:0:
320,192,150459,1,0,0:0:0:0:
192,192,150543,1,0,0:0:0:0:
448,192,150712,1,0,0:0:0:0:
192,192,150880,1,0,0:0:0:0:
64,192,150880,1,0,0:0:0:0:
448,192,151049,1,0,0:0:0:0:
192,192,151049,1,0,0:0:0:0:
320,192,151217,1,0,0:0:0:0:
192,192,151386,1,0,0:0:0:0:
64,192,151386,1,0,0:0:0:0:
448,192,151554,1,0,0:0:0:0:
192,192,151723,1,0,0:0:0:0:
448,192,151723,1,0,0:0:0:0:
320,192,151891,1,0,0:0:0:0:
64,192,151976,1,0,0:0:0:0:
320,192,152060,1,0,0:0:0:0:
64,192,152144,1,0,0:0:0:0:
320,192,152228,1,0,0:0:0:0:
192,192,152313,1,0,0:0:0:0:
448,192,152397,1,0,0:0:0:0:
64,192,152397,1,0,0:0:0:0:
192,192,152566,1,0,0:0:0:0:
320,192,152566,1,0,0:0:0:0:
448,192,152734,1,0,0:0:0:0:
192,192,152818,1,0,0:0:0:0:
320,192,152903,1,0,0:0:0:0:
64,192,152987,1,0,0:0:0:0:
448,192,153071,1,0,0:0:0:0:
192,192,153155,1,0,0:0:0:0:
320,192,153240,1,0,0:0:0:0:
64,192,153324,1,0,0:0:0:0:
448,192,153408,1,0,0:0:0:0:
192,192,153492,1,0,0:0:0:0:
320,192,153577,1,0,0:0:0:0:
64,192,153661,1,0,0:0:0:0:
320,192,153745,1,0,0:0:0:0:
448,192,153745,1,0,0:0:0:0:
192,192,153914,1,0,0:0:0:0:
64,192,154082,1,0,0:0:0:0:
320,192,154082,1,0,0:0:0:0:
448,192,154082,1,0,0:0:0:0:
448,192,163521,1,0,0:0:0:0:
192,192,163605,1,0,0:0:0:0:
320,192,163689,1,0,0:0:0:0:
64,192,163858,1,0,0:0:0:0:
320,192,163942,1,0,0:0:0:0:
192,192,164026,1,0,0:0:0:0:
448,192,164195,1,0,0:0:0:0:
192,192,164279,1,0,0:0:0:0:
320,192,164363,1,0,0:0:0:0:
64,192,164448,1,0,0:0:0:0:
192,192,164532,1,0,0:0:0:0:
64,192,164869,1,0,0:0:0:0:
320,192,164869,1,0,0:0:0:0:
448,192,164869,1,0,0:0:0:0:
192,192,165206,1,0,0:0:0:0:
448,192,165206,1,0,0:0:0:0:
320,192,165543,1,0,0:0:0:0:
64,192,165543,1,0,0:0:0:0:
192,192,165712,1,0,0:0:0:0:
320,192,165880,1,0,0:0:0:0:
448,192,165880,1,0,0:0:0:0:
192,192,166049,1,0,0:0:0:0:
64,192,166049,1,0,0:0:0:0:
192,192,166217,1,0,0:0:0:0:
448,192,166217,1,0,0:0:0:0:
320,192,166386,1,0,0:0:0:0:
192,192,166554,1,0,0:0:0:0:
64,192,166554,1,0,0:0:0:0:
320,192,166723,1,0,0:0:0:0:
448,192,166723,1,0,0:0:0:0:
448,192,167060,1,0,0:0:0:0:
64,192,167060,1,0,0:0:0:0:
192,192,167228,1,0,0:0:0:0:
320,192,167228,1,0,0:0:0:0:
192,192,167397,1,0,0:0:0:0:
448,192,167566,1,0,0:0:0:0:
192,192,167650,1,0,0:0:0:0:
320,192,167734,1,0,0:0:0:0:
64,192,167818,1,0,0:0:0:0:
448,192,167903,1,0,0:0:0:0:
192,192,167987,1,0,0:0:0:0:
320,192,168071,1,0,0:0:0:0:
64,192,168155,1,0,0:0:0:0:
448,192,168240,1,0,0:0:0:0:
192,192,168324,1,0,0:0:0:0:
320,192,168408,1,0,0:0:0:0:
64,192,168492,1,0,0:0:0:0:
320,192,168577,1,0,0:0:0:0:
448,192,168577,1,0,0:0:0:0:
192,192,168745,1,0,0:0:0:0:
64,192,168745,1,0,0:0:0:0:
64,192,168914,1,0,0:0:0:0:
448,192,168914,1,0,0:0:0:0:
192,192,169082,1,0,0:0:0:0:
448,192,169082,1,0,0:0:0:0:
320,192,169251,1,0,0:0:0:0:
64,192,169251,1,0,0:0:0:0:
192,192,169419,1,0,0:0:0:0:
320,192,169419,1,0,0:0:0:0:
448,192,169757,1,0,0:0:0:0:
64,192,169757,1,0,0:0:0:0:
320,192,169925,1,0,0:0:0:0:
64,192,169925,1,0,0:0:0:0:
192,192,170094,1,0,0:0:0:0:
320,192,170094,1,0,0:0:0:0:
448,192,170262,1,0,0:0:0:0:
64,192,170262,1,0,0:0:0:0:
192,192,170262,1,0,0:0:0:0:
192,192,170599,1,0,0:0:0:0:
448,192,170599,1,0,0:0:0:0:
320,192,170936,1,0,0:0:0:0:
64,192,170936,1,0,0:0:0:0:
192,192,171105,1,0,0:0:0:0:
320,192,171273,1,0,0:0:0:0:
448,192,171273,1,0,0:0:0:0:
64,192,171442,1,0,0:0:0:0:
192,192,171442,1,0,0:0:0:0:
448,192,171610,1,0,0:0:0:0:
320,192,171610,1,0,0:0:0:0:
192,192,171779,1,0,0:0:0:0:
64,192,171948,1,0,0:0:0:0:
448,192,171948,1,0,0:0:0:0:
320,192,172116,1,0,0:0:0:0:
192,192,172116,1,0,0:0:0:0:
192,192,172453,1,0,0:0:0:0:
448,192,172453,1,0,0:0:0:0:
64,192,172622,1,0,0:0:0:0:
448,192,172622,1,0,0:0:0:0:
320,192,172790,1,0,0:0:0:0:
192,192,172959,1,0,0:0:0:0:
64,192,172959,128,0,173296:0:0:0:0:
320,192,173127,1,0,0:0:0:0:
448,192,173296,128,0,173633:0:0:0:0:
320,192,173296,1,0,0:0:0:0:
192,192,173464,1,0,0:0:0:0:
192,192,173633,1,0,0:0:0:0:
64,192,173633,128,0,173970:0:0:0:0:
320,192,173801,1,0,0:0:0:0:
320,192,173970,1,0,0:0:0:0:
448,192,173970,1,0,0:0:0:0:
192,192,174139,1,0,0:0:0:0:
64,192,174139,1,0,0:0:0:0:
448,192,174307,1,0,0:0:0:0:
192,192,174391,1,0,0:0:0:0:
320,192,174476,1,0,0:0:0:0:
64,192,174560,1,0,0:0:0:0:
448,192,174644,1,0,0:0:0:0:
320,192,174728,1,0,0:0:0:0:
64,192,174813,1,0,0:0:0:0:
192,192,174897,1,0,0:0:0:0:
448,192,174981,1,0,0:0:0:0:
320,192,175066,1,0,0:0:0:0:
192,192,175150,1,0,0:0:0:0:
64,192,175234,1,0,0:0:0:0:
448,192,175318,1,0,0:0:0:0:
320,192,175318,128,0,176667:0:0:0:0:
64,192,176667,5,0,0:0:0:0:
192,192,176751,1,0,0:0:0:0:
320,192,176835,1,0,0:0:0:0:
192,192,176919,1,0,0:0:0:0:
64,192,177004,1,0,0:0:0:0:
448,192,177004,128,0,177846:0:0:0:0:
320,192,177341,1,0,0:0:0:0:
64,192,177341,1,0,0:0:0:0:
64,192,177678,1,0,0:0:0:0:
320,192,177846,1,0,0:0:0:0:
192,192,178015,1,0,0:0:0:0:
64,192,178015,1,0,0:0:0:0:
448,192,178183,128,0,178858:0:0:0:0:
64,192,178352,1,0,0:0:0:0:
64,192,178689,1,0,0:0:0:0:
320,192,178689,1,0,0:0:0:0:
192,192,178858,1,0,0:0:0:0:
320,192,179026,1,0,0:0:0:0:
192,192,179195,1,0,0:0:0:0:
320,192,179363,1,0,0:0:0:0:
64,192,179363,1,0,0:0:0:0:
448,192,179532,128,0,180206:0:0:0:0:
64,192,179700,1,0,0:0:0:0:
320,192,180037,1,0,0:0:0:0:
64,192,180037,1,0,0:0:0:0:
192,192,180206,1,0,0:0:0:0:
320,192,180374,1,0,0:0:0:0:
448,192,180543,1,0,0:0:0:0:
64,192,180712,1,0,0:0:0:0:
192,192,180712,1,0,0:0:0:0:
448,192,180880,1,0,0:0:0:0:
64,192,181049,1,0,0:0:0:0:
320,192,181217,1,0,0:0:0:0:
192,192,181386,1,0,0:0:0:0:
64,192,181386,1,0,0:0:0:0:
448,192,181554,1,0,0:0:0:0:
320,192,181723,128,0,182060:0:0:0:0:
64,192,181723,128,0,182060:0:0:0:0:
192,192,182060,128,0,182397:0:0:0:0:
448,192,182060,128,0,182397:0:0:0:0:
64,192,182397,128,0,183240:0:0:0:0:
320,192,182397,1,0,0:0:0:0:
192,192,182734,1,0,0:0:0:0:
448,192,182734,1,0,0:0:0:0:
448,192,183071,1,0,0:0:0:0:
192,192,183240,1,0,0:0:0:0:
320,192,183408,1,0,0:0:0:0:
448,192,183408,1,0,0:0:0:0:
64,192,183577,128,0,184251:0:0:0:0:
448,192,183745,1,0,0:0:0:0:
448,192,184082,1,0,0:0:0:0:
192,192,184082,1,0,0:0:0:0:
320,192,184251,1,0,0:0:0:0:
192,192,184419,1,0,0:0:0:0:
320,192,184588,1,0,0:0:0:0:
192,192,184757,1,0,0:0:0:0:
64,192,184757,1,0,0:0:0:0:
448,192,184925,128,0,185599:0:0:0:0:
64,192,185094,1,0,0:0:0:0:
320,192,185431,1,0,0:0:0:0:
64,192,185431,1,0,0:0:0:0:
192,192,185599,1,0,0:0:0:0:
320,192,185768,1,0,0:0:0:0:
448,192,185936,1,0,0:0:0:0:
64,192,186105,1,0,0:0:0:0:
192,192,186105,1,0,0:0:0:0:
448,192,186273,1,0,0:0:0:0:
64,192,186442,1,0,0:0:0:0:
320,192,186442,1,0,0:0:0:0:
448,192,186610,1,0,0:0:0:0:
192,192,186779,1,0,0:0:0:0:
64,192,186779,1,0,0:0:0:0:
320,192,186948,1,0,0:0:0:0:
192,192,187032,1,0,0:0:0:0:
448,192,187116,128,0,187453:0:0:0:0:
64,192,187116,128,0,187453:0:0:0:0:
320,192,187453,128,0,187790:0:0:0:0:
192,192,187453,128,0,187790:0:0:0:0:
64,192,187790,1,0,0:0:0:0:
448,192,187790,128,0,188633:0:0:0:0:
320,192,188127,1,0,0:0:0:0:
64,192,188127,1,0,0:0:0:0:
64,192,188464,1,0,0:0:0:0:
320,192,188633,1,0,0:0:0:0:
64,192,188801,1,0,0:0:0:0:
192,192,188801,1,0,0:0:0:0:
448,192,188970,128,0,189644:0:0:0:0:
64,192,189139,1,0,0:0:0:0:
320,192,189476,1,0,0:0:0:0:
64,192,189476,1,0,0:0:0:0:
192,192,189644,1,0,0:0:0:0:
320,192,189813,1,0,0:0:0:0:
192,192,189981,1,0,0:0:0:0:
64,192,190150,1,0,0:0:0:0:
320,192,190150,1,0,0:0:0:0:
448,192,190318,128,0,190992:0:0:0:0:
64,192,190487,1,0,0:0:0:0:
64,192,190824,1,0,0:0:0:0:
320,192,190824,1,0,0:0:0:0:
192,192,190992,1,0,0:0:0:0:
320,192,191161,1,0,0:0:0:0:
448,192,191330,1,0,0:0:0:0:
192,192,191498,1,0,0:0:0:0:
64,192,191498,1,0,0:0:0:0:
448,192,191667,1,0,0:0:0:0:
64,192,191835,1,0,0:0:0:0:
320,192,192004,1,0,0:0:0:0:
192,192,192172,1,0,0:0:0:0:
64,192,192172,1,0,0:0:0:0:
448,192,192341,1,0,0:0:0:0:
320,192,192509,128,0,192846:0:0:0:0:
64,192,192509,128,0,192846:0:0:0:0:
192,192,192846,128,0,193183:0:0:0:0:
448,192,192846,128,0,193183:0:0:0:0:
320,192,193183,1,0,0:0:0:0:
64,192,193183,128,0,194026:0:0:0:0:
192,192,193521,1,0,0:0:0:0:
448,192,193521,1,0,0:0:0:0:
448,192,193858,1,0,0:0:0:0:
192,192,194026,1,0,0:0:0:0:
448,192,194195,1,0,0:0:0:0:
320,192,194195,1,0,0:0:0:0:
64,192,194363,128,0,195037:0:0:0:0:
448,192,194532,1,0,0:0:0:0:
192,192,194869,1,0,0:0:0:0:
448,192,194869,1,0,0:0:0:0:
320,192,195037,1,0,0:0:0:0:
192,192,195206,1,0,0:0:0:0:
320,192,195374,1,0,0:0:0:0:
192,192,195543,1,0,0:0:0:0:
64,192,195543,1,0,0:0:0:0:
448,192,195712,128,0,196386:0:0:0:0:
64,192,195880,1,0,0:0:0:0:
64,192,196217,1,0,0:0:0:0:
320,192,196217,1,0,0:0:0:0:
192,192,196386,1,0,0:0:0:0:
320,192,196554,1,0,0:0:0:0:
448,192,196723,1,0,0:0:0:0:
64,192,196891,1,0,0:0:0:0:
192,192,196891,1,0,0:0:0:0:
448,192,197060,1,0,0:0:0:0:
64,192,197228,1,0,0:0:0:0:
320,192,197313,1,0,0:0:0:0:
192,192,197397,1,0,0:0:0:0:
320,192,197481,1,0,0:0:0:0:
64,192,197566,1,0,0:0:0:0:
448,192,197734,1,0,0:0:0:0:
192,192,197818,1,0,0:0:0:0:
320,192,197903,1,0,0:0:0:0:
192,192,197987,1,0,0:0:0:0:
448,192,198071,1,0,0:0:0:0:
64,192,198155,1,0,0:0:0:0:
320,192,198240,1,0,0:0:0:0:
448,192,198240,1,0,0:0:0:0:
448,192,198577,5,0,0:0:0:0:
64,192,198914,1,0,0:0:0:0:
320,192,199251,1,0,0:0:0:0:
192,192,199419,1,0,0:0:0:0:
448,192,199588,1,0,0:0:0:0:
64,192,199925,1,0,0:0:0:0:
320,192,200094,1,0,0:0:0:0:
192,192,200262,1,0,0:0:0:0:
448,192,200431,1,0,0:0:0:0:
64,192,200599,1,0,0:0:0:0:
192,192,200768,1,0,0:0:0:0:
320,192,200936,1,0,0:0:0:0:
448,192,201273,128,0,201779:0:0:0:0:
64,192,201442,128,0,201779:0:0:0:0:
192,192,201610,128,0,201779:0:0:0:0:
320,192,201779,1,0,0:0:0:0:
64,192,201948,128,0,202285:0:0:0:0:
448,192,201948,128,0,202285:0:0:0:0:
192,192,202116,128,0,202285:0:0:0:0:
320,192,202285,1,0,0:0:0:0:
320,192,202453,128,0,204560:0:0:0:0:
192,192,202453,128,0,204560:0:0:0:0:
448,192,202453,128,0,204560:0:0:0:0:
64,192,202453,128,0,204560:0:0:0:0:
