osu file format v14

[General]
AudioFilename: Kagamine Rin and Len - The Wolf that Fell in Love with Little Red Riding Hood (English Subtitles).mp3
AudioLeadIn: 0
PreviewTime: 43268
Countdown: 0
SampleSet: Normal
StackLeniency: 0.6
Mode: 0
LetterboxInBreaks: 1
WidescreenStoryboard: 1

[Editor]
DistanceSpacing: 0.5
BeatDivisor: 4
GridSize: 4
TimelineZoom: 1

[Metadata]
Title:The Wolf that Fell in Love with Little Red Riding Hood
TitleUnicode:おおかみは赤ずきんに恋をした
Artist:Kagamine Len & Rin
ArtistUnicode:Kagamine Len & Rin
Creator:CharmCaster
Version:Hard
Source:HitoshizukuP
Tags:charmcaster kagamine len rin vocaloid wolf little red riding hood
BeatmapID:753680
BeatmapSetID:339762

[Difficulty]
HPDrainRate:5
CircleSize:4
OverallDifficulty:5
ApproachRate:7.5
SliderMultiplier:1.3
SliderTickRate:1

[Events]
//Background and Video events
0,0,"the wolf that fell in love with little red riding hood.jpg",0,0
//Break Periods
2,74119,81844
2,124119,131844
2,145369,154344
//Storyboard Layer 0 (Background)
//Storyboard Layer 1 (Fail)
//Storyboard Layer 2 (Pass)
//Storyboard Layer 3 (Foreground)
//Storyboard Sound Samples

[TimingPoints]
1419.64631071638,312.5,4,1,0,100,1,0
33919,-133.333333333333,4,1,0,100,0,0
33997,-133.333333333333,4,2,0,100,0,0
43294,-200,4,2,0,5,0,0
43919,-100,4,1,0,100,0,1
53607,-100,4,1,0,100,0,0
53919,-100,4,1,0,100,0,1
63919,-100,4,1,0,100,0,0
72357,-200,4,1,0,100,0,0
73919,-100,4,2,0,100,0,0
82669,-100,4,1,0,100,0,0
93919,-133.333333333333,4,1,0,100,0,0
93997,-133.333333333333,4,2,0,100,0,0
103294,-200,4,2,0,5,0,0
103919,-100,4,1,0,100,0,1
113607,-100,4,1,0,100,0,0
113919,-100,4,1,0,100,0,1
123919,-100,4,1,0,100,0,0
140482,-100,4,2,0,100,0,0
155169,-133.333333333333,4,2,0,100,0,0
163919,-200,4,2,0,5,0,0
165169,-100,4,1,0,100,0,1
174857,-100,4,1,0,100,0,0
175013,-100,4,1,0,5,0,0
175169,-100,4,1,0,100,0,1
185169,-100,4,1,0,100,0,0
204388,-100,4,1,0,5,0,0

[HitObjects]
200,96,1419,6,0,P|172:172|172:176,1,65
144,224,1732,1,0,0:0:0:0:
252,216,2044,1,0,0:0:0:0:
324,296,2357,1,0,0:0:0:0:
396,280,2513,1,0,0:0:0:0:
428,208,2669,2,0,L|416:160,7,32.5
464,236,3294,2,0,L|508:236,7,32.5
436,284,3919,6,0,P|412:312|308:312,1,130
272,264,4388,2,0,P|180:268|132:312,1,130
80,320,4857,2,0,P|60:248|76:180,1,130
120,136,5325,1,0,0:0:0:0:
176,88,5482,1,0,0:0:0:0:
180,12,5638,1,0,0:0:0:0:
252,28,5794,2,0,L|332:56,1,65
440,32,6107,2,0,L|380:76,1,65
328,120,6419,5,0,0:0:0:0:
284,184,6575,1,0,0:0:0:0:
212,176,6732,1,0,0:0:0:0:
144,144,6888,2,0,P|92:208|100:268,1,130
28,296,7357,2,0,P|152:304|156:300,1,130
216,280,7825,1,0,0:0:0:0:
288,308,7982,1,0,0:0:0:0:
356,276,8138,1,0,0:0:0:0:
424,312,8294,2,0,L|488:240,1,65
444,160,8607,2,0,L|396:216,2,65
416,68,9232,5,0,0:0:0:0:
416,68,9388,2,0,P|340:64|280:112,1,130
224,56,9857,2,0,P|220:100|288:172,1,130
280,244,10325,1,0,0:0:0:0:
216,280,10482,2,0,L|176:300,3,32.5
152,312,10794,2,0,B|116:276|72:288|72:288|68:236,1,130
120,120,11419,6,0,L|256:160,1,130
48,148,11888,2,0,L|184:188,1,130
32,88,12357,2,0,B|280:168|400:208|400:208|324:284|152:204,1,650
56,256,14232,5,0,0:0:0:0:
56,256,14388,2,0,P|116:304|192:320,2,130
72,180,15169,1,0,0:0:0:0:
124,128,15325,1,0,0:0:0:0:
196,140,15482,2,0,P|280:168|332:148,1,130
280,88,15950,1,0,0:0:0:0:
208,96,16107,2,0,P|196:176|244:204,1,130
328,240,16732,1,0,0:0:0:0:
328,240,16888,2,0,B|272:292|244:256|244:256|196:284,1,130
136,292,17357,2,0,L|160:216,1,65
112,164,17669,1,0,0:0:0:0:
180,80,17825,2,0,L|112:88,1,65
224,192,18294,6,0,L|252:252,1,65
324,284,18607,1,0,0:0:0:0:
324,284,18763,1,0,0:0:0:0:
396,256,18919,2,0,P|472:216|492:160,1,130
352,200,19388,2,0,P|284:236|252:288,2,130
376,128,20169,1,0,0:0:0:0:
320,72,20325,1,0,0:0:0:0:
240,72,20482,2,0,P|180:124|112:136,1,130
132,139,20950,1,0,0:0:0:0:
132,139,21107,2,0,P|88:236|96:260,1,130
144,308,21575,5,0,0:0:0:0:
216,276,21732,1,0,0:0:0:0:
292,296,21888,2,0,L|356:320,1,65
288,216,22200,2,0,L|216:184,2,65
368,204,22669,1,0,0:0:0:0:
416,144,22825,1,0,0:0:0:0:
388,72,22982,2,0,L|328:56,2,32.5
416,144,23294,1,0,0:0:0:0:
448,208,23450,2,0,P|428:248|392:268,1,65
336,332,23763,2,0,L|340:264,1,65
168,288,24232,5,0,0:0:0:0:
168,288,24388,2,0,P|188:224|180:152,1,130
116,128,24857,1,0,0:0:0:0:
128,56,25013,2,0,B|172:56|156:24|184:56|168:24|184:68|192:20|176:88|180:32|180:92|216:56|200:112|180:36|208:128|200:44|168:80|216:28|292:116,1,195
296,216,25794,6,0,L|376:180,1,65
312,292,26107,2,0,L|376:256,2,65
168,316,26732,1,0,0:0:0:0:
168,316,26888,2,0,P|80:256|72:232,1,130
128,184,27357,1,0,0:0:0:0:
120,112,27513,2,0,B|176:92|176:92|220:152,1,130
208,224,27982,2,0,P|280:244|332:232,1,130
344,160,28450,1,0,0:0:0:0:
392,104,28607,2,0,L|456:176,1,65
448,224,28919,6,0,P|400:292|344:288,1,130
268,200,29544,1,0,0:0:0:0:
268,200,29700,1,0,0:0:0:0:
268,200,29857,1,0,0:0:0:0:
268,200,30013,2,0,P|192:220|144:188,2,130
356,116,30950,1,0,0:0:0:0:
356,116,31107,1,0,0:0:0:0:
356,116,31263,2,0,L|424:164,1,65
412,224,31575,1,0,0:0:0:0:
356,272,31732,2,0,P|280:276|272:268,1,65
172,296,32200,1,0,0:0:0:0:
80,204,32513,6,0,B|88:164|32:96|32:96|112:80|188:160|188:160|108:296|84:304,1,455
88,328,33685,6,0,L|112:372,3,32.5
204,356,34232,2,0,L|312:332,2,97.50000371933
156,272,35169,1,0,0:0:0:0:
168,180,35482,1,0,0:0:0:0:
260,160,35794,1,0,0:0:0:0:
308,240,36107,1,0,0:0:0:0:
240,316,36419,2,0,P|296:348|340:344,1,97.50000371933
232,232,37044,2,0,P|176:192|132:184,1,97.50000371933
304,264,37669,2,0,P|368:248|400:216,1,97.50000371933
396,132,38294,1,0,0:0:0:0:
396,132,38450,1,0,0:0:0:0:
396,132,38607,1,0,0:0:0:0:
256,192,38919,12,0,41107,0:0:0:0:
392,152,41419,6,0,L|420:152,3,24.3750009298325
348,120,41732,2,0,L|328:104,3,24.3750009298325
344,164,42044,2,0,L|320:200,3,24.3750009298325
328,128,42357,2,0,L|296:120,3,24.3750009298325
264,120,42669,2,0,L|240:144,1,24.3750009298325
216,168,42825,2,0,L|200:192,1,24.3750009298325
192,232,42982,2,0,L|192:276,1,24.3750009298325
212,288,43138,2,0,L|236:304,1,24.3750009298325
276,324,43294,6,0,P|368:304|376:288,1,113.75
396,264,43919,6,0,L|344:184,1,65
352,132,44232,1,0,0:0:0:0:
304,76,44388,2,0,P|240:68|184:136,1,130
124,136,44857,2,0,L|72:188,1,65
52,252,45169,1,0,0:0:0:0:
108,308,45325,2,0,P|144:276|144:256,1,65
196,208,45638,2,0,P|300:244|332:228,1,130
384,208,46107,1,0,0:0:0:0:
416,276,46263,2,0,B|400:308|400:308|348:328,2,65
476,224,46732,2,0,L|504:156,1,65
472,96,47044,1,0,0:0:0:0:
412,52,47200,2,0,L|344:68,1,65
328,136,47513,1,0,0:0:0:0:
264,176,47669,6,0,P|240:160|216:120,1,65
292,248,47982,2,0,P|296:288|292:312,1,65
224,228,48294,2,0,P|184:244|164:264,1,65
296,192,48607,2,0,P|344:156|352:132,1,65
336,76,48919,5,0,0:0:0:0:
264,56,49075,1,0,0:0:0:0:
192,80,49232,2,0,B|160:104|160:104|120:96,1,65
72,132,49544,1,0,0:0:0:0:
96,200,49700,1,0,0:0:0:0:
48,252,49857,1,0,0:0:0:0:
80,316,50013,1,0,0:0:0:0:
152,320,50169,2,0,P|196:304|212:280,1,65
280,264,50482,1,0,0:0:0:0:
352,288,50638,2,0,L|472:228,1,130
328,224,51107,2,0,L|404:188,1,65
256,192,51419,12,0,53607,0:0:0:0:
160,148,53919,6,0,L|132:240,1,65
240,108,54232,2,0,L|216:184,1,65
320,76,54544,2,0,L|300:144,1,65
400,40,54857,2,0,L|376:128,1,65
352,228,55169,6,0,L|380:136,1,65
272,268,55482,2,0,L|296:192,1,65
192,300,55794,2,0,L|212:232,1,65
112,336,56107,2,0,L|136:248,1,65
140,200,56419,5,0,0:0:0:0:
140,200,56575,1,0,0:0:0:0:
212,168,56732,1,0,0:0:0:0:
212,168,56888,1,0,0:0:0:0:
280,136,57044,1,0,0:0:0:0:
280,136,57200,1,0,0:0:0:0:
352,104,57357,1,0,0:0:0:0:
352,104,57513,1,0,0:0:0:0:
372,184,57669,5,0,0:0:0:0:
372,184,57825,1,0,0:0:0:0:
300,216,57982,1,0,0:0:0:0:
300,216,58138,1,0,0:0:0:0:
232,248,58294,1,0,0:0:0:0:
232,248,58450,1,0,0:0:0:0:
156,272,58607,2,0,L|108:296,3,32.5
156,272,58919,6,0,P|160:188|128:128,1,130
224,168,59388,2,0,P|184:88|152:52,1,130
288,132,59857,2,0,P|264:88|244:52,1,65
360,124,60169,2,0,P|364:208|332:268,1,130
428,228,60638,2,0,P|388:308|356:344,1,130
492,264,61107,2,0,P|468:308|448:344,1,65
256,192,61419,12,0,63294,0:0:0:0:
164,152,63450,5,0,0:0:0:0:
176,148,63607,1,0,0:0:0:0:
192,144,63763,1,0,0:0:0:0:
204,140,63919,2,0,P|292:132|320:176,1,130
356,224,64388,2,0,L|456:136,1,130
420,68,64857,2,0,B|364:40|312:116|312:116|192:56,1,260
128,88,65638,1,0,0:0:0:0:
88,152,65794,1,0,0:0:0:0:
88,224,65950,1,0,0:0:0:0:
120,292,66107,2,0,P|148:304|192:296,1,65
252,272,66419,6,0,L|408:288,1,130
292,200,66888,2,0,L|152:184,1,130
248,120,67357,2,0,L|400:140,1,130
424,148,67747,2,0,L|464:140,6,32.5
400,192,68294,2,0,L|384:244,7,32.5
360,264,68919,6,0,P|304:288|236:268,1,130
180,320,69388,2,0,P|140:252|148:184,1,130
220,200,69857,2,0,L|288:88,1,130
360,76,70325,1,0,0:0:0:0:
428,112,70482,1,0,0:0:0:0:
432,184,70638,1,0,0:0:0:0:
372,232,70794,2,0,L|336:296,1,65
340,164,71107,2,0,L|344:96,2,65
212,228,71888,1,0,0:0:0:0:
96,144,72357,6,0,B|152:120|156:44|156:44|220:104|308:36|308:36|336:64,1,325
380,280,82669,6,0,L|304:240,1,65
252,236,82982,1,0,0:0:0:0:
252,236,83138,1,0,0:0:0:0:
136,248,83294,2,0,L|200:184,1,65
72,284,83607,2,0,P|124:352|184:352,1,130
232,336,84075,5,0,0:0:0:0:
308,344,84232,1,0,0:0:0:0:
364,292,84388,1,0,0:0:0:0:
440,280,84544,2,0,P|476:220|480:196,1,65
436,160,84857,1,0,0:0:0:0:
360,176,85013,2,0,P|340:136|316:108,1,65
264,88,85325,1,0,0:0:0:0:
200,120,85482,1,0,0:0:0:0:
116,192,85794,6,0,L|176:236,1,65
112,120,86107,2,0,L|56:76,1,65
188,108,86419,2,0,P|176:192|136:224,1,130
72,240,86888,2,0,P|132:296|200:280,1,130
240,256,87357,1,0,0:0:0:0:
264,184,87513,2,0,P|280:120|320:68,1,130
336,204,87982,2,0,L|316:288,1,65
404,180,88294,2,0,L|420:104,1,65
396,252,88607,2,0,L|476:264,1,65
448,340,88919,5,0,0:0:0:0:
376,360,89075,1,0,0:0:0:0:
312,320,89232,2,0,L|240:344,1,65
352,260,89544,2,0,L|428:232,2,65
284,224,90013,2,0,P|216:132|184:120,3,130
140,88,91107,1,0,0:0:0:0:
72,112,91263,1,0,0:0:0:0:
104,176,91419,2,0,P|184:184|248:148,1,130
96,248,91888,2,0,P|168:260|240:232,1,130
256,192,92513,12,0,93919,0:0:0:0:
384,128,94232,5,0,0:0:0:0:
320,60,94544,1,0,0:0:0:0:
224,72,94857,1,0,0:0:0:0:
180,156,95169,1,0,0:0:0:0:
232,240,95482,1,0,0:0:0:0:
288,316,95794,2,0,P|260:340|232:340,2,48.750001859665
376,284,96419,5,0,0:0:0:0:
416,200,96732,1,0,0:0:0:0:
356,132,97044,1,0,0:0:0:0:
268,156,97357,1,0,0:0:0:0:
196,228,97669,1,0,0:0:0:0:
100,228,97982,1,0,0:0:0:0:
56,140,98294,2,0,L|120:112,1,48.750001859665
220,124,98607,2,0,L|164:140,1,48.750001859665
260,60,98919,2,0,P|424:108|456:96,1,195.00000743866
252,324,100169,2,0,P|88:276|56:288,1,195.00000743866
304,188,101419,6,0,L|340:164,7,24.3750009298325
368,180,102044,2,0,L|404:184,7,24.3750009298325
428,212,102669,2,0,L|436:252,1,24.3750009298325
428,276,102825,2,0,L|408:304,1,24.3750009298325
376,292,102982,2,0,L|348:296,1,24.3750009298325
308,280,103138,2,0,L|272:264,1,24.3750009298325
244,256,103294,6,0,P|212:296|144:280,1,113.75
116,264,103919,6,0,L|168:184,1,65
160,132,104232,1,0,0:0:0:0:
208,76,104388,2,0,P|272:68|328:136,1,130
388,136,104857,2,0,L|440:188,1,65
460,252,105169,1,0,0:0:0:0:
404,308,105325,2,0,P|368:276|368:256,1,65
316,208,105638,2,0,P|212:244|180:228,1,130
128,208,106107,1,0,0:0:0:0:
96,276,106263,2,0,B|112:308|112:308|164:328,2,65
36,224,106732,2,0,L|8:156,1,65
40,96,107044,1,0,0:0:0:0:
100,52,107200,2,0,L|168:68,1,65
184,136,107513,1,0,0:0:0:0:
248,176,107669,6,0,P|272:160|296:120,1,65
220,248,107982,2,0,P|216:288|220:312,1,65
288,228,108294,2,0,P|328:244|348:264,1,65
216,192,108607,2,0,P|168:156|160:132,1,65
176,76,108919,5,0,0:0:0:0:
248,56,109075,1,0,0:0:0:0:
320,80,109232,2,0,B|352:104|352:104|392:96,1,65
440,132,109544,1,0,0:0:0:0:
416,200,109700,1,0,0:0:0:0:
464,252,109857,1,0,0:0:0:0:
432,316,110013,1,0,0:0:0:0:
360,320,110169,2,0,P|316:304|300:280,1,65
232,264,110482,1,0,0:0:0:0:
160,288,110638,2,0,L|40:228,1,130
184,224,111107,2,0,L|108:188,1,65
256,192,111419,12,0,113607,0:0:0:0:
352,148,113919,6,0,L|380:240,1,65
272,108,114232,2,0,L|296:184,1,65
192,76,114544,2,0,L|212:144,1,65
112,40,114857,2,0,L|136:128,1,65
160,228,115169,6,0,L|132:136,1,65
240,268,115482,2,0,L|216:192,1,65
320,300,115794,2,0,L|300:232,1,65
400,336,116107,2,0,L|376:248,1,65
372,200,116419,5,0,0:0:0:0:
372,200,116575,1,0,0:0:0:0:
300,168,116732,1,0,0:0:0:0:
300,168,116888,1,0,0:0:0:0:
232,136,117044,1,0,0:0:0:0:
232,136,117200,1,0,0:0:0:0:
160,104,117357,1,0,0:0:0:0:
160,104,117513,1,0,0:0:0:0:
140,184,117669,5,0,0:0:0:0:
140,184,117825,1,0,0:0:0:0:
212,216,117982,1,0,0:0:0:0:
212,216,118138,1,0,0:0:0:0:
280,248,118294,1,0,0:0:0:0:
280,248,118450,1,0,0:0:0:0:
356,272,118607,2,0,L|404:296,3,32.5
356,272,118919,6,0,P|352:188|384:128,1,130
288,168,119388,2,0,P|328:88|360:52,1,130
224,132,119857,2,0,P|248:88|268:52,1,65
152,124,120169,2,0,P|148:208|180:268,1,130
84,228,120638,2,0,P|124:308|156:344,1,130
20,264,121107,2,0,P|44:308|64:344,1,65
256,192,121419,12,0,123294,0:0:0:0:
348,152,123450,5,0,0:0:0:0:
336,148,123607,1,0,0:0:0:0:
320,144,123763,1,0,0:0:0:0:
304,140,123919,1,0,0:0:0:0:
208,168,132669,6,0,L|160:196,7,32.5
152,216,133294,2,0,L|148:256,7,32.5
180,284,133919,2,0,P|284:296|332:288,1,130
384,292,134388,1,0,0:0:0:0:
440,240,134544,1,0,0:0:0:0:
408,176,134700,1,0,0:0:0:0:
332,172,134857,2,0,P|332:96|392:56,1,130
440,96,135325,1,0,0:0:0:0:
452,172,135482,2,0,L|392:228,1,65
284,268,135794,2,0,L|348:212,1,65
344,112,136107,2,0,L|296:160,1,65
224,152,136419,6,0,P|144:136|108:92,1,130
228,228,136888,2,0,P|192:276|116:308,1,130
304,216,137357,2,0,P|352:288|348:336,1,130
424,332,137825,1,0,0:0:0:0:
468,264,137982,1,0,0:0:0:0:
420,200,138138,1,0,0:0:0:0:
448,128,138294,2,0,L|504:80,1,65
372,120,138607,2,0,L|316:168,1,65
356,232,138919,6,0,P|308:296|236:308,1,130
188,300,139388,1,0,0:0:0:0:
116,320,139544,1,0,0:0:0:0:
56,272,139700,1,0,0:0:0:0:
80,196,139857,2,0,P|128:160|152:88,1,130
272,72,140482,1,0,0:0:0:0:
360,164,140794,1,0,0:0:0:0:
288,288,141107,1,0,0:0:0:0:
160,256,141419,5,0,0:0:0:0:
160,256,141575,1,0,0:0:0:0:
316,184,141888,5,0,0:0:0:0:
316,184,142044,1,0,0:0:0:0:
124,144,142357,5,0,0:0:0:0:
124,144,142513,1,0,0:0:0:0:
300,64,142825,5,0,0:0:0:0:
336,68,142982,5,0,0:0:0:0:
364,84,143138,5,0,0:0:0:0:
384,120,143294,5,0,0:0:0:0:
384,160,143450,5,0,0:0:0:0:
368,192,143607,5,0,0:0:0:0:
336,212,143763,5,0,0:0:0:0:
72,292,145169,5,0,0:0:0:0:
416,296,155169,6,0,L|472:304,1,48.750001859665
352,216,155482,2,0,L|408:224,1,48.750001859665
292,280,155794,2,0,L|348:288,1,48.750001859665
228,348,156107,2,0,L|284:356,1,48.750001859665
216,272,156419,6,0,L|160:280,1,48.750001859665
280,192,156732,2,0,L|224:200,1,48.750001859665
340,256,157044,2,0,L|284:264,1,48.750001859665
404,324,157357,2,0,L|348:332,1,48.750001859665
284,320,157669,5,0,0:0:0:0:
284,320,157825,1,0,0:0:0:0:
320,252,157982,1,0,0:0:0:0:
320,252,158138,1,0,0:0:0:0:
276,184,158294,1,0,0:0:0:0:
276,184,158450,1,0,0:0:0:0:
196,176,158607,1,0,0:0:0:0:
196,176,158763,1,0,0:0:0:0:
132,212,158919,2,0,L|52:156,3,97.50000371933
76,88,160013,1,0,0:0:0:0:
152,88,160169,6,0,L|208:128,1,48.750001859665
300,136,160482,2,0,L|252:96,1,48.750001859665
272,200,160794,2,0,L|328:240,1,48.750001859665
420,248,161107,2,0,L|372:208,1,48.750001859665
380,144,161419,5,0,0:0:0:0:
380,144,161575,1,0,0:0:0:0:
324,96,161732,1,0,0:0:0:0:
324,96,161888,1,0,0:0:0:0:
248,76,162044,1,0,0:0:0:0:
248,76,162200,1,0,0:0:0:0:
180,104,162357,1,0,0:0:0:0:
180,104,162513,1,0,0:0:0:0:
120,156,162669,6,0,P|112:220|132:264,1,97.50000371933
204,336,163138,2,0,P|200:256|188:244,1,97.50000371933
248,192,163607,1,0,0:0:0:0:
320,208,163763,1,0,0:0:0:0:
392,192,163919,6,0,P|396:124|260:136,1,243.75
256,176,165169,6,0,L|196:244,1,65
148,256,165482,1,0,0:0:0:0:
84,216,165638,2,0,P|72:168|120:96,1,130
184,108,166107,1,0,0:0:0:0:
220,172,166263,1,0,0:0:0:0:
276,220,166419,2,0,P|308:212|340:192,1,65
392,152,166732,1,0,0:0:0:0:
456,116,166888,2,0,P|476:216|460:264,1,130
484,312,167357,1,0,0:0:0:0:
424,360,167513,1,0,0:0:0:0:
348,336,167669,6,0,L|288:312,1,65
268,240,167982,1,0,0:0:0:0:
200,200,168138,2,0,P|176:152|200:64,1,130
152,256,168607,2,0,L|108:320,1,65
56,264,168919,1,0,0:0:0:0:
56,264,169075,1,0,0:0:0:0:
80,192,169232,1,0,0:0:0:0:
84,196,169388,1,0,0:0:0:0:
144,152,169544,1,0,0:0:0:0:
144,152,169700,1,0,0:0:0:0:
216,132,169857,1,0,0:0:0:0:
216,132,170013,1,0,0:0:0:0:
280,172,170169,6,0,P|320:176|348:164,2,65
224,216,170638,2,0,P|196:292|240:340,1,130
296,344,171107,1,0,0:0:0:0:
348,292,171263,1,0,0:0:0:0:
348,216,171419,1,0,0:0:0:0:
292,168,171575,1,0,0:0:0:0:
216,180,171732,1,0,0:0:0:0:
168,240,171888,2,0,P|152:304|92:328,1,130
120,176,172357,2,0,L|60:124,1,65
84,60,172669,1,0,0:0:0:0:
216,36,172982,1,0,0:0:0:0:
216,36,173138,1,0,0:0:0:0:
316,128,173450,1,0,0:0:0:0:
316,128,173607,1,0,0:0:0:0:
272,244,173919,6,0,L|244:272,11,32.5
212,288,174857,6,0,P|152:260|148:228,1,97.5
152,184,175169,6,0,L|220:144,1,65
296,108,175482,6,0,L|364:172,1,65
332,244,175794,6,0,L|276:292,1,65
188,296,176107,6,0,L|120:272,1,65
104,184,176419,5,0,0:0:0:0:
104,184,176575,5,0,0:0:0:0:
176,116,176732,5,0,0:0:0:0:
176,116,176888,5,0,0:0:0:0:
248,172,177044,5,0,0:0:0:0:
248,172,177200,5,0,0:0:0:0:
228,260,177357,5,0,0:0:0:0:
228,260,177513,5,0,0:0:0:0:
304,320,177669,6,0,L|360:268,1,65
324,180,177982,6,0,L|384:128,1,65
412,232,178294,6,0,L|360:276,1,65
268,280,178607,6,0,L|212:324,1,65
120,296,178919,5,0,0:0:0:0:
76,212,179075,6,0,P|136:164|112:52,1,195
117,57,179700,5,0,0:0:0:0:
117,57,179856,5,0,0:0:0:0:
117,57,180013,5,0,0:0:0:0:
117,57,180169,6,0,L|205:73,1,65
200,168,180482,6,0,L|288:188,1,65
352,152,180794,5,0,0:0:0:0:
352,152,180950,5,0,0:0:0:0:
416,224,181107,5,0,0:0:0:0:
416,224,181263,5,0,0:0:0:0:
360,304,181419,6,0,L|332:372,1,65
304,236,181732,6,0,L|332:160,1,65
260,72,182200,6,0,L|184:88,2,65
256,192,182669,12,0,184857,0:0:0:0:
256,192,185169,12,0,190169,0:0:0:0:
