osu file format v14

[General]
AudioFilename: audio.mp3
AudioLeadIn: 0
PreviewTime: 70171
Countdown: 0
SampleSet: Soft
StackLeniency: 0.4
Mode: 0
LetterboxInBreaks: 0
WidescreenStoryboard: 0

[Editor]
DistanceSpacing: 1.2
BeatDivisor: 4
GridSize: 8
TimelineZoom: 1

[Metadata]
Title:Kaga Misaki (Jissou ver.)
TitleUnicode:加賀岬(実装ver.)
Artist:Kaga (CV: Iguchi Yuka)
ArtistUnicode:加賀 (CV: 井口裕香)
Creator:Strategas
Version:Normal
Source:艦隊これくしょん -艦これ-
Tags:kancolle kantai collection cape kisaragi
BeatmapID:1432825
BeatmapSetID:677352

[Difficulty]
HPDrainRate:2.6
CircleSize:3
OverallDifficulty:3.6
ApproachRate:4.6
SliderMultiplier:1.2
SliderTickRate:1

[Events]
//Background and Video events
0,0,"kisaragi.jpg",0,0
//Break Periods
2,24356,37344
//Storyboard Layer 0 (Background)
//Storyboard Layer 1 (Fail)
//Storyboard Layer 2 (Pass)
//Storyboard Layer 3 (Foreground)
//Storyboard Sound Samples

[TimingPoints]
698,451.127819548872,4,2,0,60,1,0
7916,-100,4,2,0,60,0,0
18743,-100,4,2,0,60,0,0
20209,-100,4,2,0,5,0,0
20322,-100,4,2,0,50,0,0
24156,-100,4,2,0,45,0,0
38592,-100,4,2,0,50,0,0
53028,-100,4,2,0,60,0,0
71073,-100,4,2,0,70,0,1
94532,-100,4,2,0,60,0,0
99833,-100,4,2,0,30,0,0
99946,-100,4,2,0,45,0,0
123404,-100,4,2,0,45,0,0

[Colours]
Combo1 : 242,121,0
Combo2 : 0,108,0
Combo3 : 91,165,255
Combo4 : 129,7,26

[HitObjects]
189,157,698,5,8,0:3:0:0:
189,157,923,1,8,0:3:0:0:
235,330,1600,2,0,L|319:323,1,60,2|0,0:0|0:0,0:0:0:0:
340,285,2051,2,0,L|424:278,1,60,2|0,0:0|0:0,0:0:0:0:
443,239,2502,1,8,0:3:0:0:
443,239,2728,1,8,0:3:0:0:
397,127,3179,2,0,B|341:117|341:117|252:128,1,120,2|2,0:0|0:0,0:0:0:0:
236,167,3855,2,0,L|176:173,1,60,2|0,0:0|3:0,0:0:0:0:
126,207,4307,5,4,0:0:0:0:
109,325,4758,1,2,0:0:0:0:
227,342,5209,1,2,0:0:0:0:
244,224,5660,1,2,0:0:0:0:
338,297,6111,2,0,B|393:323|393:323|467:295,2,120,2|2|2,3:2|3:2|3:2,0:0:0:0:
244,224,7464,1,2,3:2:0:0:
123,222,7916,6,0,P|111:164|128:90,1,120,4|8,0:1|0:0,0:0:0:0:
225,44,8818,2,0,P|261:37|310:45,1,60,2|0,0:0|3:0,0:0:0:0:
343,47,9269,1,8,0:0:0:0:
430,129,9720,2,0,P|437:165|429:214,1,60,0|0,3:0|3:0,0:0:0:0:
427,247,10171,1,10,0:0:0:0:
307,236,10622,1,2,0:0:0:0:
187,225,11073,1,10,0:0:0:0:
67,214,11525,6,0,P|98:141|151:110,1,120,0|8,3:0|0:0,0:0:0:0:
181,89,12201,1,2,0:0:0:0:
181,89,12427,2,0,P|214:100|259:94,1,60,2|0,0:0|3:0,0:0:0:0:
295,79,12878,1,8,0:0:0:0:
400,136,13329,2,0,P|411:169|405:214,1,60,0|0,3:0|3:0,0:0:0:0:
390,250,13780,1,8,0:0:0:0:
277,291,14231,2,0,B|243:298|243:298|195:288,1,60,2|2,0:0|3:2,0:0:0:0:
171,254,14682,2,0,B|146:248|146:248|112:255,1,60,10|2,0:0|0:0,0:0:0:0:
58,282,15134,5,4,0:1:0:0:
23,167,15585,2,0,L|30:91,1,60,8|2,0:0|0:0,0:0:0:0:
70,63,16036,2,0,P|127:62|194:78,1,120,2|8,0:0|0:0,0:0:0:0:
257,174,16938,5,4,3:0:0:0:
316,169,17164,1,4,3:0:0:0:
375,164,17389,1,4,3:0:0:0:
375,164,18743,5,4,0:1:0:0:
256,192,18968,12,0,24156,3:0:0:0:
71,102,38592,6,0,L|147:93,1,60,4|4,0:3|0:3,0:0:0:0:
190,90,39043,1,2,0:0:0:0:
441,282,40397,2,0,L|365:291,1,60,4|4,0:3|0:3,0:0:0:0:
322,294,40848,1,2,0:0:0:0:
366,35,42201,6,0,L|375:111,1,60,4|4,0:3|0:3,0:0:0:0:
378,154,42652,1,2,0:0:0:0:
146,349,44006,2,0,L|137:273,1,60,4|4,0:3|0:3,0:0:0:0:
134,230,44457,1,2,0:0:0:0:
172,48,45810,6,0,P|208:37|244:42,1,60,4|4,0:3|0:3,0:0:0:0:
287,54,46261,1,2,0:0:0:0:
287,54,47164,1,2,0:0:0:0:
228,158,47615,2,0,P|192:169|156:164,1,60,4|4,0:3|0:3,0:0:0:0:
113,152,48066,1,2,0:0:0:0:
113,152,48969,1,2,0:0:0:0:
58,258,49419,6,0,B|113:274|113:274|191:249,1,120,4|2,0:3|0:0,0:0:0:0:
224,224,50096,1,0,0:0:0:0:
224,224,50322,2,0,B|279:208|279:208|357:233,1,120,0|2,0:0|0:0,0:0:0:0:
445,171,51224,2,0,B|452:141|452:141|444:103,1,60,4|4,0:3|0:3,0:0:0:0:
432,53,51675,1,2,0:0:0:0:
432,53,52577,1,2,0:0:0:0:
328,113,53028,6,0,L|323:196,2,60,4|4|2,0:3|0:3|0:0,0:0:0:0:
331,52,53705,1,4,0:3:0:0:
150,51,54382,1,8,0:0:0:0:
146,170,54833,2,0,L|229:175,2,60,4|4|2,0:3|0:3|0:0,0:0:0:0:
85,167,55510,1,4,0:3:0:0:
84,348,56187,1,8,0:0:0:0:
193,298,56637,6,0,P|228:290|277:296,1,60,4|4,0:3|0:3,0:0:0:0:
308,311,57088,1,2,0:0:0:0:
308,311,57314,2,0,P|339:268|333:185,1,120,4|0,0:3|0:0,0:0:0:0:
309,151,57991,1,8,0:0:0:0:
385,58,58442,1,4,0:3:0:0:
265,47,58893,1,2,0:0:0:0:
145,36,59344,1,2,0:0:0:0:
25,25,59795,1,10,0:0:0:0:
83,129,60246,6,0,B|95:159|95:159|85:273,1,120,4|2,0:3|0:0,0:0:0:0:
80,306,60923,1,4,0:3:0:0:
80,306,61149,2,0,B|110:318|110:318|224:308,1,120,0|8,0:0|0:0,0:0:0:0:
302,368,62051,1,4,0:3:0:0:
313,248,62502,1,2,0:0:0:0:
324,128,62953,1,2,0:0:0:0:
335,8,63404,1,10,0:0:0:0:
225,56,63855,5,12,0:3:0:0:
225,56,64081,1,12,0:3:0:0:
180,352,65209,1,8,0:0:0:0:
289,302,65660,1,12,0:3:0:0:
289,302,65885,1,12,0:3:0:0:
119,54,67013,1,8,3:2:0:0:
79,167,67464,5,12,0:3:0:0:
79,167,67690,1,12,0:3:0:0:
377,196,68818,1,8,0:0:0:0:
344,80,69269,1,12,0:3:0:0:
344,80,69495,1,12,0:3:0:0:
171,130,70171,5,8,3:2:0:0:
183,249,70622,1,8,3:2:0:0:
298,274,71073,6,0,P|349:249|377:182,1,120,4|8,0:0|0:0,0:0:0:0:
369,135,71750,1,0,0:0:0:0:
369,135,71976,2,0,B|326:123|326:123|239:131,1,120,2|8,0:0|0:0,0:0:0:0:
151,196,72878,2,0,L|160:268,1,60,0|0,3:0|3:0,0:0:0:0:
188,307,73329,1,8,0:0:0:0:
305,284,73780,1,8,0:0:0:0:
422,261,74231,1,8,0:0:0:0:
495,166,74682,6,0,B|465:146|465:146|377:149,1,120,0|8,3:0|0:0,0:0:0:0:
328,178,75359,1,0,0:0:0:0:
328,178,75585,2,0,L|201:181,1,120,2|8,0:0|0:0,0:0:0:0:
114,106,76487,2,0,P|130:61|208:35,3,120,2|10|2|10,3:2|0:0|0:0|0:0,0:0:0:0:
297,90,78291,6,0,B|354:109|354:109|421:95,1,120,4|8,0:1|0:0,0:0:0:0:
470,114,78968,1,0,0:0:0:0:
470,114,79194,2,0,P|478:154|472:184,1,60,2|0,0:0|3:0,0:0:0:0:
463,231,79645,1,8,0:0:0:0:
376,313,80096,2,0,P|336:321|306:315,1,60,0|0,3:0|3:0,0:0:0:0:
259,306,80547,1,8,0:0:0:0:
167,228,80998,2,0,P|159:188|165:158,1,60,2|0,0:0|3:0,0:0:0:0:
174,111,81449,1,8,0:0:0:0:
275,46,81901,6,0,B|306:41|306:41|346:51,1,60,2|4,3:2|3:0,0:0:0:0:
380,85,82352,2,0,B|385:116|385:116|375:156,1,60,8|4,0:0|3:0,0:0:0:0:
330,180,82803,1,8,0:0:0:0:
356,350,83479,1,4,3:0:0:0:
356,350,83705,2,0,P|385:348|413:337,1,60,0|4,3:0|3:0,0:0:0:0:
458,297,84156,1,8,0:0:0:0:
451,177,84607,1,4,3:0:0:0:
444,57,85058,1,8,0:0:0:0:
334,106,85510,6,0,P|278:119|195:93,1,120,4|8,0:0|0:0,0:0:0:0:
168,73,86186,1,0,0:0:0:0:
168,73,86412,2,0,P|109:60|51:73,1,120,2|8,0:0|0:0,0:0:0:0:
11,117,87088,1,0,3:0:0:0:
11,117,87314,1,0,3:0:0:0:
49,223,87765,1,8,0:0:0:0:
167,205,88216,1,8,0:0:0:0:
285,187,88667,1,8,0:0:0:0:
404,172,89119,6,0,P|431:226|422:290,1,120,4|8,0:0|0:0,0:0:0:0:
401,338,89795,1,0,0:0:0:0:
401,338,90021,2,0,P|361:346|330:337,1,60,2|0,0:0|3:0,0:0:0:0:
290,312,90472,1,8,0:0:0:0:
277,192,90923,2,0,P|297:137|350:113,3,120,2|10|10|10,3:2|0:0|0:0|0:0,0:0:0:0:
437,30,92728,5,4,0:1:0:0:
437,30,92953,2,0,L|358:20,1,60,0|8,0:0|0:0,0:0:0:0:
317,28,93404,1,0,0:0:0:0:
317,28,93629,2,0,L|238:18,1,60,2|0,3:2|3:0,0:0:0:0:
197,28,94081,1,8,0:0:0:0:
134,130,94532,5,12,3:0:0:0:
136,190,94758,1,12,3:0:0:0:
138,250,94983,1,12,3:0:0:0:
138,250,96337,5,4,0:0:0:0:
256,192,96449,12,2,98141,0:0:0:0:
203,91,99946,5,8,0:3:0:0:
203,91,100171,1,8,0:3:0:0:
382,99,100848,2,0,L|375:183,1,60,2|0,0:0|0:0,0:0:0:0:
337,204,101299,2,0,L|330:288,1,60,2|0,0:0|0:0,0:0:0:0:
291,307,101750,1,8,0:3:0:0:
291,307,101976,1,8,0:3:0:0:
197,232,102427,2,0,B|134:224|134:224|78:234,1,120,2|8,0:0|0:0,0:0:0:0:
27,202,103103,2,0,L|33:142,1,60,8|4,0:0|3:0,0:0:0:0:
71,96,103555,5,4,0:1:0:0:
190,99,104006,1,2,0:0:0:0:
187,218,104457,1,2,0:0:0:0:
68,215,104908,1,2,0:0:0:0:
121,322,105359,2,0,B|179:339|179:339|261:320,1,120,2|2,3:2|3:2,0:0:0:0:
351,290,106261,1,2,3:2:0:0:
464,249,106712,1,0,3:2:0:0:
412,140,107164,6,0,P|354:128|280:145,1,120,4|8,0:1|0:0,0:0:0:0:
226,236,108066,2,0,P|190:243|141:235,1,60,2|4,0:0|3:0,0:0:0:0:
108,233,108517,1,8,0:0:0:0:
23,147,108968,2,0,P|16:111|24:62,1,60,4|0,3:0|3:0,0:0:0:0:
26,30,109419,1,8,0:0:0:0:
145,41,109870,1,2,0:0:0:0:
264,53,110321,1,8,0:0:0:0:
383,68,110773,6,0,P|352:141|299:172,1,120,4|8,3:0|0:0,0:0:0:0:
264,183,111449,1,2,0:0:0:0:
264,183,111675,2,0,L|258:269,1,60,2|4,0:0|3:0,0:0:0:0:
256,302,112126,1,8,0:0:0:0:
158,369,112577,2,0,L|72:363,1,60,4|4,3:0|3:0,0:0:0:0:
38,361,113028,1,8,0:0:0:0:
2,246,113479,2,0,B|-1:217|-1:217|10:172,1,60,2|4,0:0|3:0,0:0:0:0:
50,145,113931,2,0,B|58:117|58:117|54:71,1,60,10|2,0:0|0:0,0:0:0:0:
29,32,114382,5,4,0:1:0:0:
148,22,114833,2,0,L|213:18,1,60,8|2,0:0|0:0,0:0:0:0:
262,42,115284,2,0,P|273:98|263:161,1,120,2|8,0:0|0:0,0:0:0:0:
175,240,116186,5,12,0:3:0:0:
116,235,116412,1,12,0:3:0:0:
57,230,116637,1,12,0:3:0:0:
57,230,117991,5,4,0:1:0:0:
256,192,118104,12,4,119795,0:1:0:0:
256,192,119908,12,4,121600,0:1:0:0:
256,192,121713,12,4,123404,0:1:0:0:
256,192,123517,12,0,127088,0:0:0:0:
