osu file format v14

[General]
AudioFilename: audio.mp3
AudioLeadIn: 0
PreviewTime: 70171
Countdown: 0
SampleSet: Soft
StackLeniency: 0.4
Mode: 0
LetterboxInBreaks: 0
WidescreenStoryboard: 0

[Editor]
DistanceSpacing: 1
BeatDivisor: 4
GridSize: 8
TimelineZoom: 1

[Metadata]
Title:Kaga Misaki (Jissou ver.)
TitleUnicode:加賀岬(実装ver.)
Artist:Kaga (CV: Iguchi Yuka)
ArtistUnicode:加賀 (CV: 井口裕香)
Creator:Strategas
Version:Hard
Source:艦隊これくしょん -艦これ-
Tags:kancolle kantai collection cape kisaragi
BeatmapID:1432788
BeatmapSetID:677352

[Difficulty]
HPDrainRate:4.7
CircleSize:3.5
OverallDifficulty:5.7
ApproachRate:6.7
SliderMultiplier:1.5
SliderTickRate:1

[Events]
//Background and Video events
0,0,"kisaragi.jpg",0,0
//Break Periods
2,24356,35843
//Storyboard Layer 0 (Background)
//Storyboard Layer 1 (Fail)
//Storyboard Layer 2 (Pass)
//Storyboard Layer 3 (Foreground)
//Storyboard Sound Samples

[TimingPoints]
698,451.127819548872,4,2,0,60,1,0
7916,-83.3333333333333,4,2,0,60,0,0
18743,-133.333333333333,4,2,0,60,0,0
20209,-133.333333333333,4,2,0,5,0,0
20322,-133.333333333333,4,2,0,50,0,0
24156,-200,4,2,0,45,0,0
38592,-133.333333333333,4,2,0,50,0,0
53028,-100,4,2,0,60,0,0
71073,-76.9230769230769,4,2,0,70,0,1
94532,-100,4,2,0,60,0,0
99833,-100,4,2,0,30,0,0
99946,-100,4,2,0,45,0,0
123404,-266.666666666667,4,2,0,45,0,0

[Colours]
Combo1 : 242,121,0
Combo2 : 0,108,0
Combo3 : 91,165,255
Combo4 : 129,7,26

[HitObjects]
197,121,698,5,8,0:3:0:0:
211,232,923,1,8,0:3:0:0:
211,232,1600,6,0,P|246:222|301:227,1,75,2|0,0:0|0:0,0:0:0:0:
347,277,2051,2,0,P|382:287|437:282,1,75,2|0,0:0|0:0,0:0:0:0:
482,232,2502,5,8,0:3:0:0:
461,121,2728,1,8,0:3:0:0:
461,121,3179,5,2,0:0:0:0:
461,121,3630,5,2,0:0:0:0:
449,39,3855,1,2,0:0:0:0:
367,51,4081,1,0,3:0:0:0:
379,133,4307,6,0,B|340:131|340:131|297:104,1,75,4|0,0:0|0:0,0:0:0:0:
242,63,4758,2,0,B|203:65|203:65|160:92,1,75,2|0,0:0|0:0,0:0:0:0:
111,139,5209,2,0,B|72:137|72:137|29:110,1,75,2|0,0:0|0:0,0:0:0:0:
28,36,5660,2,0,B|67:38|67:38|110:65,1,75,2|0,0:0|0:0,0:0:0:0:
173,84,6111,6,0,L|170:125,3,37.5,2|0|0|0,3:2|3:0|3:0|3:0,0:0:0:0:
141,151,6562,2,0,L|138:192,3,37.5,2|0|0|0,3:2|3:0|3:0|3:0,0:0:0:0:
161,222,7013,2,0,L|158:263,3,37.5,2|0|0|0,3:2|3:0|3:0|3:0,0:0:0:0:
131,290,7464,2,0,L|128:331,3,37.5,2|0|0|0,3:2|3:0|3:0|3:0,0:0:0:0:
149,378,7916,6,0,L|347:366,1,179.999994506836,4|8,0:1|0:0,0:0:0:0:
418,358,8592,1,0,0:0:0:0:
363,286,8818,2,0,B|353:244|353:244|360:186,1,89.9999972534181,2|0,0:0|3:0,0:0:0:0:
437,154,9269,2,0,B|447:112|447:112|440:54,1,89.9999972534181,8|0,0:0|0:0,0:0:0:0:
374,5,9720,5,0,3:0:0:0:
374,5,10171,2,0,P|321:14|280:64,1,89.9999972534181,10|0,0:0|0:0,0:0:0:0:
363,94,10622,2,0,P|328:134|328:199,1,89.9999972534181,2|0,0:0|3:0,0:0:0:0:
412,169,11073,2,0,P|411:222|453:271,1,89.9999972534181,10|0,0:0|0:0,0:0:0:0:
488,321,11525,6,0,P|419:280|326:303,1,179.999994506836,0|8,3:0|0:0,0:0:0:0:
250,350,12201,1,2,0:0:0:0:
168,310,12427,2,0,P|127:241|150:148,1,179.999994506836,2|8,0:0|0:0,0:0:0:0:
231,110,13104,1,0,0:0:0:0:
300,166,13329,6,0,P|341:178|400:167,1,89.9999972534181,0|0,3:0|3:0,0:0:0:0:
463,124,13780,1,8,0:0:0:0:
463,124,14231,5,2,0:0:0:0:
453,34,14457,1,2,3:2:0:0:
363,44,14682,1,10,0:0:0:0:
373,134,14908,1,2,0:0:0:0:
310,199,15134,6,0,B|236:202|236:202|224:193|224:193|124:198,1,179.999994506836,4|8,0:1|0:0,0:0:0:0:
43,204,15810,1,2,0:0:0:0:
97,290,16036,2,0,B|187:285|187:285|199:294|199:294|273:291,1,179.999994506836,2|8,0:0|0:0,0:0:0:0:
372,294,16713,1,2,0:0:0:0:
372,294,16825,1,2,0:0:0:0:
372,294,16938,5,4,3:0:0:0:
317,211,17164,1,4,3:0:0:0:
273,291,17389,1,4,3:0:0:0:
194,247,17615,5,2,0:0:0:0:
180,249,17840,1,2,0:0:0:0:
166,251,18066,1,2,0:0:0:0:
152,253,18291,1,2,0:0:0:0:
138,255,18517,1,2,0:0:0:0:
68,203,18743,5,4,0:1:0:0:
256,192,18855,12,2,20547,0:0:0:0:
256,192,20660,12,0,24156,3:0:0:0:
107,194,36788,5,2,0:0:0:0:
122,192,37013,1,2,0:0:0:0:
137,194,37239,1,2,0:0:0:0:
151,199,37464,1,2,0:0:0:0:
215,252,37690,5,2,0:0:0:0:
230,254,37915,1,2,0:0:0:0:
245,252,38141,1,2,0:0:0:0:
259,247,38366,1,2,0:0:0:0:
323,194,38592,6,0,P|356:190|395:201,1,56.2500021457673,4|4,0:3|0:3,0:0:0:0:
453,227,39043,1,2,0:0:0:0:
453,227,39946,1,2,0:0:0:0:
248,157,40397,6,0,P|215:153|176:164,1,56.2500021457673,4|4,0:3|0:3,0:0:0:0:
118,190,40848,1,2,0:0:0:0:
118,190,41751,1,2,0:0:0:0:
331,146,42201,6,0,L|339:83,1,56.2500021457673,4|4,0:3|0:3,0:0:0:0:
353,9,42652,1,2,0:0:0:0:
353,9,43555,1,2,0:0:0:0:
181,238,44006,6,0,L|173:301,1,56.2500021457673,4|4,0:3|0:3,0:0:0:0:
159,375,44457,1,2,0:0:0:0:
159,375,45360,1,2,0:0:0:0:
324,303,45810,6,0,P|354:295|402:304,1,56.2500021457673,4|4,0:3|0:3,0:0:0:0:
426,232,46261,2,0,P|331:220|259:255,1,168.750006437302,2|0,0:0|0:0,0:0:0:0:
241,327,47164,1,2,0:0:0:0:
130,211,47615,6,0,P|100:219|52:210,1,56.2500021457673,4|4,0:3|0:3,0:0:0:0:
28,282,48066,2,0,P|123:294|195:259,1,168.750006437302,2|0,0:0|0:0,0:0:0:0:
213,187,48969,1,2,0:0:0:0:
418,248,49419,5,4,0:3:0:0:
418,248,49645,1,4,0:3:0:0:
459,175,49870,2,0,B|426:164|426:164|276:181,1,168.750006437302,2|0,0:0|0:0,0:0:0:0:
214,189,50773,1,2,0:0:0:0:
296,11,51223,5,4,0:3:0:0:
296,11,51449,1,4,0:3:0:0:
255,84,51675,2,0,B|288:95|288:95|438:78,1,168.750006437302,2|0,0:0|0:0,0:0:0:0:
500,70,52577,1,2,0:0:0:0:
446,223,53028,5,4,0:3:0:0:
448,236,53254,1,4,0:3:0:0:
450,249,53479,1,2,0:0:0:0:
394,310,53705,1,4,0:3:0:0:
394,310,54382,1,8,0:0:0:0:
315,190,54833,5,4,0:3:0:0:
313,177,55059,1,4,0:3:0:0:
311,164,55284,1,2,0:0:0:0:
367,103,55510,1,4,0:3:0:0:
367,103,56187,1,8,0:0:0:0:
512,231,56637,5,4,0:3:0:0:
480,307,56863,1,4,0:3:0:0:
431,240,57088,1,2,0:0:0:0:
464,164,57314,1,4,0:3:0:0:
464,164,57991,1,8,0:0:0:0:
261,231,58442,5,4,0:3:0:0:
293,307,58668,1,4,0:3:0:0:
342,240,58893,1,2,0:0:0:0:
309,164,59119,1,4,0:3:0:0:
309,164,59796,1,10,0:0:0:0:
94,269,60246,5,4,0:3:0:0:
86,186,60472,1,4,0:3:0:0:
161,220,60697,1,2,0:0:0:0:
169,303,60923,1,4,0:3:0:0:
237,253,61149,2,0,P|243:213|222:162,1,75,0|0,0:0|0:0,0:0:0:0:
175,121,61600,2,0,P|169:81|190:30,1,75,8|0,0:0|0:0,0:0:0:0:
257,23,62051,6,0,B|296:16|296:16|360:29,1,75,4|4,0:3|0:3,0:0:0:0:
293,97,62502,2,0,B|325:111|325:111|353:139,1,75,2|4,0:0|0:3,0:0:0:0:
280,178,62953,2,0,B|299:212|299:212|309:276,1,75,2|0,0:0|0:0,0:0:0:0:
222,239,63404,2,0,B|218:278|218:278|189:336,1,75,10|0,0:0|0:0,0:0:0:0:
125,339,63855,5,12,0:3:0:0:
91,182,64081,1,12,0:3:0:0:
91,182,65209,2,0,P|125:164|184:172,1,75,8|0,0:0|0:0,0:0:0:0:
234,202,65660,5,12,0:3:0:0:
268,45,65886,1,12,0:3:0:0:
268,45,67013,2,0,L|328:52,2,37.5,8|0|0,3:2|3:0|3:0,0:0:0:0:
186,46,67464,5,12,0:3:0:0:
152,202,67690,1,12,0:3:0:0:
152,202,68818,2,0,P|186:220|245:212,1,75,8|0,0:0|0:0,0:0:0:0:
295,182,69269,5,12,0:3:0:0:
329,339,69495,1,12,0:3:0:0:
329,339,70171,2,0,L|279:331,3,37.5,8|0|0|0,3:2|3:0|3:0|3:0,0:0:0:0:
255,351,70622,2,0,L|205:343,3,37.5,8|0|0|0,3:2|3:0|3:0|3:0,0:0:0:0:
182,315,71073,6,0,B|174:238|174:238|191:214|191:214|180:112,1,194.999991073609,4|8,0:0|0:0,0:0:0:0:
169,29,71750,1,0,0:0:0:0:
86,87,71976,2,0,L|97:184,1,97.4999955368044,2|0,0:0|3:0,0:0:0:0:
84,280,72427,2,0,L|95:377,1,97.4999955368044,8|0,0:0|0:0,0:0:0:0:
183,313,72878,5,0,3:0:0:0:
183,313,73104,1,0,3:0:0:0:
270,356,73329,2,0,B|321:366|321:366|391:348,1,97.4999955368044,8|0,0:0|0:0,0:0:0:0:
318,269,73780,2,0,B|365:247|365:247|412:193,1,97.4999955368044,8|0,0:0|3:0,0:0:0:0:
308,168,74231,2,0,B|334:123|334:123|341:51,1,97.4999955368044,8|0,0:0|0:0,0:0:0:0:
258,21,74682,6,0,P|168:86|69:75,1,194.999991073609,0|8,3:0|0:0,0:0:0:0:
15,18,75359,1,0,0:0:0:0:
88,83,75585,2,0,P|93:132|74:216,1,97.4999955368044,2|0,0:0|3:0,0:0:0:0:
28,258,76036,1,8,0:0:0:0:
254,297,76487,6,0,L|316:287,2,48.7499977684022,2|2|2,3:2|0:0|3:2,0:0:0:0:
227,206,76938,1,10,0:0:0:0:
251,202,77050,1,2,0:0:0:0:
275,198,77163,1,2,0:0:0:0:
164,275,77389,6,0,L|102:285,2,48.7499977684022,2|2|2,0:0|0:0|3:2,0:0:0:0:
191,366,77840,1,10,0:0:0:0:
167,370,77952,1,2,0:0:0:0:
143,374,78065,1,2,0:0:0:0:
254,297,78291,6,0,P|359:293|408:387,1,194.999991073609,4|8,0:1|0:0,0:0:0:0:
311,377,78968,1,0,0:0:0:0:
254,297,79194,2,0,P|249:231|271:189,1,97.4999955368044,2|0,0:0|3:0,0:0:0:0:
342,149,79645,2,0,P|347:83|325:41,1,97.4999955368044,8|0,0:0|0:0,0:0:0:0:
249,8,80096,5,0,3:0:0:0:
249,8,80322,1,0,3:0:0:0:
254,109,80547,1,8,0:0:0:0:
335,55,80773,1,0,0:0:0:0:
335,55,80998,2,0,P|383:44|443:59,1,97.4999955368044,2|0,0:0|3:0,0:0:0:0:
498,121,81449,2,0,P|509:169|494:229,1,97.4999955368044,8|0,0:0|0:0,0:0:0:0:
422,274,81901,5,2,3:2:0:0:
422,274,82126,1,4,3:0:0:0:
330,241,82352,1,8,0:0:0:0:
330,241,82577,1,4,3:0:0:0:
243,286,82803,1,8,0:0:0:0:
243,286,83028,2,0,B|197:295|197:295|139:283,1,97.4999955368044,4|8,3:0|0:0,0:0:0:0:
63,234,83479,1,4,3:0:0:0:
69,331,83705,5,0,3:0:0:0:
69,331,83931,1,4,3:0:0:0:
147,284,84156,2,0,P|161:232|143:177,1,97.4999955368044,8|0,0:0|0:0,0:0:0:0:
90,113,84607,1,4,3:0:0:0:
90,113,84833,1,4,3:0:0:0:
147,34,85058,1,8,0:0:0:0:
147,34,85284,1,0,0:0:0:0:
228,87,85510,6,0,L|438:72,1,194.999991073609,4|8,0:0|0:0,0:0:0:0:
503,127,86186,1,0,0:0:0:0:
420,179,86412,2,0,L|305:190,1,97.4999955368044,2|0,0:0|3:0,0:0:0:0:
244,246,86863,2,0,L|129:257,1,97.4999955368044,8|0,0:0|3:0,0:0:0:0:
64,308,87314,5,0,3:0:0:0:
64,308,87765,2,0,P|50:239|70:192,1,97.4999955368044,8|0,0:0|0:0,0:0:0:0:
146,255,88216,2,0,P|174:190|217:163,1,97.4999955368044,8|0,0:0|3:0,0:0:0:0:
244,257,88667,2,0,P|304:220|355:222,1,97.4999955368044,8|0,0:0|0:0,0:0:0:0:
409,274,89119,6,0,P|362:232|361:97,1,194.999991073609,4|8,0:0|0:0,0:0:0:0:
439,57,89795,1,0,0:0:0:0:
355,107,90021,2,0,P|295:114|236:86,1,97.4999955368044,2|0,0:0|3:0,0:0:0:0:
184,41,90472,2,0,P|124:34|65:62,1,97.4999955368044,8|0,0:0|0:0,0:0:0:0:
60,138,90923,6,0,L|-2:148,2,48.7499977684022,2|2|2,3:2|0:0|3:2,0:0:0:0:
109,235,91374,1,10,0:0:0:0:
85,239,91486,1,2,0:0:0:0:
61,243,91599,1,2,3:2:0:0:
167,153,91825,6,0,L|229:143,2,48.7499977684022,10|2|2,0:0|0:0|3:2,0:0:0:0:
219,246,92276,1,10,0:0:0:0:
243,242,92388,1,2,0:0:0:0:
267,239,92501,1,2,3:2:0:0:
319,156,92728,6,0,P|368:141|420:153,1,97.4999955368044,4|0,0:1|3:0,0:0:0:0:
491,206,93179,1,8,0:0:0:0:
401,245,93404,1,0,0:0:0:0:
412,149,93630,2,0,P|444:120|505:110,1,97.4999955368044,2|0,3:2|3:0,0:0:0:0:
491,206,94081,1,8,0:0:0:0:
491,311,94307,1,2,0:0:0:0:
491,311,94419,1,2,0:0:0:0:
491,311,94532,5,12,3:0:0:0:
312,299,94758,1,12,3:0:0:0:
412,149,94983,1,12,3:0:0:0:
337,92,95209,5,2,0:0:0:0:
339,80,95434,1,2,0:0:0:0:
341,68,95660,1,2,0:0:0:0:
343,56,95885,1,2,0:0:0:0:
345,44,96111,1,2,0:0:0:0:
429,0,96337,5,4,0:0:0:0:
256,192,96449,12,2,98141,0:0:0:0:
256,192,98254,12,0,99494,0:0:0:0:
186,256,99946,5,8,0:3:0:0:
208,122,100171,1,8,0:3:0:0:
208,122,100848,2,0,L|301:131,1,75,2|0,0:0|0:0,0:0:0:0:
345,183,101299,2,0,L|438:192,1,75,2|0,0:0|0:0,0:0:0:0:
476,251,101750,5,8,0:3:0:0:
277,229,101975,1,8,0:3:0:0:
277,229,102427,5,2,0:0:0:0:
277,229,102878,5,8,0:0:0:0:
271,313,103104,1,8,0:0:0:0:
187,307,103329,1,4,3:0:0:0:
193,223,103555,6,0,B|202:188|202:188|239:149,1,75,4|0,0:1|0:0,0:0:0:0:
277,229,104006,2,0,B|312:238|312:238|351:275,1,75,2|0,0:0|0:0,0:0:0:0:
271,313,104457,2,0,B|262:348|262:348|225:387,1,75,2|0,0:0|0:0,0:0:0:0:
187,307,104908,2,0,B|152:298|152:298|113:261,1,75,2|0,0:0|0:0,0:0:0:0:
126,191,105359,6,0,L|167:194,3,37.5,2|0|0|0,3:2|3:0|3:0|3:0,0:0:0:0:
193,223,105810,2,0,L|234:226,3,37.5,2|0|0|0,3:2|3:0|3:0|3:0,0:0:0:0:
264,203,106261,2,0,L|305:206,3,37.5,2|0|0|0,3:2|3:0|3:0|3:0,0:0:0:0:
332,233,106712,2,0,L|373:236,3,37.5,0|0|0|0,3:2|3:0|3:0|3:0,0:0:0:0:
410,215,107164,6,0,B|426:184|426:184|419:59,1,150,4|8,0:1|0:0,0:0:0:0:
360,10,107840,1,2,0:0:0:0:
360,10,108066,1,2,0:0:0:0:
291,59,108291,1,4,3:0:0:0:
291,59,108517,2,0,B|253:67|253:67|197:57,1,75,8|0,0:0|0:0,0:0:0:0:
142,23,108968,5,4,3:0:0:0:
142,23,109419,2,0,P|134:68|155:117,1,75,8|0,0:0|0:0,0:0:0:0:
218,61,109870,2,0,P|237:102|282:130,1,75,2|4,0:0|3:0,0:0:0:0:
300,48,110322,2,0,P|339:70|392:67,1,75,8|0,0:0|0:0,0:0:0:0:
447,38,110773,6,0,P|387:97|416:185,1,150,4|8,3:0|0:0,0:0:0:0:
448,221,111449,1,2,0:0:0:0:
428,302,111675,2,0,P|387:320|328:306,1,75,2|4,0:0|3:0,0:0:0:0:
292,267,112126,2,0,P|251:249|192:263,1,75,8|0,0:0|0:0,0:0:0:0:
144,280,112577,5,4,3:0:0:0:
144,280,112803,1,4,3:0:0:0:
126,194,113028,1,8,0:0:0:0:
126,194,113479,5,2,0:0:0:0:
43,204,113705,1,4,3:0:0:0:
33,121,113931,1,10,0:0:0:0:
116,111,114156,1,2,0:0:0:0:
126,194,114382,6,0,B|198:185|198:185|206:189|206:189|285:178,1,150,4|8,0:1|0:0,0:0:0:0:
357,171,115058,1,2,0:0:0:0:
301,93,115284,2,0,L|226:104,1,75,2|4,0:0|3:0,0:0:0:0:
154,63,115735,2,0,L|79:74,1,75,8|2,0:0|0:0,0:0:0:0:
79,74,116073,1,2,0:0:0:0:
79,74,116186,5,12,0:3:0:0:
39,151,116412,1,12,0:3:0:0:
121,160,116637,1,12,0:3:0:0:
73,227,116863,5,2,0:0:0:0:
71,241,117088,1,2,0:0:0:0:
69,255,117314,1,2,0:0:0:0:
67,269,117539,1,2,0:0:0:0:
65,283,117765,1,2,0:0:0:0:
117,353,117991,5,4,0:1:0:0:
256,192,118104,12,4,119795,0:1:0:0:
256,192,119908,12,4,121600,0:1:0:0:
256,192,121713,12,4,123404,0:1:0:0:
256,192,123517,12,0,127088,0:0:0:0:
