osu file format v14

[General]
AudioFilename: Iguchi Yuka - Kaga Misaki.mp3
AudioLeadIn: 0
PreviewTime: 69804
Countdown: 0
SampleSet: Normal
StackLeniency: 0.7
Mode: 3
LetterboxInBreaks: 0
SpecialStyle: 0
WidescreenStoryboard: 0

[Editor]
DistanceSpacing: 0.8
BeatDivisor: 4
GridSize: 4
TimelineZoom: 2.5

[Metadata]
Title:Kaga Misaki
TitleUnicode:加賀岬
Artist:Kaga (CV: Iguchi Yuka)
ArtistUnicode:加賀 (CV: 井口裕香)
Creator:Draftnell
Version:Hard
Source:艦隊これくしょん -艦これ-
Tags:Kadokawa Games Kantai Collection Kanmusume Omoiuta Dellvangel
BeatmapID:867399
BeatmapSetID:398924

[Difficulty]
HPDrainRate:8
CircleSize:4
OverallDifficulty:8
ApproachRate:4
SliderMultiplier:1.4
SliderTickRate:1

[Events]
//Background and Video events
0,0,"BG.jpg",0,0
//Break Periods
//Storyboard Layer 0 (Background)
//Storyboard Layer 1 (Fail)
//Storyboard Layer 2 (Pass)
//Storyboard Layer 3 (Foreground)
//Storyboard Sound Samples

[TimingPoints]
331,451.127819548872,4,1,1,30,1,0
7549,-100,4,2,1,30,0,0
23225,-100,4,1,1,30,0,0
70706,-100,4,2,1,30,0,1
95970,-100,4,1,1,30,0,1
99579,-100,4,1,1,30,0,0
106797,-100,4,2,1,30,0,0
116496,-100,4,1,1,30,0,0

[HitObjects]
192,192,331,5,8,2:0:0:0:
448,192,331,1,0,2:0:0:0:
64,192,331,1,0,0:0:0:0:
448,192,556,1,0,2:0:0:0:
320,192,556,1,8,2:0:0:0:
64,192,556,1,0,0:0:0:0:
448,192,1233,1,0,0:0:0:0:
320,192,1233,1,0,0:0:0:0:
320,192,1458,1,0,0:0:0:0:
192,192,1458,1,0,0:0:0:0:
192,192,1684,1,0,0:0:0:0:
64,192,1684,1,0,0:0:0:0:
320,192,1909,1,0,0:0:0:0:
448,192,1909,1,0,0:0:0:0:
448,192,2135,1,0,2:0:0:0:
64,192,2135,1,8,2:0:0:0:
192,192,2135,1,0,0:0:0:0:
192,192,2361,1,8,2:0:0:0:
448,192,2361,1,0,2:0:0:0:
320,192,2361,1,0,0:0:0:0:
64,192,2812,1,8,2:0:0:0:
448,192,2812,1,0,3:0:0:0:
320,192,2812,1,0,0:0:0:0:
64,192,3263,1,8,2:0:0:0:
448,192,3263,1,0,0:0:0:0:
192,192,3263,1,0,0:0:0:0:
192,192,3488,1,8,2:0:0:0:
448,192,3488,1,0,0:0:0:0:
320,192,3488,1,0,0:0:0:0:
320,192,3714,1,8,2:0:0:0:
192,192,3714,1,0,0:0:0:0:
64,192,3714,1,0,0:0:0:0:
448,192,3940,1,4,1:0:0:0:
64,192,3940,1,0,2:0:0:0:
320,192,3940,1,0,0:0:0:0:
192,192,4165,1,0,2:0:0:0:
320,192,4391,1,8,2:0:0:0:
448,192,4391,1,0,0:0:0:0:
448,192,4842,1,8,2:0:0:0:
64,192,4842,1,0,0:0:0:0:
320,192,5067,1,0,2:0:0:0:
192,192,5293,1,8,2:0:0:0:
64,192,5293,1,0,2:0:0:0:
448,192,5518,1,0,0:0:0:0:
192,192,5744,1,8,2:0:0:0:
64,192,5744,1,0,2:0:0:0:
320,192,5857,1,8,2:0:0:0:
448,192,5857,1,0,0:0:0:0:
192,192,5970,1,0,0:0:0:0:
64,192,5970,1,0,2:0:0:0:
320,192,6082,1,8,2:0:0:0:
448,192,6082,1,0,0:0:0:0:
64,192,6195,1,8,2:0:0:0:
192,192,6195,1,0,0:0:0:0:
320,192,6308,1,8,2:0:0:0:
448,192,6308,1,0,0:0:0:0:
192,192,6421,1,0,0:0:0:0:
64,192,6421,1,0,2:0:0:0:
320,192,6534,1,8,2:0:0:0:
448,192,6534,1,0,0:0:0:0:
64,192,6646,128,0,7097:3:0:0:0:
192,192,6646,1,8,2:0:0:0:
448,192,6872,1,8,2:0:0:0:
320,192,6985,1,8,2:0:0:0:
192,192,7097,128,0,7549:3:0:0:0:
448,192,7097,1,8,2:0:0:0:
320,192,7210,1,8,2:0:0:0:
64,192,7323,1,0,2:0:0:0:
320,192,7549,128,0,9579:0:0:0:0:
64,192,7549,1,0,2:0:0:0:
448,192,7549,1,4,1:0:0:0:
448,192,7774,1,0,2:0:0:0:
192,192,8000,1,8,2:0:0:0:
64,192,8000,1,0,0:0:0:0:
448,192,8225,1,0,0:0:0:0:
64,192,8451,1,0,2:0:0:0:
448,192,8676,1,0,2:0:0:0:
192,192,8902,1,0,0:0:0:0:
64,192,8902,1,8,0:0:0:0:
448,192,9127,1,0,0:0:0:0:
64,192,9353,1,0,2:0:0:0:
192,192,9579,1,0,2:0:0:0:
448,192,9804,128,0,10255:0:0:0:0:
64,192,9804,1,8,0:0:0:0:
320,192,9804,1,0,0:0:0:0:
320,192,10030,1,0,0:0:0:0:
320,192,10255,128,0,10706:0:0:0:0:
64,192,10255,1,0,2:0:0:0:
192,192,10481,1,0,2:0:0:0:
64,192,10706,1,0,0:0:0:0:
192,192,10706,128,0,11158:0:0:0:0:
448,192,10706,1,8,2:0:0:0:
320,192,10932,1,0,0:0:0:0:
64,192,11158,128,0,11834:0:0:0:0:
448,192,11158,1,0,2:0:0:0:
192,192,11383,1,0,0:0:0:0:
320,192,11609,1,8,2:0:0:0:
448,192,11609,1,0,0:0:0:0:
320,192,11834,128,0,12060:0:0:0:0:
192,192,11834,1,0,0:0:0:0:
192,192,12060,128,0,13413:0:0:0:0:
448,192,12060,1,0,2:0:0:0:
64,192,12285,1,0,2:0:0:0:
320,192,12511,1,8,2:0:0:0:
448,192,12511,1,0,0:0:0:0:
64,192,12737,1,0,0:0:0:0:
448,192,12962,1,0,2:0:0:0:
64,192,13188,1,0,0:0:0:0:
320,192,13413,1,8,2:0:0:0:
448,192,13413,1,0,0:0:0:0:
64,192,13639,1,0,0:0:0:0:
448,192,13864,128,0,14090:0:0:0:0:
192,192,13864,1,0,2:0:0:0:
320,192,14090,128,0,14315:0:0:0:0:
64,192,14090,1,0,2:0:0:0:
192,192,14315,128,0,14541:0:0:0:0:
448,192,14315,1,8,2:0:0:0:
64,192,14541,128,0,14767:0:0:0:0:
320,192,14541,1,8,2:0:0:0:
192,192,14767,128,0,15443:0:0:0:0:
448,192,14767,1,0,2:0:0:0:
320,192,14767,1,4,1:0:0:0:
64,192,14992,1,0,0:0:0:0:
320,192,15218,1,8,2:0:0:0:
448,192,15218,1,0,0:0:0:0:
448,192,15443,128,0,15669:0:0:0:0:
64,192,15443,1,0,0:0:0:0:
192,192,15669,128,0,16571:0:0:0:0:
320,192,15669,1,0,0:0:0:0:
64,192,15894,1,0,2:0:0:0:
448,192,16120,1,0,0:0:0:0:
320,192,16120,1,8,2:0:0:0:
64,192,16346,1,0,0:0:0:0:
320,192,16571,1,8,2:0:0:0:
448,192,16571,1,0,2:0:0:0:
64,192,16571,1,0,0:0:0:0:
64,192,16797,1,0,2:0:0:0:
192,192,16797,1,8,2:0:0:0:
448,192,16797,1,0,0:0:0:0:
448,192,17022,1,8,2:0:0:0:
64,192,17022,1,0,2:0:0:0:
320,192,17022,1,0,0:0:0:0:
320,192,17248,128,0,17473:1:0:0:0:
448,192,17473,128,0,17699:1:0:0:0:
320,192,17699,128,0,17924:1:0:0:0:
192,192,17924,128,0,18150:1:0:0:0:
64,192,18150,128,0,18376:1:0:0:0:
448,192,18376,128,0,19955:1:0:0:0:
192,192,18376,1,4,1:0:0:0:
320,192,18376,1,0,1:0:0:0:
320,192,19955,128,0,20067:1:0:0:0:
192,192,20067,128,0,20180:1:0:0:0:
64,192,20180,128,0,23338:1:0:0:0:
320,192,20857,1,0,1:0:0:0:
192,192,21534,1,0,1:0:0:0:
320,192,21985,1,0,1:0:0:0:
448,192,21985,1,0,1:0:0:0:
320,192,23338,128,0,23789:1:0:0:0:
448,192,23789,1,4,2:0:0:0:
64,192,23789,1,0,2:0:0:0:
192,192,23789,1,0,0:0:0:0:
448,192,24015,1,0,0:0:0:0:
64,192,24240,1,0,0:0:0:0:
448,192,24466,1,0,0:0:0:0:
192,192,24691,1,0,0:0:0:0:
64,192,24917,1,0,0:0:0:0:
192,192,25143,1,0,0:0:0:0:
320,192,25368,1,0,0:0:0:0:
64,192,25594,1,0,0:0:0:0:
448,192,25819,1,0,1:0:0:0:
320,192,26045,1,0,0:0:0:0:
192,192,26270,1,0,0:0:0:0:
448,192,26496,1,0,0:0:0:0:
64,192,26721,1,0,0:0:0:0:
320,192,26947,1,2,0:0:0:0:
192,192,26947,1,0,0:0:0:0:
448,192,27398,1,0,0:0:0:0:
64,192,27398,1,0,0:0:0:0:
192,192,27624,1,0,0:0:0:0:
320,192,27849,1,0,0:0:0:0:
448,192,28075,1,0,0:0:0:0:
320,192,28300,1,0,0:0:0:0:
64,192,28526,1,0,0:0:0:0:
448,192,28752,1,0,0:0:0:0:
192,192,28977,1,0,0:0:0:0:
448,192,29203,1,0,0:0:0:0:
320,192,29428,1,0,0:0:0:0:
192,192,29654,1,0,0:0:0:0:
448,192,29879,1,0,0:0:0:0:
64,192,30105,1,0,0:0:0:0:
320,192,30330,1,0,0:0:0:0:
192,192,30556,1,0,0:0:0:0:
192,192,31007,1,0,0:0:0:0:
64,192,31007,1,0,0:0:0:0:
448,192,31233,1,0,0:0:0:0:
320,192,31458,1,0,0:0:0:0:
192,192,31684,1,0,0:0:0:0:
64,192,31909,1,0,0:0:0:0:
448,192,32135,1,0,0:0:0:0:
192,192,32361,1,0,0:0:0:0:
320,192,32586,1,0,0:0:0:0:
448,192,32812,1,0,0:0:0:0:
64,192,32812,1,0,0:0:0:0:
320,192,33037,1,0,0:0:0:0:
192,192,33263,1,0,0:0:0:0:
448,192,33488,1,0,0:0:0:0:
64,192,33714,1,0,0:0:0:0:
192,192,33940,1,0,0:0:0:0:
320,192,34165,1,0,0:0:0:0:
192,192,34616,1,0,0:0:0:0:
320,192,34842,1,0,0:0:0:0:
448,192,35067,1,0,0:0:0:0:
64,192,35293,1,0,0:0:0:0:
192,192,35293,1,0,0:0:0:0:
320,192,35518,128,0,36421:0:0:0:0:
448,192,36421,1,0,0:0:0:0:
64,192,36421,1,0,0:0:0:0:
448,192,36646,1,0,0:0:0:0:
320,192,36646,1,0,0:0:0:0:
192,192,36872,1,0,0:0:0:0:
64,192,36872,1,0,0:0:0:0:
192,192,37097,1,0,0:0:0:0:
320,192,37097,1,0,0:0:0:0:
320,192,37323,1,0,0:0:0:0:
448,192,37323,1,0,0:0:0:0:
192,192,37549,1,0,0:0:0:0:
320,192,37549,1,0,0:0:0:0:
64,192,37774,1,0,0:0:0:0:
192,192,37774,1,0,0:0:0:0:
320,192,38000,1,0,0:0:0:0:
192,192,38000,1,0,0:0:0:0:
448,192,38225,1,0,0:0:0:0:
64,192,38225,1,0,2:0:0:0:
64,192,38451,1,0,2:0:0:0:
448,192,38451,1,0,0:0:0:0:
192,192,38676,1,2,2:0:0:0:
320,192,38902,1,0,0:0:0:0:
64,192,39127,1,0,0:0:0:0:
448,192,39353,1,0,0:0:0:0:
192,192,39579,1,2,2:0:0:0:
64,192,39579,1,0,0:0:0:0:
320,192,39804,1,0,0:0:0:0:
64,192,40030,1,0,2:0:0:0:
448,192,40030,1,0,0:0:0:0:
64,192,40255,1,0,2:0:0:0:
448,192,40255,1,0,0:0:0:0:
192,192,40481,1,2,2:0:0:0:
448,192,40706,1,0,0:0:0:0:
64,192,40932,1,0,0:0:0:0:
320,192,41158,1,0,0:0:0:0:
64,192,41383,1,2,2:0:0:0:
448,192,41383,1,2,0:0:0:0:
320,192,41496,1,2,0:0:0:0:
192,192,41609,1,2,0:0:0:0:
320,192,41834,1,0,0:0:0:0:
64,192,41834,1,0,2:0:0:0:
320,192,42060,1,0,0:0:0:0:
64,192,42060,1,0,2:0:0:0:
192,192,42285,1,2,2:0:0:0:
448,192,42511,1,0,0:0:0:0:
64,192,42737,1,0,0:0:0:0:
320,192,42962,1,0,0:0:0:0:
192,192,43188,1,2,2:0:0:0:
64,192,43188,1,0,0:0:0:0:
448,192,43413,1,0,0:0:0:0:
192,192,43639,1,0,0:0:0:0:
64,192,43639,1,0,2:0:0:0:
320,192,43864,1,0,0:0:0:0:
448,192,43864,1,0,2:0:0:0:
192,192,44090,1,2,2:0:0:0:
448,192,44315,1,0,0:0:0:0:
64,192,44541,1,0,0:0:0:0:
320,192,44767,1,0,0:0:0:0:
448,192,44992,1,0,0:0:0:0:
192,192,44992,1,2,2:0:0:0:
448,192,45443,1,0,0:0:0:0:
64,192,45443,1,0,2:0:0:0:
448,192,45669,1,0,0:0:0:0:
64,192,45669,1,0,2:0:0:0:
192,192,45894,1,2,2:0:0:0:
448,192,46120,1,0,0:0:0:0:
320,192,46346,1,0,0:0:0:0:
64,192,46571,1,0,0:0:0:0:
448,192,46797,1,0,0:0:0:0:
192,192,46797,1,2,2:0:0:0:
320,192,47022,1,0,0:0:0:0:
192,192,47248,1,0,0:0:0:0:
64,192,47248,1,0,2:0:0:0:
320,192,47473,1,0,0:0:0:0:
448,192,47473,1,0,0:0:0:0:
64,192,47699,1,2,2:0:0:0:
448,192,47924,1,0,0:0:0:0:
192,192,48150,1,0,0:0:0:0:
320,192,48376,1,0,0:0:0:0:
448,192,48601,1,2,0:0:0:0:
64,192,48601,1,0,0:0:0:0:
192,192,48714,1,2,0:0:0:0:
320,192,48827,1,2,0:0:0:0:
192,192,49052,1,0,0:0:0:0:
64,192,49052,1,0,0:0:0:0:
448,192,49278,1,0,0:0:0:0:
320,192,49278,1,0,0:0:0:0:
192,192,49503,1,2,2:0:0:0:
64,192,49729,1,0,0:0:0:0:
448,192,49955,1,0,0:0:0:0:
320,192,50406,1,0,0:0:0:0:
192,192,50406,1,2,2:0:0:0:
64,192,50631,1,0,0:0:0:0:
448,192,50857,1,0,0:0:0:0:
192,192,50857,1,0,2:0:0:0:
320,192,51082,1,0,0:0:0:0:
64,192,51082,1,0,2:0:0:0:
192,192,51308,1,2,2:0:0:0:
448,192,51534,1,0,0:0:0:0:
320,192,51985,1,0,0:0:0:0:
192,192,51985,1,0,0:0:0:0:
64,192,52210,1,2,0:0:0:0:
448,192,52210,1,0,0:0:0:0:
64,192,52661,1,0,2:0:0:0:
192,192,52661,1,0,2:0:0:0:
320,192,52887,1,0,2:0:0:0:
448,192,52887,1,0,0:0:0:0:
192,192,53112,1,2,2:0:0:0:
448,192,53338,1,0,0:0:0:0:
64,192,53338,1,0,2:0:0:0:
192,192,53564,1,0,0:0:0:0:
320,192,53789,1,0,0:0:0:0:
192,192,54015,1,8,2:0:0:0:
64,192,54015,1,0,0:0:0:0:
448,192,54015,1,0,0:0:0:0:
192,192,54240,1,0,0:0:0:0:
320,192,54466,1,0,0:0:0:0:
448,192,54466,1,0,0:0:0:0:
64,192,54691,1,0,2:0:0:0:
192,192,54691,1,0,0:0:0:0:
320,192,54917,1,2,2:0:0:0:
448,192,55143,1,0,0:0:0:0:
64,192,55143,1,0,2:0:0:0:
192,192,55368,1,0,0:0:0:0:
320,192,55819,128,0,56270:0:0:0:0:
64,192,55819,1,8,2:0:0:0:
448,192,55819,1,0,0:0:0:0:
192,192,56270,1,0,2:0:0:0:
64,192,56270,1,0,2:0:0:0:
320,192,56496,1,0,2:0:0:0:
448,192,56496,1,0,0:0:0:0:
192,192,56721,1,2,0:0:0:0:
448,192,56947,1,0,0:0:0:0:
64,192,56947,1,0,0:0:0:0:
320,192,57173,1,0,0:0:0:0:
192,192,57398,1,0,0:0:0:0:
320,192,57624,1,8,2:0:0:0:
64,192,57624,1,0,0:0:0:0:
448,192,57624,1,0,0:0:0:0:
192,192,57849,1,0,0:0:0:0:
64,192,58075,1,0,2:0:0:0:
320,192,58075,1,0,0:0:0:0:
192,192,58300,1,0,2:0:0:0:
448,192,58300,1,0,0:0:0:0:
320,192,58526,1,2,2:0:0:0:
64,192,58752,1,0,2:0:0:0:
448,192,58752,1,0,0:0:0:0:
192,192,58977,1,0,0:0:0:0:
320,192,59428,1,8,2:0:0:0:
64,192,59428,1,0,0:0:0:0:
448,192,59428,1,0,0:0:0:0:
64,192,59879,1,0,2:0:0:0:
192,192,59879,1,0,0:0:0:0:
448,192,59879,128,4,60782:2:0:0:0:
320,192,60105,1,0,2:0:0:0:
64,192,60330,1,2,1:0:0:0:
320,192,60556,1,0,2:0:0:0:
320,192,60782,128,0,61233:0:0:0:0:
192,192,60782,1,0,0:0:0:0:
448,192,61233,1,8,2:0:0:0:
192,192,61233,128,0,61684:0:0:0:0:
64,192,61233,1,0,0:0:0:0:
320,192,61458,1,0,0:0:0:0:
448,192,61684,1,0,2:0:0:0:
64,192,61684,128,0,62135:0:0:0:0:
192,192,61909,1,0,2:0:0:0:
448,192,62135,1,2,2:0:0:0:
320,192,62135,128,0,62586:0:0:0:0:
64,192,62361,1,0,2:0:0:0:
192,192,62586,1,0,0:0:0:0:
448,192,62586,128,0,63037:0:0:0:0:
192,192,63037,128,0,63488:0:0:0:0:
320,192,63037,1,8,2:0:0:0:
64,192,63037,1,0,0:0:0:0:
320,192,63488,1,4,2:0:0:0:
448,192,63488,1,0,2:0:0:0:
64,192,63488,1,8,2:0:0:0:
192,192,63714,1,0,3:0:0:0:
448,192,63714,1,0,2:0:0:0:
64,192,63714,1,8,2:0:0:0:
320,192,63940,1,0,0:0:0:0:
64,192,63940,1,0,0:0:0:0:
320,192,64165,1,0,0:0:0:0:
192,192,64165,1,0,0:0:0:0:
192,192,64391,1,0,0:0:0:0:
448,192,64391,1,0,0:0:0:0:
320,192,64616,1,0,0:0:0:0:
448,192,64616,1,0,0:0:0:0:
320,192,64842,1,8,2:0:0:0:
64,192,64842,1,0,0:0:0:0:
192,192,64842,128,0,65293:0:0:0:0:
320,192,65293,1,0,3:0:0:0:
448,192,65293,1,8,2:0:0:0:
64,192,65293,1,0,2:0:0:0:
192,192,65518,1,0,3:0:0:0:
448,192,65518,1,8,2:0:0:0:
64,192,65518,1,0,2:0:0:0:
320,192,65744,1,0,0:0:0:0:
448,192,65744,1,0,0:0:0:0:
64,192,65970,1,0,0:0:0:0:
320,192,65970,1,0,0:0:0:0:
64,192,66195,1,0,0:0:0:0:
192,192,66195,1,0,0:0:0:0:
192,192,66421,1,0,0:0:0:0:
448,192,66421,1,0,0:0:0:0:
448,192,66646,1,8,2:0:0:0:
320,192,66646,1,0,0:0:0:0:
64,192,66759,1,8,2:0:0:0:
192,192,66759,1,0,0:0:0:0:
320,192,66872,1,0,0:0:0:0:
448,192,66872,1,8,2:0:0:0:
192,192,66985,1,0,0:0:0:0:
64,192,66985,1,8,2:0:0:0:
320,192,67097,1,4,2:0:0:0:
448,192,67097,1,0,2:0:0:0:
64,192,67097,1,8,2:0:0:0:
448,192,67323,1,0,2:0:0:0:
64,192,67323,1,8,2:0:0:0:
192,192,67323,1,0,3:0:0:0:
192,192,67549,1,0,0:0:0:0:
320,192,67549,1,0,0:0:0:0:
64,192,67774,1,0,0:0:0:0:
320,192,67774,1,0,0:0:0:0:
64,192,68000,1,0,0:0:0:0:
448,192,68000,1,0,0:0:0:0:
192,192,68225,1,0,0:0:0:0:
320,192,68225,1,0,0:0:0:0:
448,192,68451,1,8,2:0:0:0:
64,192,68451,1,0,0:0:0:0:
320,192,68451,128,0,68902:0:0:0:0:
192,192,68902,1,0,3:0:0:0:
448,192,68902,1,8,2:0:0:0:
64,192,68902,1,0,2:0:0:0:
320,192,69127,1,0,3:0:0:0:
448,192,69127,1,8,2:0:0:0:
64,192,69127,1,0,2:0:0:0:
64,192,69804,1,8,2:0:0:0:
192,192,69804,1,0,0:0:0:0:
64,192,70030,1,8,2:0:0:0:
192,192,70030,1,0,0:0:0:0:
64,192,70255,1,8,2:0:0:0:
192,192,70255,1,0,0:0:0:0:
448,192,70481,1,0,2:0:0:0:
320,192,70481,1,8,2:0:0:0:
64,192,70594,1,0,0:0:0:0:
192,192,70594,1,8,2:0:0:0:
448,192,70706,1,0,2:3:0:0:
320,192,70706,128,4,71383:1:0:0:0:
64,192,70706,1,0,0:0:0:0:
192,192,70932,1,0,0:0:0:0:
192,192,71158,1,8,2:0:0:0:
448,192,71158,1,0,0:0:0:0:
64,192,71383,1,0,0:0:0:0:
448,192,71383,128,0,71609:0:0:0:0:
320,192,71609,1,0,0:0:0:0:
192,192,71609,128,0,72511:0:0:0:0:
448,192,71834,1,0,0:0:0:0:
64,192,72060,1,0,2:0:0:0:
320,192,72060,1,8,2:0:0:0:
448,192,72285,1,0,0:0:0:0:
64,192,72511,1,0,2:0:0:0:
320,192,72737,1,0,0:0:0:0:
64,192,72962,1,0,0:0:0:0:
192,192,72962,1,8,2:0:0:0:
448,192,72962,128,0,73413:0:0:0:0:
320,192,73188,1,0,0:0:0:0:
64,192,73413,1,0,2:0:0:0:
320,192,73413,128,0,73864:0:0:0:0:
192,192,73639,1,0,0:0:0:0:
192,192,73864,128,0,74315:0:0:0:0:
64,192,73864,1,8,2:0:0:0:
448,192,73864,1,0,2:0:0:0:
320,192,74090,1,0,0:0:0:0:
64,192,74315,128,0,74992:2:0:0:0:
448,192,74315,1,0,0:0:0:0:
192,192,74541,1,0,0:0:0:0:
320,192,74767,1,8,2:0:0:0:
448,192,74767,1,0,0:0:0:0:
192,192,74992,1,0,0:0:0:0:
320,192,74992,128,0,75218:0:0:0:0:
448,192,75218,1,0,0:0:0:0:
192,192,75218,128,0,76120:0:0:0:0:
64,192,75443,1,0,2:0:0:0:
64,192,75669,1,0,0:0:0:0:
320,192,75669,1,8,2:0:0:0:
448,192,75894,1,0,0:0:0:0:
448,192,76120,1,0,2:0:0:0:
64,192,76120,1,0,0:0:0:0:
320,192,76233,1,0,0:0:0:0:
192,192,76346,1,0,2:0:0:0:
64,192,76346,1,0,0:0:0:0:
448,192,76571,1,8,2:0:0:0:
64,192,76571,1,0,0:0:0:0:
192,192,76684,1,0,0:0:0:0:
320,192,76797,1,0,2:0:0:0:
448,192,76797,1,0,0:0:0:0:
192,192,77022,1,8,2:0:0:0:
448,192,77022,1,0,3:0:0:0:
320,192,77135,1,0,0:0:0:0:
192,192,77248,1,0,2:0:0:0:
448,192,77248,1,0,0:0:0:0:
64,192,77473,1,8,2:0:0:0:
320,192,77473,1,0,3:0:0:0:
192,192,77586,1,0,0:0:0:0:
64,192,77699,1,0,2:0:0:0:
320,192,77699,1,0,0:0:0:0:
448,192,77924,1,0,2:0:0:0:
192,192,77924,128,0,78601:0:0:0:0:
320,192,77924,1,4,1:0:0:0:
64,192,78150,1,0,0:0:0:0:
320,192,78376,1,8,2:0:0:0:
448,192,78376,1,0,0:0:0:0:
64,192,78601,1,0,0:0:0:0:
448,192,78601,128,0,78827:0:0:0:0:
192,192,78827,1,0,0:0:0:0:
320,192,78827,128,0,79729:0:0:0:0:
448,192,79052,1,0,2:0:0:0:
64,192,79278,1,0,0:0:0:0:
192,192,79278,1,8,2:0:0:0:
448,192,79503,1,0,0:0:0:0:
64,192,79729,1,0,2:0:0:0:
192,192,79955,1,0,2:0:0:0:
448,192,80180,1,8,2:0:0:0:
320,192,80180,1,0,0:0:0:0:
64,192,80180,1,0,0:0:0:0:
320,192,80406,1,0,0:0:0:0:
64,192,80631,1,0,0:0:0:0:
192,192,80631,1,0,0:0:0:0:
448,192,80857,1,0,2:0:0:0:
192,192,81082,1,8,2:0:0:0:
320,192,81082,1,0,0:0:0:0:
64,192,81082,1,0,0:0:0:0:
448,192,81308,1,0,0:0:0:0:
64,192,81534,128,0,81985:2:0:0:0:
192,192,81534,1,0,0:0:0:0:
448,192,81759,1,0,2:0:0:0:
320,192,81985,1,8,2:0:0:0:
192,192,81985,128,0,82436:0:0:0:0:
448,192,81985,1,0,2:0:0:0:
64,192,82210,1,0,0:0:0:0:
64,192,82436,1,8,2:0:0:0:
448,192,82436,128,0,83112:0:0:0:0:
320,192,82436,1,0,0:0:0:0:
192,192,82661,1,0,2:0:0:0:
192,192,83112,128,0,83338:0:0:0:0:
320,192,83112,1,8,2:0:0:0:
64,192,83338,1,0,2:0:0:0:
448,192,83338,128,0,84240:0:0:0:0:
320,192,83564,1,0,0:0:0:0:
64,192,83789,1,0,2:0:0:0:
192,192,83789,1,8,2:0:0:0:
320,192,84015,1,0,0:0:0:0:
64,192,84240,1,0,2:0:0:0:
320,192,84240,128,0,84691:0:0:0:0:
192,192,84466,1,0,0:0:0:0:
448,192,84691,1,8,2:0:0:0:
64,192,84691,1,0,3:0:0:0:
192,192,84691,128,4,85143:0:0:0:0:
320,192,84917,1,0,0:0:0:0:
64,192,85143,1,0,2:0:0:0:
320,192,85143,128,0,85819:0:0:0:0:
448,192,85143,1,4,0:0:0:0:
192,192,85368,1,0,0:0:0:0:
192,192,85594,1,8,2:0:0:0:
64,192,85594,1,0,0:0:0:0:
448,192,85819,1,0,0:0:0:0:
192,192,85819,128,0,86045:0:0:0:0:
320,192,86045,1,8,2:0:0:0:
64,192,86045,128,0,87398:0:0:0:0:
448,192,86045,1,0,0:0:0:0:
448,192,86270,1,0,2:0:0:0:
320,192,86496,1,0,2:0:0:0:
192,192,86496,1,8,2:0:0:0:
320,192,86721,1,0,2:0:0:0:
448,192,86947,1,0,2:0:0:0:
192,192,86947,1,0,0:0:0:0:
320,192,87173,1,0,0:0:0:0:
320,192,87398,1,8,2:0:0:0:
192,192,87398,128,0,87849:0:0:0:0:
448,192,87398,1,0,0:0:0:0:
64,192,87624,1,0,0:0:0:0:
448,192,87849,1,8,2:0:0:0:
320,192,87849,128,0,88300:0:0:0:0:
64,192,87849,1,0,0:0:0:0:
192,192,88075,1,0,2:0:0:0:
64,192,88300,1,0,0:0:0:0:
192,192,88300,1,8,2:0:0:0:
448,192,88300,128,0,88752:0:0:0:0:
320,192,88526,1,0,0:0:0:0:
192,192,88752,128,4,89428:2:0:0:0:
64,192,88752,1,0,2:0:0:0:
320,192,88752,1,0,0:0:0:0:
64,192,88977,1,0,0:0:0:0:
320,192,89203,1,8,2:0:0:0:
448,192,89203,1,0,0:0:0:0:
64,192,89428,1,0,0:0:0:0:
448,192,89428,128,0,89654:0:0:0:0:
192,192,89654,1,8,2:0:0:0:
320,192,89654,128,0,90556:0:0:0:0:
64,192,89654,1,0,0:0:0:0:
448,192,89879,1,0,2:0:0:0:
64,192,90105,1,0,0:0:0:0:
192,192,90105,1,8,2:0:0:0:
448,192,90330,1,0,2:0:0:0:
64,192,90556,1,0,0:0:0:0:
448,192,90556,1,0,0:0:0:0:
192,192,90669,1,0,0:0:0:0:
320,192,90782,1,0,2:0:0:0:
448,192,90782,1,0,2:0:0:0:
192,192,91007,1,8,2:0:0:0:
64,192,91007,1,0,0:0:0:0:
320,192,91120,1,0,0:0:0:0:
64,192,91233,1,0,2:0:0:0:
448,192,91233,1,0,0:0:0:0:
192,192,91458,1,8,2:0:0:0:
448,192,91458,1,0,3:0:0:0:
320,192,91571,1,0,0:0:0:0:
64,192,91684,1,0,2:0:0:0:
192,192,91684,1,0,0:0:0:0:
320,192,91909,1,8,2:0:0:0:
64,192,91909,1,0,3:0:0:0:
192,192,92022,1,0,0:0:0:0:
448,192,92135,1,0,2:0:0:0:
320,192,92135,1,0,0:0:0:0:
320,192,92361,1,0,2:0:0:0:
64,192,92361,128,0,93037:0:0:0:0:
192,192,92361,1,4,1:0:0:0:
448,192,92586,1,0,2:0:0:0:
192,192,92812,1,0,0:0:0:0:
320,192,92812,1,8,2:0:0:0:
320,192,93037,128,0,93263:0:0:0:0:
448,192,93037,1,0,2:0:0:0:
192,192,93263,1,0,0:0:0:0:
64,192,93263,128,0,94165:0:0:0:0:
448,192,93488,1,0,2:0:0:0:
192,192,93714,1,0,0:0:0:0:
320,192,93714,1,8,2:0:0:0:
448,192,93940,1,0,0:0:0:0:
320,192,94165,1,0,2:0:0:0:
448,192,94165,1,0,0:0:0:0:
192,192,94165,1,8,2:0:0:0:
320,192,94391,1,0,0:0:0:0:
192,192,94391,1,0,2:0:0:0:
64,192,94391,1,8,2:0:0:0:
192,192,94616,1,0,2:0:0:0:
64,192,94616,1,0,0:0:0:0:
448,192,94616,1,8,2:0:0:0:
320,192,94842,1,0,1:0:0:0:
448,192,94842,1,0,0:0:0:0:
192,192,95067,1,0,1:0:0:0:
64,192,95067,1,0,1:0:0:0:
64,192,95293,1,0,1:0:0:0:
448,192,95293,1,0,1:0:0:0:
192,192,95518,1,0,1:0:0:0:
448,192,95518,1,0,1:0:0:0:
192,192,95744,1,0,1:0:0:0:
320,192,95744,1,0,1:0:0:0:
320,192,95970,128,0,97323:0:0:0:0:
64,192,95970,128,4,98676:2:0:0:0:
448,192,95970,1,0,2:3:0:0:
448,192,97323,128,0,97774:0:0:0:0:
320,192,97774,128,0,99353:0:0:0:0:
448,192,98676,1,0,0:0:0:0:
192,192,98676,128,0,99353:0:0:0:0:
448,192,99353,1,0,0:0:0:0:
64,192,99579,1,0,2:0:0:0:
448,192,99579,1,8,2:0:0:0:
192,192,99579,1,4,2:0:0:0:
64,192,99804,1,0,2:0:0:0:
448,192,99804,1,8,2:0:0:0:
320,192,99804,1,0,3:0:0:0:
64,192,100481,1,0,0:0:0:0:
192,192,100481,1,0,0:0:0:0:
320,192,100706,1,0,0:0:0:0:
448,192,100706,1,0,0:0:0:0:
192,192,100932,1,0,0:0:0:0:
64,192,100932,1,0,0:0:0:0:
320,192,101158,1,0,0:0:0:0:
192,192,101158,1,0,0:0:0:0:
320,192,101383,1,0,3:0:0:0:
448,192,101383,1,0,2:0:0:0:
64,192,101383,1,8,2:0:0:0:
448,192,101609,1,0,3:0:0:0:
192,192,101609,1,0,2:0:0:0:
64,192,101609,1,8,2:0:0:0:
320,192,102060,1,0,0:0:0:0:
448,192,102060,1,0,0:0:0:0:
64,192,102511,1,8,2:0:0:0:
448,192,102511,1,0,0:0:0:0:
192,192,102737,1,0,0:0:0:0:
448,192,102737,1,8,2:0:0:0:
192,192,102962,1,0,0:0:0:0:
64,192,102962,1,8,2:0:0:0:
64,192,103188,1,8,2:0:0:0:
448,192,103188,1,0,2:0:0:0:
320,192,103188,1,4,0:0:0:0:
192,192,103413,1,0,0:0:0:0:
320,192,103639,1,8,2:0:0:0:
448,192,103639,1,0,0:0:0:0:
448,192,104090,1,8,2:0:0:0:
320,192,104090,1,0,0:0:0:0:
192,192,104315,1,0,0:0:0:0:
448,192,104541,1,8,2:0:0:0:
64,192,104541,1,0,0:0:0:0:
320,192,104767,1,0,0:0:0:0:
192,192,104992,1,8,2:0:0:0:
64,192,104992,1,0,2:0:0:0:
320,192,105105,1,8,2:0:0:0:
448,192,105105,1,0,0:0:0:0:
64,192,105218,1,0,2:0:0:0:
192,192,105218,1,0,0:0:0:0:
448,192,105330,1,8,2:0:0:0:
320,192,105330,1,0,0:0:0:0:
64,192,105443,1,8,2:0:0:0:
192,192,105443,1,0,0:0:0:0:
320,192,105556,1,8,2:0:0:0:
448,192,105556,1,0,0:0:0:0:
64,192,105669,1,0,2:0:0:0:
192,192,105669,1,0,0:0:0:0:
448,192,105782,1,8,2:0:0:0:
320,192,105782,1,0,0:0:0:0:
64,192,105894,128,0,106346:3:0:0:0:
192,192,105894,1,8,2:0:0:0:
192,192,106120,1,8,2:0:0:0:
320,192,106233,1,8,2:0:0:0:
192,192,106346,128,0,106797:3:0:0:0:
448,192,106346,1,8,2:0:0:0:
320,192,106458,1,8,2:0:0:0:
64,192,106571,1,0,2:0:0:0:
320,192,106797,128,0,108827:0:0:0:0:
64,192,106797,1,0,2:0:0:0:
448,192,106797,1,4,1:0:0:0:
448,192,107022,1,0,0:0:0:0:
192,192,107248,1,8,2:0:0:0:
64,192,107248,1,0,0:0:0:0:
448,192,107473,1,0,0:0:0:0:
64,192,107699,1,0,2:0:0:0:
192,192,107924,1,0,0:0:0:0:
448,192,108150,1,0,2:0:0:0:
64,192,108150,1,8,2:0:0:0:
192,192,108376,1,0,0:0:0:0:
64,192,108601,1,0,2:0:0:0:
192,192,108827,1,0,2:0:0:0:
320,192,109052,1,8,2:0:0:0:
448,192,109052,128,0,109503:0:0:0:0:
64,192,109052,1,0,0:0:0:0:
192,192,109278,1,0,0:0:0:0:
320,192,109503,128,0,109955:0:0:0:0:
64,192,109503,1,0,2:0:0:0:
192,192,109729,1,0,2:0:0:0:
192,192,109955,128,0,110406:0:0:0:0:
448,192,109955,1,8,2:0:0:0:
64,192,109955,1,0,0:0:0:0:
320,192,110180,1,0,0:0:0:0:
64,192,110406,128,0,111082:0:0:0:0:
448,192,110406,1,0,2:0:0:0:
320,192,110631,1,0,0:0:0:0:
192,192,110857,1,8,2:0:0:0:
448,192,110857,1,0,0:0:0:0:
192,192,111082,128,0,111308:0:0:0:0:
320,192,111082,1,0,0:0:0:0:
64,192,111308,128,0,112661:0:0:0:0:
448,192,111308,1,0,2:0:0:0:
192,192,111534,1,0,2:0:0:0:
448,192,111759,1,0,0:0:0:0:
320,192,111759,1,8,2:0:0:0:
192,192,111985,1,0,0:0:0:0:
448,192,112210,1,0,2:0:0:0:
320,192,112436,1,0,2:0:0:0:
192,192,112661,1,8,2:0:0:0:
448,192,112661,1,0,0:0:0:0:
320,192,112887,1,0,0:0:0:0:
448,192,113112,128,0,113338:0:0:0:0:
192,192,113112,1,0,2:0:0:0:
64,192,113338,1,8,2:0:0:0:
320,192,113338,128,0,113564:0:0:0:0:
192,192,113564,128,0,113789:0:0:0:0:
448,192,113564,1,8,2:0:0:0:
320,192,113789,1,8,2:0:0:0:
64,192,113789,128,0,114015:0:0:0:0:
192,192,114015,128,0,114691:0:0:0:0:
448,192,114015,1,0,2:0:0:0:
320,192,114015,1,4,1:0:0:0:
448,192,114240,1,0,0:0:0:0:
64,192,114466,1,8,2:0:0:0:
320,192,114466,1,0,0:0:0:0:
64,192,114691,128,0,114917:0:0:0:0:
448,192,114691,1,0,0:0:0:0:
320,192,114917,128,0,115819:0:0:0:0:
192,192,114917,1,0,0:0:0:0:
448,192,115143,1,0,2:0:0:0:
64,192,115368,1,0,0:0:0:0:
192,192,115368,1,8,2:0:0:0:
448,192,115594,1,0,0:0:0:0:
192,192,115819,1,8,2:0:0:0:
448,192,115819,1,0,2:0:0:0:
64,192,115819,1,0,0:0:0:0:
192,192,116045,1,8,2:0:0:0:
320,192,116045,1,0,2:0:0:0:
64,192,116045,1,0,0:0:0:0:
320,192,116270,1,8,2:0:0:0:
448,192,116270,1,0,2:0:0:0:
192,192,116270,1,0,0:0:0:0:
64,192,116496,128,0,116721:0:0:0:0:
320,192,116721,128,0,116947:0:0:0:0:
64,192,116947,128,0,117173:0:0:0:0:
192,192,117173,128,0,117398:1:0:0:0:
320,192,117398,128,0,117624:0:0:0:0:
448,192,117624,128,0,119203:0:0:0:0:
192,192,117624,1,4,1:0:0:0:
64,192,117624,1,0,2:0:0:0:
192,192,119428,128,0,121007:2:0:0:0:
320,192,119428,128,4,121007:1:0:0:0:
448,192,119428,1,0,1:0:0:0:
448,192,121007,128,0,121233:0:0:0:0:
64,192,121233,128,0,122812:1:0:0:0:
320,192,121233,128,4,122812:1:0:0:0:
192,192,121233,1,0,2:0:0:0:
448,192,123037,128,4,126646:1:0:0:0:
320,192,123037,128,0,126646:2:0:0:0:
192,192,123037,1,0,2:0:0:0:
64,192,123263,128,0,126646:3:0:0:0:
