osu file format v14

[General]
AudioFilename: Iguchi Yuka - Kaga Misaki.mp3
AudioLeadIn: 0
PreviewTime: 69804
Countdown: 0
SampleSet: Normal
StackLeniency: 0.6
Mode: 3
LetterboxInBreaks: 0
SpecialStyle: 0
WidescreenStoryboard: 0

[Editor]
DistanceSpacing: 0.8
BeatDivisor: 4
GridSize: 4
TimelineZoom: 2

[Metadata]
Title:Kaga Misaki
TitleUnicode:加賀岬
Artist:Kaga (CV: Iguchi Yuka)
ArtistUnicode:加賀 (CV: 井口裕香)
Creator:Draftnell
Version:Easy
Source:艦隊これくしょん -艦これ-
Tags:Kadokawa Games Kantai Collection Kanmusume Omoiuta Dellvangel
BeatmapID:867415
BeatmapSetID:398924

[Difficulty]
HPDrainRate:6.5
CircleSize:4
OverallDifficulty:7
ApproachRate:4
SliderMultiplier:1.4
SliderTickRate:1

[Events]
//Background and Video events
0,0,"BG.jpg",0,0
//Break Periods
//Storyboard Layer 0 (Background)
//Storyboard Layer 1 (Fail)
//Storyboard Layer 2 (Pass)
//Storyboard Layer 3 (Foreground)
//Storyboard Sound Samples

[TimingPoints]
331,451.127819548872,4,1,1,30,1,0
70706,-100,4,1,1,30,0,1
99579,-100,4,1,1,30,0,0

[HitObjects]
64,192,331,5,8,2:0:0:0:
448,192,556,1,8,2:0:0:0:
448,192,2135,1,8,2:0:0:0:
64,192,2361,1,8,2:0:0:0:
320,192,2812,1,0,0:0:0:0:
64,192,3263,1,8,2:0:0:0:
192,192,3488,1,8,2:0:0:0:
320,192,3714,1,8,2:0:0:0:
448,192,3940,5,4,2:3:0:0:
64,192,3940,1,0,0:0:0:0:
320,192,4391,1,8,2:0:0:0:
320,192,4842,1,8,2:0:0:0:
320,192,5293,1,8,2:0:0:0:
448,192,5744,128,8,6646:2:0:0:0:
64,192,6646,128,0,7097:0:0:0:0:
192,192,7097,128,0,7549:0:0:0:0:
320,192,7549,128,4,9579:2:0:0:0:
448,192,9804,128,8,10255:2:0:0:0:
320,192,10255,128,0,10706:2:0:0:0:
192,192,10706,128,8,11158:2:0:0:0:
64,192,11158,128,0,11834:2:0:0:0:
448,192,11834,128,0,12060:2:0:0:0:
320,192,12060,128,0,13413:2:0:0:0:
192,192,13864,1,0,2:0:0:0:
448,192,14090,1,0,2:0:0:0:
64,192,14315,1,8,2:0:0:0:
320,192,14541,1,8,2:0:0:0:
192,192,14767,1,4,1:0:0:0:
448,192,14767,128,0,15443:0:0:0:0:
64,192,15443,128,0,15669:0:0:0:0:
192,192,15669,128,0,16571:2:0:0:0:
448,192,16571,1,8,2:0:0:0:
320,192,16797,1,8,2:0:0:0:
192,192,17022,1,8,2:0:0:0:
64,192,17248,1,0,0:0:0:0:
448,192,17473,1,0,0:0:0:0:
192,192,17699,1,0,0:0:0:0:
320,192,17924,1,0,0:0:0:0:
64,192,18150,1,0,0:0:0:0:
448,192,18376,128,4,20180:1:0:0:0:
192,192,20180,128,0,23338:0:0:0:0:
64,192,23789,1,0,0:0:0:0:
192,192,24015,1,0,0:0:0:0:
320,192,24240,1,0,0:0:0:0:
448,192,24466,1,0,0:0:0:0:
448,192,25594,1,0,0:0:0:0:
320,192,25819,1,0,0:0:0:0:
192,192,26045,1,0,0:0:0:0:
64,192,26270,1,0,0:0:0:0:
320,192,26947,1,2,0:0:0:0:
64,192,27398,1,0,0:0:0:0:
192,192,27624,1,0,0:0:0:0:
320,192,27849,1,0,0:0:0:0:
448,192,28075,1,0,0:0:0:0:
448,192,29203,1,0,0:0:0:0:
320,192,29428,1,0,0:0:0:0:
192,192,29654,1,0,0:0:0:0:
64,192,29879,1,0,0:0:0:0:
192,192,31007,1,0,0:0:0:0:
320,192,31233,1,0,0:0:0:0:
448,192,31458,1,0,0:0:0:0:
64,192,31684,1,0,0:0:0:0:
64,192,32812,1,0,0:0:0:0:
448,192,33037,1,0,0:0:0:0:
320,192,33263,1,0,0:0:0:0:
192,192,33488,1,0,0:0:0:0:
192,192,34616,128,0,36421:0:0:0:0:
448,192,36421,128,0,36872:0:0:0:0:
320,192,36872,128,0,37323:0:0:0:0:
192,192,37323,128,0,37774:0:0:0:0:
64,192,37774,128,0,38225:0:0:0:0:
448,192,38225,1,0,2:0:0:0:
192,192,38451,1,0,2:0:0:0:
64,192,40030,1,0,2:0:0:0:
320,192,40255,1,0,2:0:0:0:
192,192,41383,1,2,0:0:0:0:
448,192,41834,1,0,2:0:0:0:
64,192,42060,1,0,2:0:0:0:
64,192,43639,1,0,2:0:0:0:
448,192,43864,1,0,2:0:0:0:
320,192,44992,1,2,2:0:0:0:
448,192,45443,1,0,2:0:0:0:
64,192,45669,1,0,2:0:0:0:
448,192,46797,1,2,0:0:0:0:
192,192,47248,1,0,2:0:0:0:
320,192,47473,1,0,2:0:0:0:
448,192,48601,1,2,0:0:0:0:
64,192,49052,1,0,2:0:0:0:
320,192,49278,1,0,2:0:0:0:
320,192,50406,1,2,2:0:0:0:
448,192,50857,1,0,2:0:0:0:
64,192,51082,1,0,2:0:0:0:
64,192,51985,1,0,0:0:0:0:
448,192,52210,1,2,0:0:0:0:
320,192,52661,1,0,2:0:0:0:
64,192,52887,1,0,2:0:0:0:
448,192,53338,1,0,2:0:0:0:
320,192,54015,1,8,2:0:0:0:
64,192,54466,1,0,2:0:0:0:
448,192,54691,1,0,2:0:0:0:
192,192,55143,1,0,2:0:0:0:
64,192,55819,128,8,56270:2:0:0:0:
448,192,56270,1,0,2:0:0:0:
192,192,56496,1,0,2:0:0:0:
64,192,56947,1,0,2:0:0:0:
320,192,57624,1,8,2:0:0:0:
192,192,58075,1,0,2:0:0:0:
448,192,58300,1,0,2:0:0:0:
64,192,58752,1,0,2:0:0:0:
320,192,59428,1,8,2:0:0:0:
448,192,59879,128,0,60782:0:0:0:0:
320,192,60782,128,0,61233:0:0:0:0:
64,192,61233,128,0,61684:0:0:0:0:
448,192,61684,128,0,62135:0:0:0:0:
64,192,62135,128,0,62586:0:0:0:0:
192,192,62586,128,0,63037:0:0:0:0:
320,192,63037,128,8,63488:2:0:0:0:
448,192,63488,1,8,2:0:0:0:
64,192,63714,1,8,2:0:0:0:
320,192,64842,1,0,0:0:0:0:
64,192,65293,1,8,2:0:0:0:
448,192,65518,1,8,2:0:0:0:
192,192,66646,1,0,0:0:0:0:
448,192,67097,1,8,2:0:0:0:
64,192,67323,1,8,2:0:0:0:
320,192,68451,1,0,0:0:0:0:
64,192,68902,1,8,2:0:0:0:
448,192,69127,1,8,2:0:0:0:
192,192,69804,1,8,2:0:0:0:
320,192,70255,1,8,2:0:0:0:
64,192,70706,1,0,2:3:0:0:
448,192,70706,1,4,2:0:0:0:
320,192,71383,1,0,2:0:0:0:
192,192,71609,128,0,72511:2:0:0:0:
320,192,72962,1,8,2:0:0:0:
192,192,73413,1,0,2:0:0:0:
64,192,73864,1,8,2:0:0:0:
320,192,74315,128,0,74767:2:0:0:0:
448,192,74992,1,0,2:0:0:0:
192,192,75218,128,0,76120:0:0:0:0:
320,192,76797,1,0,2:0:0:0:
192,192,77022,1,8,2:0:0:0:
448,192,77248,1,0,2:0:0:0:
64,192,77473,1,8,2:0:0:0:
192,192,77699,1,0,2:0:0:0:
448,192,77924,1,0,2:0:0:0:
320,192,77924,1,4,2:0:0:0:
64,192,78601,1,0,2:0:0:0:
320,192,78827,128,0,79729:2:0:0:0:
192,192,80406,1,0,0:0:0:0:
192,192,80631,1,0,0:0:0:0:
448,192,80857,1,0,2:0:0:0:
320,192,81082,1,8,2:0:0:0:
64,192,81308,1,0,0:0:0:0:
192,192,81534,1,0,2:0:0:0:
320,192,81985,1,8,2:0:0:0:
448,192,82436,1,8,2:0:0:0:
320,192,83112,1,8,2:0:0:0:
192,192,83338,128,0,83789:2:0:0:0:
64,192,84240,1,0,2:0:0:0:
192,192,84691,1,8,2:0:0:0:
448,192,85143,1,4,2:0:0:0:
64,192,85143,1,0,0:0:0:0:
320,192,85819,1,0,0:0:0:0:
192,192,86045,128,0,86947:0:0:0:0:
448,192,87398,1,8,2:0:0:0:
320,192,87849,1,8,2:0:0:0:
192,192,88300,1,8,2:0:0:0:
64,192,88752,1,0,2:0:0:0:
192,192,89428,1,0,0:0:0:0:
320,192,89654,128,8,90556:2:0:0:0:
448,192,90556,1,0,2:0:0:0:
64,192,90782,1,0,0:0:0:0:
320,192,91007,1,8,2:0:0:0:
64,192,91233,1,0,0:0:0:0:
448,192,91458,1,8,2:0:0:0:
64,192,91684,1,0,0:0:0:0:
192,192,91909,1,8,2:0:0:0:
320,192,92135,1,0,0:0:0:0:
64,192,92361,1,0,2:0:0:0:
448,192,92361,1,4,0:0:0:0:
320,192,93037,1,0,0:0:0:0:
192,192,93263,1,0,2:0:0:0:
320,192,93714,1,8,2:0:0:0:
64,192,94165,1,8,2:0:0:0:
192,192,94391,1,8,2:0:0:0:
320,192,94616,1,8,2:0:0:0:
448,192,94842,1,0,0:0:0:0:
64,192,95067,1,0,0:0:0:0:
192,192,95293,1,0,0:0:0:0:
320,192,95518,1,0,0:0:0:0:
192,192,95744,1,0,0:0:0:0:
448,192,95970,128,0,97323:0:0:0:0:
64,192,95970,1,4,0:0:0:0:
64,192,97323,128,0,97774:0:0:0:0:
448,192,97774,128,0,98225:0:0:0:0:
192,192,98676,128,0,99353:0:0:0:0:
320,192,99353,1,0,0:0:0:0:
64,192,99579,1,8,2:0:0:0:
448,192,99804,1,8,2:0:0:0:
448,192,101383,1,8,2:0:0:0:
64,192,101609,1,8,2:0:0:0:
320,192,102060,1,0,0:0:0:0:
448,192,103188,1,8,2:0:0:0:
64,192,103639,1,8,2:0:0:0:
320,192,104090,1,8,2:0:0:0:
192,192,104541,1,8,2:0:0:0:
448,192,104992,128,8,105894:2:0:0:0:
64,192,105894,128,0,106346:0:0:0:0:
192,192,106346,128,8,106797:2:0:0:0:
320,192,106797,128,4,108827:0:0:0:0:
448,192,109052,128,8,109503:2:0:0:0:
320,192,109503,128,0,109955:2:0:0:0:
192,192,109955,128,8,110406:2:0:0:0:
64,192,110406,128,0,111082:2:0:0:0:
448,192,111082,128,0,111308:0:0:0:0:
192,192,111308,128,0,112661:2:0:0:0:
320,192,113112,1,0,2:0:0:0:
64,192,113338,1,0,2:0:0:0:
448,192,113564,1,8,2:0:0:0:
192,192,113789,1,8,2:0:0:0:
64,192,114015,1,4,0:0:0:0:
448,192,114015,1,0,2:0:0:0:
64,192,114691,1,0,2:0:0:0:
192,192,114917,128,0,115819:2:0:0:0:
448,192,115819,1,8,2:0:0:0:
64,192,116045,1,8,2:0:0:0:
448,192,116270,1,8,2:0:0:0:
192,192,116496,1,0,0:0:0:0:
448,192,116721,1,0,0:0:0:0:
64,192,116947,1,0,0:0:0:0:
320,192,117173,1,0,0:0:0:0:
192,192,117398,1,0,0:0:0:0:
448,192,117624,128,4,119203:1:0:0:0:
64,192,117624,1,0,0:0:0:0:
64,192,119428,5,0,2:3:0:0:
320,192,119428,1,4,0:0:0:0:
192,192,121233,1,0,2:3:0:0:
320,192,121233,1,4,0:0:0:0:
64,192,123037,128,0,126646:2:3:0:0:
448,192,123037,128,4,126646:0:0:0:0:
