osu file format v14

[General]
AudioFilename: audio.mp3
AudioLeadIn: 0
PreviewTime: 67386
Countdown: 0
SampleSet: Normal
StackLeniency: 0.7
Mode: 1
LetterboxInBreaks: 0
WidescreenStoryboard: 1

[Editor]
Bookmarks: 21614,49849,109849,198085
DistanceSpacing: 0.5
BeatDivisor: 4
GridSize: 32
TimelineZoom: 1.800001

[Metadata]
Title:Montage
TitleUnicode:モンタージュ
Artist:KAF
ArtistUnicode:花譜
Creator:tasuke912
Version:Muzukashii
Source:
Tags:uone Japanese rock vtuber kafu kahu Kanzaki Iori カンザキイオリ Mahou KAMITSUBAKI RECORD j-rock jrock virtual youtuber
BeatmapID:3166335
BeatmapSetID:1549374

[Difficulty]
HPDrainRate:6
CircleSize:2
OverallDifficulty:6
ApproachRate:5
SliderMultiplier:1.4
SliderTickRate:1

[Events]
//Background and Video events
0,0,"88617325_p0.jpg",0,0
//Break Periods
//Storyboard Layer 0 (Background)
//Storyboard Layer 1 (Fail)
//Storyboard Layer 2 (Pass)
//Storyboard Layer 3 (Foreground)
//Storyboard Layer 4 (Overlay)
//Storyboard Sound Samples

[TimingPoints]
435,220.588235294118,4,1,0,50,1,0
435,-133.333333333333,4,1,0,50,0,0
7493,-111.111111111111,4,1,0,80,0,0
21611,-153.846153846153,4,1,0,80,0,0
21721,-153.846153846153,4,1,0,70,0,0
35729,-133.333333333333,4,1,0,80,0,0
49901,-200,4,1,0,60,0,0
60434,-133.333333333333,4,1,0,70,0,0
65729,-100,4,1,0,80,0,0
66060,-89.2857142857143,4,1,0,80,0,0
66390,-80,4,1,0,80,0,0
66611,-142.857142857143,4,1,0,80,0,0
66832,-142.857142857143,4,1,0,60,0,0
67493,-111.111111111111,4,1,0,80,0,1
81611,-111.111111111111,4,1,0,80,0,0
95729,-133.333333333333,4,1,0,70,0,0
122199,-133.333333333333,4,1,0,80,0,0
123743,-111.111111111111,4,1,0,80,0,0
123964,-200,4,1,0,65,0,0
124019,-200,4,1,0,50,0,0
134442,-133.333333333333,4,1,0,70,0,0
139846,-100,4,1,0,80,0,0
140177,-89.2857142857143,4,1,0,80,0,0
140508,-80,4,1,0,80,0,0
140729,-142.857142857143,4,1,0,80,0,0
140949,-133.333333333333,4,1,0,80,0,0
141060,-129.032258064516,4,1,0,80,0,0
141170,-125,4,1,0,80,0,0
141280,-121.212121212121,4,1,0,80,0,0
141390,-117.647058823529,4,1,0,80,0,0
141611,-111.111111111111,4,1,0,80,0,1
155729,-111.111111111111,4,1,0,80,0,0
169957,-200,4,1,0,50,0,0
176795,-111.111111111111,4,1,0,80,0,0
183964,-111.111111111111,4,1,0,80,0,1
212199,-133.333333333333,4,1,0,80,0,0
224552,-111.111111111111,4,1,0,80,0,0

[HitObjects]
256,192,435,5,0,0:0:0:0:
256,192,876,1,2,0:0:0:0:
256,192,1317,1,0,0:0:0:0:
256,192,1648,1,0,0:0:0:0:
256,192,1758,1,2,0:0:0:0:
256,192,1979,1,2,0:0:0:0:
256,192,2420,1,0,0:0:0:0:
256,192,2640,1,2,0:0:0:0:
256,192,3082,1,0,0:0:0:0:
256,192,3192,1,0,0:0:0:0:
256,192,3412,1,0,0:0:0:0:
256,192,3523,1,2,0:0:0:0:
256,192,3743,1,2,0:0:0:0:
256,192,3964,1,0,0:0:0:0:
256,192,4405,1,2,0:0:0:0:
256,192,4846,1,0,0:0:0:0:
256,192,5177,1,0,0:0:0:0:
256,192,5287,1,2,0:0:0:0:
256,192,5508,1,2,0:0:0:0:
256,192,5729,1,2,0:0:0:0:
256,192,5802,1,2,0:0:0:0:
256,192,5876,1,2,0:0:0:0:
256,192,6170,1,2,0:0:0:0:
256,192,6390,1,2,0:0:0:0:
256,192,6611,1,0,0:0:0:0:
256,192,6832,1,2,0:0:0:0:
256,192,7052,1,2,0:0:0:0:
256,192,7162,1,0,0:0:0:0:
256,192,7493,1,4,0:0:0:0:
256,192,7714,1,2,0:0:0:0:
256,192,7935,1,0,0:0:0:0:
256,192,8045,1,0,0:0:0:0:
256,192,8155,1,2,0:0:0:0:
256,192,8376,1,0,0:0:0:0:
256,192,8486,1,2,0:0:0:0:
256,192,8707,1,0,0:0:0:0:
256,192,8927,1,2,0:0:0:0:
256,192,9037,1,0,0:0:0:0:
256,192,9258,1,0,0:0:0:0:
256,192,9479,1,2,0:0:0:0:
256,192,9699,1,0,0:0:0:0:
256,192,9810,1,0,0:0:0:0:
256,192,9920,1,2,0:0:0:0:
256,192,10140,1,2,0:0:0:0:
256,192,10251,1,0,0:0:0:0:
256,192,10471,1,2,0:0:0:0:
256,192,10692,1,2,0:0:0:0:
256,192,10802,1,0,0:0:0:0:
256,192,11023,1,0,0:0:0:0:
256,192,11243,1,2,0:0:0:0:
256,192,11464,1,0,0:0:0:0:
256,192,11574,1,0,0:0:0:0:
256,192,11685,1,2,0:0:0:0:
256,192,11905,1,0,0:0:0:0:
256,192,12015,1,2,0:0:0:0:
256,192,12236,1,0,0:0:0:0:
256,192,12457,1,2,0:0:0:0:
256,192,12567,1,0,0:0:0:0:
256,192,12787,1,0,0:0:0:0:
256,192,12898,1,2,0:0:0:0:
256,192,13118,1,2,0:0:0:0:
256,192,13229,1,0,0:0:0:0:
256,192,13339,1,0,0:0:0:0:
256,192,13449,1,2,0:0:0:0:
256,192,13670,1,2,0:0:0:0:
256,192,13890,1,0,0:0:0:0:
256,192,14111,1,2,0:0:0:0:
256,192,14221,1,2,0:0:0:0:
256,192,14552,1,4,0:0:0:0:
256,192,14773,1,2,0:0:0:0:
256,192,14993,1,0,0:0:0:0:
256,192,15104,1,0,0:0:0:0:
256,192,15214,1,2,0:0:0:0:
256,192,15435,1,0,0:0:0:0:
256,192,15545,1,2,0:0:0:0:
256,192,15765,1,2,0:0:0:0:
256,192,15876,1,0,0:0:0:0:
256,192,15986,1,0,0:0:0:0:
256,192,16096,1,2,0:0:0:0:
256,192,16317,1,0,0:0:0:0:
256,192,16537,1,2,0:0:0:0:
256,192,16758,1,0,0:0:0:0:
256,192,16868,1,0,0:0:0:0:
256,192,16979,1,2,0:0:0:0:
256,192,17199,1,2,0:0:0:0:
256,192,17310,1,0,0:0:0:0:
256,192,17530,1,2,0:0:0:0:
256,192,17751,1,2,0:0:0:0:
256,192,17861,1,0,0:0:0:0:
256,192,18082,1,0,0:0:0:0:
256,192,18302,1,2,0:0:0:0:
256,192,18523,1,0,0:0:0:0:
256,192,18633,1,0,0:0:0:0:
256,192,18743,1,2,0:0:0:0:
256,192,18964,1,0,0:0:0:0:
256,192,19074,1,2,0:0:0:0:
256,192,19295,1,0,0:0:0:0:
256,192,19515,1,2,0:0:0:0:
256,192,19626,1,0,0:0:0:0:
256,192,19846,1,0,0:0:0:0:
256,192,19957,1,2,0:0:0:0:
256,192,20177,1,2,0:0:0:0:
256,192,20287,1,0,0:0:0:0:
256,192,20398,1,0,0:0:0:0:
256,192,20508,1,2,0:0:0:0:
256,192,20729,1,2,0:0:0:0:
256,192,20839,1,2,0:0:0:0:
256,192,20949,1,0,0:0:0:0:
256,192,21170,1,2,0:0:0:0:
256,192,21280,1,0,0:0:0:0:
256,192,21611,5,0,0:0:0:0:
256,192,22052,1,2,0:0:0:0:
256,192,22493,1,0,0:0:0:0:
256,192,22824,1,0,0:0:0:0:
256,192,22935,1,2,0:0:0:0:
256,192,23155,1,2,0:0:0:0:
256,192,23596,1,0,0:0:0:0:
256,192,23817,1,2,0:0:0:0:
256,192,24258,1,0,0:0:0:0:
256,192,24589,1,0,0:0:0:0:
256,192,24699,1,2,0:0:0:0:
256,192,24920,1,2,0:0:0:0:
256,192,25140,1,0,0:0:0:0:
256,192,25251,1,2,0:0:0:0:
256,192,25582,1,2,0:0:0:0:
256,192,25802,1,2,0:0:0:0:
256,192,26023,1,0,0:0:0:0:
256,192,26243,1,2,0:0:0:0:
256,192,26464,1,2,0:0:0:0:
256,192,26574,1,2,0:0:0:0:
256,192,26905,1,0,0:0:0:0:
256,192,27126,1,2,0:0:0:0:
256,192,27236,1,2,0:0:0:0:
256,192,27346,1,0,0:0:0:0:
256,192,27567,1,2,0:0:0:0:
256,192,27787,1,2,0:0:0:0:
256,192,28118,1,0,0:0:0:0:
256,192,28229,1,2,0:0:0:0:
256,192,28449,1,2,0:0:0:0:
256,192,28670,1,0,0:0:0:0:
256,192,29111,1,2,0:0:0:0:
256,192,29552,1,0,0:0:0:0:
256,192,29883,1,0,0:0:0:0:
256,192,29993,1,2,0:0:0:0:
256,192,30214,1,0,0:0:0:0:
256,192,30435,1,2,0:0:0:0:
256,192,30655,1,2,0:0:0:0:
256,192,30876,1,0,0:0:0:0:
256,192,31317,1,0,0:0:0:0:
256,192,31427,1,0,0:0:0:0:
256,192,31648,1,0,0:0:0:0:
256,192,31758,1,2,0:0:0:0:
256,192,31979,1,2,0:0:0:0:
256,192,32199,1,0,0:0:0:0:
256,192,32420,1,2,0:0:0:0:
256,192,32640,1,0,0:0:0:0:
256,192,32751,1,2,0:0:0:0:
256,192,32971,1,2,0:0:0:0:
256,192,33302,1,2,0:0:0:0:
256,192,33523,1,0,0:0:0:0:
256,192,33743,1,2,0:0:0:0:
256,192,33964,1,0,0:0:0:0:
256,192,34405,1,2,0:0:0:0:
256,192,34626,1,2,0:0:0:0:
256,192,34846,1,0,0:0:0:0:
256,192,35177,1,2,0:0:0:0:
256,192,35508,1,2,0:0:0:0:
256,192,35729,1,4,0:0:0:0:
256,192,35949,1,0,0:0:0:0:
256,192,36060,1,0,0:0:0:0:
256,192,36170,1,2,0:0:0:0:
256,192,36390,1,0,0:0:0:0:
256,192,36611,1,0,0:0:0:0:
256,192,36721,1,2,0:0:0:0:
256,192,36942,1,2,0:0:0:0:
256,192,37273,1,2,0:0:0:0:
256,192,37493,1,0,0:0:0:0:
256,192,37714,1,2,0:0:0:0:
256,192,37935,1,2,0:0:0:0:
256,192,38045,1,2,0:0:0:0:
256,192,38155,1,0,0:0:0:0:
256,192,38376,1,2,0:0:0:0:
256,192,38486,1,2,0:0:0:0:
256,192,38707,1,0,0:0:0:0:
256,192,39037,1,2,0:0:0:0:
256,192,39258,1,0,0:0:0:0:
256,192,39479,1,2,0:0:0:0:
256,192,39699,1,0,0:0:0:0:
256,192,39920,1,0,0:0:0:0:
256,192,40030,1,0,0:0:0:0:
256,192,40140,1,2,0:0:0:0:
256,192,40361,1,2,0:0:0:0:
256,192,40471,1,0,0:0:0:0:
256,192,40802,1,2,0:0:0:0:
256,192,41023,1,0,0:0:0:0:
256,192,41133,1,2,0:0:0:0:
256,192,41243,1,0,0:0:0:0:
256,192,41464,1,2,0:0:0:0:
256,192,41574,1,0,0:0:0:0:
256,192,41685,1,2,0:0:0:0:
256,192,41905,1,0,0:0:0:0:
256,192,42126,1,2,0:0:0:0:
256,192,42236,1,2,0:0:0:0:
256,192,42346,1,2,0:0:0:0:
256,192,42567,1,2,0:0:0:0:
256,192,42787,1,4,0:0:0:0:
256,192,43008,1,2,0:0:0:0:
256,192,43229,1,0,0:0:0:0:
256,192,43339,1,0,0:0:0:0:
256,192,43449,1,2,0:0:0:0:
256,192,43670,1,0,0:0:0:0:
256,192,43780,1,2,0:0:0:0:
256,192,44001,1,0,0:0:0:0:
256,192,44332,1,2,0:0:0:0:
256,192,44552,1,0,0:0:0:0:
256,192,44773,1,2,0:0:0:0:
256,192,44993,1,2,0:0:0:0:
256,192,45104,1,2,0:0:0:0:
256,192,45214,1,0,0:0:0:0:
256,192,45435,1,2,0:0:0:0:
256,192,45545,1,2,0:0:0:0:
256,192,45765,1,0,0:0:0:0:
256,192,46096,1,2,0:0:0:0:
256,192,46317,1,0,0:0:0:0:
256,192,46537,1,2,0:0:0:0:
256,192,46758,1,0,0:0:0:0:
256,192,46868,1,0,0:0:0:0:
256,192,46979,1,2,0:0:0:0:
256,192,47199,1,0,0:0:0:0:
256,192,47420,1,2,0:0:0:0:
256,192,47640,1,0,0:0:0:0:
256,192,47751,1,2,0:0:0:0:
256,192,47861,1,2,0:0:0:0:
256,192,48082,1,4,0:0:0:0:
256,192,48412,1,4,0:0:0:0:
256,192,48743,1,6,0:0:0:0:
256,192,48964,1,2,0:0:0:0:
256,192,49074,1,2,0:0:0:0:
256,192,49185,1,2,0:0:0:0:
256,192,49295,1,2,0:0:0:0:
256,192,49405,1,0,0:0:0:0:
256,192,49515,1,0,0:0:0:0:
256,192,49626,1,0,0:0:0:0:
256,192,49846,1,2,0:0:0:0:
256,192,50729,1,2,0:0:0:0:
256,192,50949,1,2,0:0:0:0:
256,192,51170,1,2,0:0:0:0:
256,192,51280,1,2,0:0:0:0:
256,192,51390,1,2,0:0:0:0:
256,192,51611,1,2,0:0:0:0:
256,192,52273,1,2,0:0:0:0:
256,192,52714,1,2,0:0:0:0:
256,192,53155,1,2,0:0:0:0:
256,192,53376,1,2,0:0:0:0:
256,192,54258,1,2,0:0:0:0:
256,192,54479,1,2,0:0:0:0:
256,192,54810,1,2,0:0:0:0:
256,192,55030,1,2,0:0:0:0:
256,192,55140,1,2,0:0:0:0:
256,192,55361,1,2,0:0:0:0:
256,192,55802,1,2,0:0:0:0:
256,192,56023,1,2,0:0:0:0:
256,192,56464,1,2,0:0:0:0:
256,192,56905,1,0,0:0:0:0:
256,192,57126,1,2,0:0:0:0:
256,192,57236,1,2,0:0:0:0:
256,192,57457,1,2,0:0:0:0:
256,192,57787,1,2,0:0:0:0:
256,192,58229,1,2,0:0:0:0:
256,192,58449,1,2,0:0:0:0:
256,192,58670,1,0,0:0:0:0:
256,192,59001,1,2,0:0:0:0:
256,192,59221,1,2,0:0:0:0:
256,192,59442,1,2,0:0:0:0:
256,192,59662,1,2,0:0:0:0:
256,192,59993,1,2,0:0:0:0:
256,192,60435,5,4,0:0:0:0:
256,192,60876,1,2,0:0:0:0:
256,192,61207,1,0,0:0:0:0:
256,192,61427,1,2,0:0:0:0:
256,192,61537,1,0,0:0:0:0:
256,192,61758,1,2,0:0:0:0:
256,192,62199,1,0,0:0:0:0:
256,192,62420,1,0,0:0:0:0:
256,192,62640,1,2,0:0:0:0:
256,192,62971,1,0,0:0:0:0:
256,192,63192,1,2,0:0:0:0:
256,192,63302,1,0,0:0:0:0:
256,192,63523,1,2,0:0:0:0:
256,192,63964,1,0,0:0:0:0:
256,192,64405,1,2,0:0:0:0:
256,192,64626,1,0,0:0:0:0:
256,192,64736,1,2,0:0:0:0:
256,192,64957,1,2,0:0:0:0:
256,192,65067,1,0,0:0:0:0:
256,192,65287,1,2,0:0:0:0:
256,192,65508,1,0,0:0:0:0:
256,192,65729,1,6,0:0:0:0:
256,192,66060,1,6,0:0:0:0:
256,192,66390,1,4,0:0:0:0:
256,192,66832,12,14,67383,0:0:0:0:
256,192,67493,5,4,0:0:0:0:
256,192,67714,1,2,0:0:0:0:
256,192,67935,1,0,0:0:0:0:
256,192,68045,1,0,0:0:0:0:
256,192,68155,1,2,0:0:0:0:
256,192,68265,1,0,0:0:0:0:
256,192,68486,1,0,0:0:0:0:
256,192,68596,1,2,0:0:0:0:
256,192,68817,1,0,0:0:0:0:
256,192,68927,1,0,0:0:0:0:
256,192,69037,1,2,0:0:0:0:
256,192,69258,1,0,0:0:0:0:
256,192,69479,1,0,0:0:0:0:
256,192,69699,1,2,0:0:0:0:
256,192,69920,1,0,0:0:0:0:
256,192,70030,1,2,0:0:0:0:
256,192,70251,1,0,0:0:0:0:
256,192,70361,1,2,0:0:0:0:
256,192,70582,1,0,0:0:0:0:
256,192,71023,1,0,0:0:0:0:
256,192,71243,1,2,0:0:0:0:
256,192,71464,1,0,0:0:0:0:
256,192,71574,1,0,0:0:0:0:
256,192,71685,1,2,0:0:0:0:
256,192,71905,1,2,0:0:0:0:
256,192,72015,1,2,0:0:0:0:
256,192,72126,1,0,0:0:0:0:
256,192,72346,1,0,0:0:0:0:
256,192,72567,1,2,0:0:0:0:
256,192,72787,1,0,0:0:0:0:
256,192,72898,1,2,0:0:0:0:
256,192,73008,1,0,0:0:0:0:
256,192,73229,1,2,0:0:0:0:
256,192,73339,1,2,0:0:0:0:
256,192,73449,1,0,0:0:0:0:
256,192,73670,1,0,0:0:0:0:
256,192,73890,1,2,0:0:0:0:
256,192,74001,1,2,0:0:0:0:
256,192,74111,1,2,0:0:0:0:
256,192,74221,1,2,0:0:0:0:
256,192,74332,1,0,0:0:0:0:
256,192,74552,1,4,0:0:0:0:
256,192,74883,1,4,0:0:0:0:
256,192,75214,1,6,0:0:0:0:
256,192,75435,1,0,0:0:0:0:
256,192,75545,1,0,0:0:0:0:
256,192,75655,1,0,0:0:0:0:
256,192,75765,1,0,0:0:0:0:
256,192,75876,1,2,0:0:0:0:
256,192,76096,1,0,0:0:0:0:
256,192,76317,1,6,0:0:0:0:
256,192,76648,1,6,0:0:0:0:
256,192,76979,1,4,0:0:0:0:
256,192,77199,1,2,0:0:0:0:
256,192,77310,1,2,0:0:0:0:
256,192,77420,1,2,0:0:0:0:
256,192,77530,1,2,0:0:0:0:
256,192,77640,1,0,0:0:0:0:
256,192,77861,1,2,0:0:0:0:
256,192,78082,1,4,0:0:0:0:
256,192,78302,1,2,0:0:0:0:
256,192,78523,1,0,0:0:0:0:
256,192,78743,1,2,0:0:0:0:
256,192,78854,1,0,0:0:0:0:
256,192,79074,1,0,0:0:0:0:
256,192,79185,1,2,0:0:0:0:
256,192,79405,1,0,0:0:0:0:
256,192,79515,1,0,0:0:0:0:
256,192,79626,1,2,0:0:0:0:
256,192,79846,1,0,0:0:0:0:
256,192,80067,1,2,0:0:0:0:
256,192,80177,1,2,0:0:0:0:
256,192,80287,1,0,0:0:0:0:
256,192,80398,1,0,0:0:0:0:
256,192,80508,1,0,0:0:0:0:
256,192,80729,1,4,0:0:0:0:
256,192,80949,1,6,0:0:0:0:
256,192,81170,1,6,0:0:0:0:
256,192,81611,1,4,0:0:0:0:
256,192,81832,1,2,0:0:0:0:
256,192,82052,1,0,0:0:0:0:
256,192,82162,1,0,0:0:0:0:
256,192,82273,1,2,0:0:0:0:
256,192,82493,1,0,0:0:0:0:
256,192,82604,1,2,0:0:0:0:
256,192,82824,1,0,0:0:0:0:
256,192,83045,1,2,0:0:0:0:
256,192,83155,1,0,0:0:0:0:
256,192,83376,1,0,0:0:0:0:
256,192,83596,1,2,0:0:0:0:
256,192,83817,1,0,0:0:0:0:
256,192,83927,1,0,0:0:0:0:
256,192,84037,1,2,0:0:0:0:
256,192,84258,1,2,0:0:0:0:
256,192,84368,1,0,0:0:0:0:
256,192,84589,1,2,0:0:0:0:
256,192,84810,1,2,0:0:0:0:
256,192,84920,1,0,0:0:0:0:
256,192,85140,1,0,0:0:0:0:
256,192,85361,1,2,0:0:0:0:
256,192,85582,1,0,0:0:0:0:
256,192,85692,1,0,0:0:0:0:
256,192,85802,1,2,0:0:0:0:
256,192,86023,1,0,0:0:0:0:
256,192,86133,1,2,0:0:0:0:
256,192,86354,1,0,0:0:0:0:
256,192,86574,1,2,0:0:0:0:
256,192,86685,1,0,0:0:0:0:
256,192,86905,1,0,0:0:0:0:
256,192,87015,1,2,0:0:0:0:
256,192,87126,1,0,0:0:0:0:
256,192,87236,1,2,0:0:0:0:
256,192,87346,1,0,0:0:0:0:
256,192,87567,1,2,0:0:0:0:
256,192,87787,1,0,0:0:0:0:
256,192,88008,1,2,0:0:0:0:
256,192,88118,1,2,0:0:0:0:
256,192,88229,1,2,0:0:0:0:
256,192,88339,1,2,0:0:0:0:
256,192,88449,1,2,0:0:0:0:
256,192,88670,1,4,0:0:0:0:
256,192,88890,1,2,0:0:0:0:
256,192,89111,1,0,0:0:0:0:
256,192,89221,1,0,0:0:0:0:
256,192,89332,1,2,0:0:0:0:
256,192,89552,1,0,0:0:0:0:
256,192,89662,1,2,0:0:0:0:
256,192,89883,1,2,0:0:0:0:
256,192,89993,1,0,0:0:0:0:
256,192,90104,1,0,0:0:0:0:
256,192,90214,1,2,0:0:0:0:
256,192,90435,1,0,0:0:0:0:
256,192,90655,1,2,0:0:0:0:
256,192,90876,1,0,0:0:0:0:
256,192,90986,1,0,0:0:0:0:
256,192,91096,1,2,0:0:0:0:
256,192,91317,1,2,0:0:0:0:
256,192,91427,1,0,0:0:0:0:
256,192,91648,1,2,0:0:0:0:
256,192,91868,1,2,0:0:0:0:
256,192,91979,1,0,0:0:0:0:
256,192,92199,1,0,0:0:0:0:
256,192,92420,1,2,0:0:0:0:
256,192,92640,1,0,0:0:0:0:
256,192,92751,1,0,0:0:0:0:
256,192,92861,1,2,0:0:0:0:
256,192,93082,1,0,0:0:0:0:
256,192,93192,1,2,0:0:0:0:
256,192,93412,1,0,0:0:0:0:
256,192,93633,1,2,0:0:0:0:
256,192,93743,1,0,0:0:0:0:
256,192,93964,1,0,0:0:0:0:
256,192,94074,1,2,0:0:0:0:
256,192,94295,1,2,0:0:0:0:
256,192,94405,1,0,0:0:0:0:
256,192,94515,1,0,0:0:0:0:
256,192,94626,1,2,0:0:0:0:
256,192,94846,1,2,0:0:0:0:
256,192,94957,1,2,0:0:0:0:
256,192,95067,1,0,0:0:0:0:
256,192,95287,1,2,0:0:0:0:
256,192,95729,1,4,0:0:0:0:
256,192,96170,1,2,0:0:0:0:
256,192,96501,1,0,0:0:0:0:
256,192,96721,1,2,0:0:0:0:
256,192,96832,1,0,0:0:0:0:
256,192,97052,1,2,0:0:0:0:
256,192,97273,1,2,0:0:0:0:
256,192,97493,1,0,0:0:0:0:
256,192,97935,1,2,0:0:0:0:
256,192,98265,1,0,0:0:0:0:
256,192,98486,1,2,0:0:0:0:
256,192,98596,1,0,0:0:0:0:
256,192,98817,1,2,0:0:0:0:
256,192,98927,1,0,0:0:0:0:
256,192,99037,1,2,0:0:0:0:
256,192,99258,1,0,0:0:0:0:
256,192,99699,1,2,0:0:0:0:
256,192,100030,1,0,0:0:0:0:
256,192,100251,1,2,0:0:0:0:
256,192,100361,1,0,0:0:0:0:
256,192,100582,1,2,0:0:0:0:
256,192,100802,1,2,0:0:0:0:
256,192,101023,1,0,0:0:0:0:
256,192,101464,1,2,0:0:0:0:
256,192,101685,1,0,0:0:0:0:
256,192,101795,1,2,0:0:0:0:
256,192,102015,1,2,0:0:0:0:
256,192,102126,1,0,0:0:0:0:
256,192,102346,1,2,0:0:0:0:
256,192,102567,1,2,0:0:0:0:
256,192,102787,1,0,0:0:0:0:
256,192,103229,1,2,0:0:0:0:
256,192,103560,1,0,0:0:0:0:
256,192,103780,1,2,0:0:0:0:
256,192,103890,1,0,0:0:0:0:
256,192,104111,1,2,0:0:0:0:
256,192,104332,1,0,0:0:0:0:
256,192,104552,1,2,0:0:0:0:
256,192,104773,1,2,0:0:0:0:
256,192,104993,1,0,0:0:0:0:
256,192,105324,1,2,0:0:0:0:
256,192,105545,1,2,0:0:0:0:
256,192,105655,1,0,0:0:0:0:
256,192,105876,1,2,0:0:0:0:
256,192,105986,1,2,0:0:0:0:
256,192,106096,1,0,0:0:0:0:
256,192,106537,1,2,0:0:0:0:
256,192,106648,1,2,0:0:0:0:
256,192,106758,1,2,0:0:0:0:
256,192,106868,1,2,0:0:0:0:
256,192,106979,1,2,0:0:0:0:
256,192,107199,1,2,0:0:0:0:
256,192,107420,1,2,0:0:0:0:
256,192,107530,1,2,0:0:0:0:
256,192,107751,1,2,0:0:0:0:
256,192,107861,1,2,0:0:0:0:
256,192,108302,1,0,0:0:0:0:
256,192,108412,1,0,0:0:0:0:
256,192,108523,1,0,0:0:0:0:
256,192,108633,1,0,0:0:0:0:
256,192,108743,1,0,0:0:0:0:
256,192,108964,1,0,0:0:0:0:
256,192,109185,1,0,0:0:0:0:
256,192,109405,1,2,0:0:0:0:
256,192,109846,5,4,0:0:0:0:
256,192,110287,1,2,0:0:0:0:
256,192,110508,1,0,0:0:0:0:
256,192,110729,1,2,0:0:0:0:
256,192,110949,1,0,0:0:0:0:
256,192,111060,1,2,0:0:0:0:
256,192,111280,1,0,0:0:0:0:
256,192,111390,1,0,0:0:0:0:
256,192,111832,1,2,0:0:0:0:
256,192,112052,1,0,0:0:0:0:
256,192,112273,1,0,0:0:0:0:
256,192,112493,1,2,0:0:0:0:
256,192,112714,1,0,0:0:0:0:
256,192,112824,1,2,0:0:0:0:
256,192,113045,1,0,0:0:0:0:
256,192,113155,1,0,0:0:0:0:
256,192,113596,1,0,0:0:0:0:
256,192,113707,1,0,0:0:0:0:
256,192,113817,1,2,0:0:0:0:
256,192,114037,1,0,0:0:0:0:
256,192,114258,1,2,0:0:0:0:
256,192,114479,1,0,0:0:0:0:
256,192,114699,1,2,0:0:0:0:
256,192,114920,1,2,0:0:0:0:
256,192,115140,1,0,0:0:0:0:
256,192,115361,1,0,0:0:0:0:
256,192,115582,1,2,0:0:0:0:
256,192,115802,1,0,0:0:0:0:
256,192,116023,1,2,0:0:0:0:
256,192,116243,1,2,0:0:0:0:
256,192,116464,1,2,0:0:0:0:
256,192,116685,1,0,0:0:0:0:
256,192,117126,1,0,0:0:0:0:
256,192,117346,1,2,0:0:0:0:
256,192,117567,1,2,0:0:0:0:
256,192,117677,1,0,0:0:0:0:
256,192,117898,1,0,0:0:0:0:
256,192,118008,1,2,0:0:0:0:
256,192,118229,1,2,0:0:0:0:
256,192,118449,1,0,0:0:0:0:
256,192,118670,1,2,0:0:0:0:
256,192,118890,1,2,0:0:0:0:
256,192,119111,1,2,0:0:0:0:
256,192,119552,1,2,0:0:0:0:
256,192,119773,1,0,0:0:0:0:
256,192,120214,1,2,0:0:0:0:
256,192,120435,1,0,0:0:0:0:
256,192,120655,1,0,0:0:0:0:
256,192,120876,1,2,0:0:0:0:
256,192,121096,1,2,0:0:0:0:
256,192,121207,1,0,0:0:0:0:
256,192,121427,1,0,0:0:0:0:
256,192,121537,1,2,0:0:0:0:
256,192,121758,1,2,0:0:0:0:
256,192,121979,1,2,0:0:0:0:
256,192,122199,1,4,0:0:0:0:
256,192,122420,1,2,0:0:0:0:
256,192,122530,1,2,0:0:0:0:
256,192,122640,1,2,0:0:0:0:
256,192,122751,1,2,0:0:0:0:
256,192,122861,1,2,0:0:0:0:
256,192,123082,1,0,0:0:0:0:
256,192,123155,1,0,0:0:0:0:
256,192,123229,1,0,0:0:0:0:
256,192,123302,1,0,0:0:0:0:
256,192,123523,1,2,0:0:0:0:
256,192,123964,1,0,0:0:0:0:
256,192,124846,1,2,0:0:0:0:
256,192,125067,1,2,0:0:0:0:
256,192,125287,1,2,0:0:0:0:
256,192,125398,1,2,0:0:0:0:
256,192,125508,1,2,0:0:0:0:
256,192,125729,1,2,0:0:0:0:
256,192,126390,1,2,0:0:0:0:
256,192,126832,1,2,0:0:0:0:
256,192,127273,1,2,0:0:0:0:
256,192,127493,1,2,0:0:0:0:
256,192,128376,1,2,0:0:0:0:
256,192,128596,1,2,0:0:0:0:
256,192,128927,1,2,0:0:0:0:
256,192,129258,1,2,0:0:0:0:
256,192,129479,1,2,0:0:0:0:
256,192,130140,1,2,0:0:0:0:
256,192,130361,1,2,0:0:0:0:
256,192,130582,1,2,0:0:0:0:
256,192,131023,1,0,0:0:0:0:
256,192,131354,1,2,0:0:0:0:
256,192,131574,1,2,0:0:0:0:
256,192,131905,1,2,0:0:0:0:
256,192,132346,1,2,0:0:0:0:
256,192,132567,1,2,0:0:0:0:
256,192,132787,1,0,0:0:0:0:
256,192,133118,1,2,0:0:0:0:
256,192,133339,1,2,0:0:0:0:
256,192,133560,1,2,0:0:0:0:
256,192,133780,1,2,0:0:0:0:
256,192,134111,1,2,0:0:0:0:
256,192,134552,5,4,0:0:0:0:
256,192,134993,1,2,0:0:0:0:
256,192,135324,1,0,0:0:0:0:
256,192,135545,1,2,0:0:0:0:
256,192,135655,1,0,0:0:0:0:
256,192,135876,1,2,0:0:0:0:
256,192,136317,1,0,0:0:0:0:
256,192,136537,1,0,0:0:0:0:
256,192,136758,1,2,0:0:0:0:
256,192,137089,1,0,0:0:0:0:
256,192,137310,1,2,0:0:0:0:
256,192,137420,1,0,0:0:0:0:
256,192,137640,1,2,0:0:0:0:
256,192,138082,1,0,0:0:0:0:
256,192,138523,1,2,0:0:0:0:
256,192,138743,1,0,0:0:0:0:
256,192,138854,1,2,0:0:0:0:
256,192,139074,1,2,0:0:0:0:
256,192,139185,1,0,0:0:0:0:
256,192,139405,1,2,0:0:0:0:
256,192,139626,1,0,0:0:0:0:
256,192,139846,1,6,0:0:0:0:
256,192,140177,1,6,0:0:0:0:
256,192,140508,1,4,0:0:0:0:
256,192,140949,1,0,0:0:0:0:
256,192,141060,1,0,0:0:0:0:
256,192,141170,1,0,0:0:0:0:
256,192,141280,1,0,0:0:0:0:
256,192,141390,1,0,0:0:0:0:
256,192,141611,5,4,0:0:0:0:
256,192,141832,1,2,0:0:0:0:
256,192,142052,1,0,0:0:0:0:
256,192,142162,1,0,0:0:0:0:
256,192,142273,1,2,0:0:0:0:
256,192,142383,1,0,0:0:0:0:
256,192,142604,1,0,0:0:0:0:
256,192,142714,1,2,0:0:0:0:
256,192,142935,1,0,0:0:0:0:
256,192,143045,1,0,0:0:0:0:
256,192,143155,1,2,0:0:0:0:
256,192,143376,1,0,0:0:0:0:
256,192,143596,1,0,0:0:0:0:
256,192,143817,1,2,0:0:0:0:
256,192,144037,1,0,0:0:0:0:
256,192,144148,1,2,0:0:0:0:
256,192,144368,1,0,0:0:0:0:
256,192,144479,1,2,0:0:0:0:
256,192,144699,1,0,0:0:0:0:
256,192,145140,1,0,0:0:0:0:
256,192,145361,1,2,0:0:0:0:
256,192,145582,1,0,0:0:0:0:
256,192,145692,1,0,0:0:0:0:
256,192,145802,1,2,0:0:0:0:
256,192,146023,1,2,0:0:0:0:
256,192,146243,1,0,0:0:0:0:
256,192,146354,1,2,0:0:0:0:
256,192,146574,1,0,0:0:0:0:
256,192,146685,1,0,0:0:0:0:
256,192,146905,1,2,0:0:0:0:
256,192,147015,1,2,0:0:0:0:
256,192,147126,1,0,0:0:0:0:
256,192,147236,1,0,0:0:0:0:
256,192,147346,1,2,0:0:0:0:
256,192,147567,1,0,0:0:0:0:
256,192,147787,1,2,0:0:0:0:
256,192,148008,1,2,0:0:0:0:
256,192,148118,1,2,0:0:0:0:
256,192,148229,1,2,0:0:0:0:
256,192,148339,1,2,0:0:0:0:
256,192,148449,1,0,0:0:0:0:
256,192,148670,1,4,0:0:0:0:
256,192,149001,1,4,0:0:0:0:
256,192,149332,1,6,0:0:0:0:
256,192,149552,1,0,0:0:0:0:
256,192,149662,1,2,0:0:0:0:
256,192,149773,1,0,0:0:0:0:
256,192,149883,1,0,0:0:0:0:
256,192,149993,1,2,0:0:0:0:
256,192,150214,1,0,0:0:0:0:
256,192,150435,1,6,0:0:0:0:
256,192,150765,1,6,0:0:0:0:
256,192,151096,1,4,0:0:0:0:
256,192,151317,1,2,0:0:0:0:
256,192,151427,1,0,0:0:0:0:
256,192,151537,1,2,0:0:0:0:
256,192,151648,1,2,0:0:0:0:
256,192,151758,1,0,0:0:0:0:
256,192,151979,1,2,0:0:0:0:
256,192,152199,1,4,0:0:0:0:
256,192,152420,1,2,0:0:0:0:
256,192,152640,1,0,0:0:0:0:
256,192,152751,1,0,0:0:0:0:
256,192,152861,1,2,0:0:0:0:
256,192,152971,1,0,0:0:0:0:
256,192,153192,1,0,0:0:0:0:
256,192,153302,1,2,0:0:0:0:
256,192,153523,1,0,0:0:0:0:
256,192,153633,1,0,0:0:0:0:
256,192,153743,1,2,0:0:0:0:
256,192,153964,1,0,0:0:0:0:
256,192,154185,1,2,0:0:0:0:
256,192,154295,1,2,0:0:0:0:
256,192,154405,1,0,0:0:0:0:
256,192,154515,1,0,0:0:0:0:
256,192,154626,1,0,0:0:0:0:
256,192,154846,1,4,0:0:0:0:
256,192,155067,1,6,0:0:0:0:
256,192,155287,1,6,0:0:0:0:
256,192,155729,5,4,0:0:0:0:
256,192,155949,1,2,0:0:0:0:
256,192,156170,1,0,0:0:0:0:
256,192,156390,1,2,0:0:0:0:
256,192,156501,1,0,0:0:0:0:
256,192,156721,1,0,0:0:0:0:
256,192,156832,1,2,0:0:0:0:
256,192,157052,1,2,0:0:0:0:
256,192,157162,1,2,0:0:0:0:
256,192,157273,1,0,0:0:0:0:
256,192,157493,1,0,0:0:0:0:
256,192,157714,1,0,0:0:0:0:
256,192,157824,1,2,0:0:0:0:
256,192,158045,1,2,0:0:0:0:
256,192,158265,1,2,0:0:0:0:
256,192,158376,1,0,0:0:0:0:
256,192,158486,1,0,0:0:0:0:
256,192,158596,1,2,0:0:0:0:
256,192,158817,1,2,0:0:0:0:
256,192,159037,1,2,0:0:0:0:
256,192,159258,1,0,0:0:0:0:
256,192,159479,1,2,0:0:0:0:
256,192,159589,1,2,0:0:0:0:
256,192,159699,1,0,0:0:0:0:
256,192,159810,1,2,0:0:0:0:
256,192,160140,1,0,0:0:0:0:
256,192,160251,1,0,0:0:0:0:
256,192,160361,1,2,0:0:0:0:
256,192,160582,1,2,0:0:0:0:
256,192,160692,1,2,0:0:0:0:
256,192,160802,1,0,0:0:0:0:
256,192,161023,1,0,0:0:0:0:
256,192,161243,1,0,0:0:0:0:
256,192,161354,1,0,0:0:0:0:
256,192,161464,1,2,0:0:0:0:
256,192,161574,1,2,0:0:0:0:
256,192,161685,1,0,0:0:0:0:
256,192,161905,1,0,0:0:0:0:
256,192,162126,1,2,0:0:0:0:
256,192,162346,1,2,0:0:0:0:
256,192,162457,1,2,0:0:0:0:
256,192,162567,1,2,0:0:0:0:
256,192,162787,1,4,0:0:0:0:
256,192,163118,1,4,0:0:0:0:
256,192,163449,1,6,0:0:0:0:
256,192,163670,1,2,0:0:0:0:
256,192,163780,1,2,0:0:0:0:
256,192,163890,1,0,0:0:0:0:
256,192,164001,1,0,0:0:0:0:
256,192,164111,1,2,0:0:0:0:
256,192,164332,1,0,0:0:0:0:
256,192,164552,1,6,0:0:0:0:
256,192,164883,1,6,0:0:0:0:
256,192,165214,1,4,0:0:0:0:
256,192,165435,1,0,0:0:0:0:
256,192,165545,1,0,0:0:0:0:
256,192,165655,1,2,0:0:0:0:
256,192,165765,1,2,0:0:0:0:
256,192,165876,1,0,0:0:0:0:
256,192,166096,1,2,0:0:0:0:
256,192,166317,1,0,0:0:0:0:
256,192,166537,1,2,0:0:0:0:
256,192,166648,1,2,0:0:0:0:
256,192,166758,1,2,0:0:0:0:
256,192,166868,1,2,0:0:0:0:
256,192,166979,1,2,0:0:0:0:
256,192,167199,1,2,0:0:0:0:
256,192,167310,1,2,0:0:0:0:
256,192,167420,1,2,0:0:0:0:
256,192,167530,1,2,0:0:0:0:
256,192,167640,1,2,0:0:0:0:
256,192,167861,1,2,0:0:0:0:
256,192,168082,1,0,0:0:0:0:
256,192,168302,1,2,0:0:0:0:
256,192,168412,1,2,0:0:0:0:
256,192,168523,1,0,0:0:0:0:
256,192,168633,1,2,0:0:0:0:
256,192,168743,1,2,0:0:0:0:
256,192,168964,1,0,0:0:0:0:
256,192,169074,1,0,0:0:0:0:
256,192,169185,1,2,0:0:0:0:
256,192,169295,1,2,0:0:0:0:
256,192,169405,1,0,0:0:0:0:
256,192,169515,1,2,0:0:0:0:
256,192,169626,1,2,0:0:0:0:
256,192,169736,1,2,0:0:0:0:
256,192,169846,5,0,0:0:0:0:
256,192,170729,1,2,0:0:0:0:
256,192,170949,1,2,0:0:0:0:
256,192,171060,1,2,0:0:0:0:
256,192,171170,1,2,0:0:0:0:
256,192,171390,1,2,0:0:0:0:
256,192,171611,1,2,0:0:0:0:
256,192,172273,1,2,0:0:0:0:
256,192,172714,1,2,0:0:0:0:
256,192,173155,1,2,0:0:0:0:
256,192,173376,1,2,0:0:0:0:
256,192,174258,1,2,0:0:0:0:
256,192,174479,1,2,0:0:0:0:
256,192,174810,1,2,0:0:0:0:
256,192,175030,1,2,0:0:0:0:
256,192,175140,1,2,0:0:0:0:
256,192,175361,1,2,0:0:0:0:
256,192,175802,1,2,0:0:0:0:
256,192,176023,1,2,0:0:0:0:
256,192,176464,1,2,0:0:0:0:
256,192,176685,1,2,0:0:0:0:
256,192,176905,1,4,0:0:0:0:
256,192,177236,1,4,0:0:0:0:
256,192,177567,1,6,0:0:0:0:
256,192,177787,1,0,0:0:0:0:
256,192,177898,1,2,0:0:0:0:
256,192,178008,1,0,0:0:0:0:
256,192,178118,1,0,0:0:0:0:
256,192,178229,1,2,0:0:0:0:
256,192,178339,1,2,0:0:0:0:
256,192,178449,1,0,0:0:0:0:
256,192,178670,1,6,0:0:0:0:
256,192,179001,1,6,0:0:0:0:
256,192,179332,1,4,0:0:0:0:
256,192,179552,1,2,0:0:0:0:
256,192,179662,1,0,0:0:0:0:
256,192,179773,1,2,0:0:0:0:
256,192,179883,1,2,0:0:0:0:
256,192,179993,1,0,0:0:0:0:
256,192,180104,1,0,0:0:0:0:
256,192,180214,1,2,0:0:0:0:
256,192,180435,1,4,0:0:0:0:
256,192,180655,1,2,0:0:0:0:
256,192,180876,1,0,0:0:0:0:
256,192,180986,1,0,0:0:0:0:
256,192,181096,1,2,0:0:0:0:
256,192,181207,1,0,0:0:0:0:
256,192,181427,1,0,0:0:0:0:
256,192,181537,1,2,0:0:0:0:
256,192,181758,1,0,0:0:0:0:
256,192,181868,1,0,0:0:0:0:
256,192,181979,1,2,0:0:0:0:
256,192,182199,1,0,0:0:0:0:
256,192,182420,1,2,0:0:0:0:
256,192,182640,1,2,0:0:0:0:
256,192,182751,1,2,0:0:0:0:
256,192,182861,1,0,0:0:0:0:
256,192,183082,1,6,0:0:0:0:
256,192,183302,1,4,0:0:0:0:
256,192,183523,1,6,0:0:0:0:
256,192,183964,5,4,0:0:0:0:
256,192,184185,1,2,0:0:0:0:
256,192,184405,1,0,0:0:0:0:
256,192,184515,1,0,0:0:0:0:
256,192,184626,1,2,0:0:0:0:
256,192,184736,1,0,0:0:0:0:
256,192,184957,1,0,0:0:0:0:
256,192,185067,1,2,0:0:0:0:
256,192,185287,1,0,0:0:0:0:
256,192,185398,1,0,0:0:0:0:
256,192,185508,1,2,0:0:0:0:
256,192,185729,1,0,0:0:0:0:
256,192,185949,1,2,0:0:0:0:
256,192,186170,1,0,0:0:0:0:
256,192,186280,1,2,0:0:0:0:
256,192,186390,1,2,0:0:0:0:
256,192,186501,1,0,0:0:0:0:
256,192,186721,1,0,0:0:0:0:
256,192,186832,1,2,0:0:0:0:
256,192,187052,1,0,0:0:0:0:
256,192,187162,1,0,0:0:0:0:
256,192,187273,1,2,0:0:0:0:
256,192,187493,1,0,0:0:0:0:
256,192,187714,1,2,0:0:0:0:
256,192,187935,1,0,0:0:0:0:
256,192,188045,1,0,0:0:0:0:
256,192,188155,1,2,0:0:0:0:
256,192,188376,1,0,0:0:0:0:
256,192,188596,1,2,0:0:0:0:
256,192,188817,1,2,0:0:0:0:
256,192,188927,1,2,0:0:0:0:
256,192,189037,1,0,0:0:0:0:
256,192,189258,1,0,0:0:0:0:
256,192,189368,1,2,0:0:0:0:
256,192,189479,1,0,0:0:0:0:
256,192,189589,1,0,0:0:0:0:
256,192,189699,1,2,0:0:0:0:
256,192,189920,1,0,0:0:0:0:
256,192,190140,1,2,0:0:0:0:
256,192,190361,1,2,0:0:0:0:
256,192,190471,1,0,0:0:0:0:
256,192,190582,1,2,0:0:0:0:
256,192,190692,1,2,0:0:0:0:
256,192,190802,1,2,0:0:0:0:
256,192,191023,1,4,0:0:0:0:
256,192,191243,1,2,0:0:0:0:
256,192,191464,1,0,0:0:0:0:
256,192,191574,1,0,0:0:0:0:
256,192,191685,1,2,0:0:0:0:
256,192,191795,1,0,0:0:0:0:
256,192,192015,1,0,0:0:0:0:
256,192,192126,1,2,0:0:0:0:
256,192,192346,1,2,0:0:0:0:
256,192,192457,1,2,0:0:0:0:
256,192,192567,1,0,0:0:0:0:
256,192,192787,1,0,0:0:0:0:
256,192,193008,1,2,0:0:0:0:
256,192,193229,1,0,0:0:0:0:
256,192,193339,1,0,0:0:0:0:
256,192,193449,1,2,0:0:0:0:
256,192,193560,1,0,0:0:0:0:
256,192,193780,1,0,0:0:0:0:
256,192,193890,1,2,0:0:0:0:
256,192,194111,1,0,0:0:0:0:
256,192,194221,1,2,0:0:0:0:
256,192,194332,1,2,0:0:0:0:
256,192,194552,1,0,0:0:0:0:
256,192,194773,1,2,0:0:0:0:
256,192,194993,1,2,0:0:0:0:
256,192,195104,1,2,0:0:0:0:
256,192,195214,1,0,0:0:0:0:
256,192,195324,1,0,0:0:0:0:
256,192,195435,1,0,0:0:0:0:
256,192,195655,1,2,0:0:0:0:
256,192,195876,1,0,0:0:0:0:
256,192,195986,1,0,0:0:0:0:
256,192,196096,1,2,0:0:0:0:
256,192,196317,1,0,0:0:0:0:
256,192,196537,1,2,0:0:0:0:
256,192,196648,1,0,0:0:0:0:
256,192,196758,1,2,0:0:0:0:
256,192,196868,1,2,0:0:0:0:
256,192,196979,1,0,0:0:0:0:
256,192,197089,1,0,0:0:0:0:
256,192,197199,1,2,0:0:0:0:
256,192,197420,1,0,0:0:0:0:
256,192,197640,1,2,0:0:0:0:
256,192,197861,1,2,0:0:0:0:
256,192,198082,5,4,0:0:0:0:
256,192,198302,1,2,0:0:0:0:
256,192,198523,1,0,0:0:0:0:
256,192,198633,1,0,0:0:0:0:
256,192,198743,1,2,0:0:0:0:
256,192,198964,1,0,0:0:0:0:
256,192,199074,1,2,0:0:0:0:
256,192,199295,1,0,0:0:0:0:
256,192,199515,1,2,0:0:0:0:
256,192,199626,1,0,0:0:0:0:
256,192,199846,1,0,0:0:0:0:
256,192,200067,1,2,0:0:0:0:
256,192,200287,1,0,0:0:0:0:
256,192,200398,1,0,0:0:0:0:
256,192,200508,1,2,0:0:0:0:
256,192,200729,1,2,0:0:0:0:
256,192,200839,1,0,0:0:0:0:
256,192,201060,1,2,0:0:0:0:
256,192,201280,1,2,0:0:0:0:
256,192,201390,1,0,0:0:0:0:
256,192,201611,1,0,0:0:0:0:
256,192,201832,1,2,0:0:0:0:
256,192,202052,1,0,0:0:0:0:
256,192,202162,1,0,0:0:0:0:
256,192,202273,1,2,0:0:0:0:
256,192,202493,1,0,0:0:0:0:
256,192,202604,1,2,0:0:0:0:
256,192,202824,1,0,0:0:0:0:
256,192,203045,1,2,0:0:0:0:
256,192,203155,1,0,0:0:0:0:
256,192,203376,1,0,0:0:0:0:
256,192,203486,1,2,0:0:0:0:
256,192,203596,1,0,0:0:0:0:
256,192,203707,1,2,0:0:0:0:
256,192,203817,1,0,0:0:0:0:
256,192,203927,1,0,0:0:0:0:
256,192,204037,1,2,0:0:0:0:
256,192,204258,1,0,0:0:0:0:
256,192,204479,1,2,0:0:0:0:
256,192,204589,1,2,0:0:0:0:
256,192,204699,1,2,0:0:0:0:
256,192,204810,1,2,0:0:0:0:
256,192,204920,1,2,0:0:0:0:
256,192,205140,1,4,0:0:0:0:
256,192,205361,1,2,0:0:0:0:
256,192,205582,1,0,0:0:0:0:
256,192,205692,1,0,0:0:0:0:
256,192,205802,1,2,0:0:0:0:
256,192,205912,1,2,0:0:0:0:
256,192,206023,1,0,0:0:0:0:
256,192,206133,1,2,0:0:0:0:
256,192,206354,1,0,0:0:0:0:
256,192,206574,1,2,0:0:0:0:
256,192,206685,1,0,0:0:0:0:
256,192,206905,1,0,0:0:0:0:
256,192,207126,1,2,0:0:0:0:
256,192,207346,1,0,0:0:0:0:
256,192,207457,1,0,0:0:0:0:
256,192,207567,1,2,0:0:0:0:
256,192,207787,1,2,0:0:0:0:
256,192,207898,1,0,0:0:0:0:
256,192,208008,1,0,0:0:0:0:
256,192,208118,1,2,0:0:0:0:
256,192,208339,1,2,0:0:0:0:
256,192,208449,1,0,0:0:0:0:
256,192,208670,1,0,0:0:0:0:
256,192,208890,1,2,0:0:0:0:
256,192,209111,1,0,0:0:0:0:
256,192,209221,1,0,0:0:0:0:
256,192,209332,1,2,0:0:0:0:
256,192,209552,1,0,0:0:0:0:
256,192,209662,1,2,0:0:0:0:
256,192,209883,1,2,0:0:0:0:
256,192,210104,1,2,0:0:0:0:
256,192,210214,1,0,0:0:0:0:
256,192,210435,1,0,0:0:0:0:
256,192,210545,1,2,0:0:0:0:
256,192,210765,1,2,0:0:0:0:
256,192,210876,1,0,0:0:0:0:
256,192,210986,1,0,0:0:0:0:
256,192,211096,1,2,0:0:0:0:
256,192,211317,1,2,0:0:0:0:
256,192,211427,1,2,0:0:0:0:
256,192,211537,1,0,0:0:0:0:
256,192,211648,1,0,0:0:0:0:
256,192,211758,1,2,0:0:0:0:
256,192,212199,1,4,0:0:0:0:
256,192,212640,1,2,0:0:0:0:
256,192,212971,1,0,0:0:0:0:
256,192,213192,1,2,0:0:0:0:
256,192,213302,1,0,0:0:0:0:
256,192,213523,1,2,0:0:0:0:
256,192,213633,1,2,0:0:0:0:
256,192,213743,1,2,0:0:0:0:
256,192,213964,1,0,0:0:0:0:
256,192,214405,1,2,0:0:0:0:
256,192,214736,1,0,0:0:0:0:
256,192,214957,1,2,0:0:0:0:
256,192,215067,1,0,0:0:0:0:
256,192,215287,1,0,0:0:0:0:
256,192,215398,1,0,0:0:0:0:
256,192,215508,1,2,0:0:0:0:
256,192,215729,1,0,0:0:0:0:
256,192,216170,1,2,0:0:0:0:
256,192,216501,1,0,0:0:0:0:
256,192,216721,1,2,0:0:0:0:
256,192,216832,1,0,0:0:0:0:
256,192,217052,1,2,0:0:0:0:
256,192,217162,1,2,0:0:0:0:
256,192,217273,1,2,0:0:0:0:
256,192,217493,1,0,0:0:0:0:
256,192,217935,1,2,0:0:0:0:
256,192,218155,1,0,0:0:0:0:
256,192,218265,1,2,0:0:0:0:
256,192,218486,1,2,0:0:0:0:
256,192,218596,1,0,0:0:0:0:
256,192,218817,1,2,0:0:0:0:
256,192,219037,1,2,0:0:0:0:
256,192,219148,1,2,0:0:0:0:
256,192,219258,1,0,0:0:0:0:
256,192,219699,1,2,0:0:0:0:
256,192,220030,1,0,0:0:0:0:
256,192,220251,1,2,0:0:0:0:
256,192,220361,1,0,0:0:0:0:
256,192,220582,1,2,0:0:0:0:
256,192,220692,1,2,0:0:0:0:
256,192,220802,1,2,0:0:0:0:
256,192,221023,1,0,0:0:0:0:
256,192,221464,1,2,0:0:0:0:
256,192,221795,1,0,0:0:0:0:
256,192,222015,1,2,0:0:0:0:
256,192,222126,1,0,0:0:0:0:
256,192,222346,1,0,0:0:0:0:
256,192,222457,1,0,0:0:0:0:
256,192,222567,1,2,0:0:0:0:
256,192,222787,1,0,0:0:0:0:
256,192,223229,1,2,0:0:0:0:
256,192,223560,1,0,0:0:0:0:
256,192,223780,1,2,0:0:0:0:
256,192,223890,1,0,0:0:0:0:
256,192,224111,1,2,0:0:0:0:
256,192,224221,1,2,0:0:0:0:
256,192,224332,5,2,0:0:0:0:
256,192,224552,1,4,0:0:0:0:
256,192,224773,1,2,0:0:0:0:
256,192,224883,1,2,0:0:0:0:
256,192,224993,1,2,0:0:0:0:
256,192,225104,1,2,0:0:0:0:
256,192,225214,1,2,0:0:0:0:
256,192,225435,5,0,0:0:0:0:
256,192,225508,1,0,0:0:0:0:
256,192,225582,1,0,0:0:0:0:
256,192,225655,1,0,0:0:0:0:
256,192,225876,1,6,0:0:0:0:
