osu file format v14

[General]
AudioFilename: audio.mp3
AudioLeadIn: 0
PreviewTime: 170061
Countdown: 0
SampleSet: Soft
StackLeniency: 0.5
Mode: 0
LetterboxInBreaks: 0
WidescreenStoryboard: 1

[Editor]
Bookmarks: 7487,21605,35722,42781,49840,60428,67487,81605,95722,123958,134546,141605,155722,169840,176899,211760,224536
DistanceSpacing: 0.4
BeatDivisor: 8
GridSize: 32
TimelineZoom: 2.5

[Metadata]
Title:Montage
TitleUnicode:モンタージュ
Artist:Kaf
ArtistUnicode:花譜
Creator:Sparhten
Version:Hard
Source:
Tags:Amiya Pkk KAMITSUBAKI STUDIO Kafu Neonlights Japanese Jazz pop Jpop Jrock rock Virtual Vtuber Palow 魔法 mahou 2nd album カンザキイオリ Kanzaki Iori 神椿スタジオ
BeatmapID:2789120
BeatmapSetID:1344469

[Difficulty]
HPDrainRate:4
CircleSize:3.5
OverallDifficulty:7.5
ApproachRate:8
SliderMultiplier:1.89999990463257
SliderTickRate:1

[Events]
//Background and Video events
0,0,"85132667_p0_master1200.png",0,0
//Break Periods
2,50040,59237
2,124158,133796
2,169930,176149
//Storyboard Layer 0 (Background)
//Storyboard Layer 1 (Fail)
//Storyboard Layer 2 (Pass)
//Storyboard Layer 3 (Foreground)
//Storyboard Layer 4 (Overlay)
//Storyboard Sound Samples

[TimingPoints]
-1336,441.176470588235,4,2,1,40,1,0
208,-100,4,2,1,50,0,0
281,-125,4,2,1,50,0,0
7487,-100,4,2,1,75,0,0
12781,-100,4,2,4,75,0,0
14546,-100,4,2,1,75,0,0
21605,-125,4,2,1,65,0,0
34399,-125,4,2,1,40,0,0
35722,-100,4,2,1,75,0,0
49840,-100,4,2,1,55,0,0
60428,-100,4,2,1,75,0,0
66384,-125,4,2,1,75,0,0
67487,-100,4,2,4,85,0,0
67542,-100,4,2,1,85,0,1
72781,-100,4,2,4,85,0,0
74546,-100,4,2,1,85,0,1
80722,-100,4,2,1,75,0,0
81605,-100,4,2,1,75,0,0
86899,-100,4,2,4,75,0,0
88663,-100,4,2,1,75,0,0
95722,-125,4,2,1,65,0,0
122193,-125,4,2,1,70,0,0
123958,-125,4,2,1,55,0,0
134546,-100,4,2,1,75,0,0
140502,-125,4,2,1,75,0,0
141605,-100,4,2,4,85,0,0
141660,-100,4,2,1,85,0,1
146899,-100,4,2,4,85,0,0
148663,-100,4,2,1,85,0,1
155281,-100,4,2,1,85,0,0
155722,-100,4,2,1,90,0,1
161016,-100,4,2,4,90,0,0
162781,-100,4,2,1,90,0,0
166311,-100,4,2,1,90,0,1
169840,-100,4,2,1,40,0,0
176899,-100,4,2,1,75,0,0
180428,-100,4,2,4,85,0,1
180538,-100,4,2,1,100,0,1
183130,-100,4,2,1,100,0,0
183296,-100,4,2,1,100,0,1
183351,-100,4,2,1,100,0,0
183516,-100,4,2,1,100,0,1
183572,-100,4,2,1,100,0,0
183958,-100,4,2,4,95,0,1
184068,-100,4,2,1,95,0,1
189252,-100,4,2,4,95,0,1
190355,-100,4,2,1,95,0,1
198075,-100,4,2,1,95,0,0
203369,-100,4,2,4,95,0,0
205134,-100,4,2,1,95,0,0
211752,-100,4,2,1,100,0,0
212193,-100,4,2,1,65,0,0
224546,-100,4,2,1,80,0,0

[Colours]
Combo1 : 150,174,216
Combo2 : 185,185,221
Combo3 : 232,215,236
Combo4 : 214,114,134

[HitObjects]
94,86,281,6,0,L|87:133,2,25.3333320617676,2|2|2,0:2|0:2|1:2,0:0:0:0:
216,95,1972,5,2,0:2:0:0:
246,91,2193,1,2,0:2:0:0:
275,88,2413,1,2,1:2:0:0:
306,86,2634,2,0,L|297:180,1,75.9999961853028,10|2,0:2|0:2,0:0:0:0:
298,161,2965,1,2,0:2:0:0:
445,338,3296,5,2,0:2:0:0:
415,332,3516,1,10,0:2:0:0:
385,326,3737,1,2,1:2:0:0:
354,320,3958,1,2,1:2:0:0:
270,363,4288,1,2,0:2:0:0:
69,314,5722,6,0,L|67:283,2,18.9999990463257,2|2|2,0:2|0:2|0:2,0:0:0:0:
172,191,6163,1,2,0:2:0:0:
168,221,6384,1,2,0:2:0:0:
253,269,6605,1,2,0:2:0:0:
248,240,6825,1,2,0:2:0:0:
310,183,7046,1,2,0:2:0:0:
310,183,7156,1,2,0:2:0:0:
368,269,7487,6,0,P|408:290|452:276,1,94.9999952316285,6|10,1:2|0:1,0:0:0:0:
512,196,7928,2,0,L|507:102,1,94.9999952316285,2|8,1:1|0:2,0:0:0:0:
464,79,8259,1,0,1:2:0:0:
464,79,8369,2,0,P|426:113|382:103,1,94.9999952316285,2|8,0:2|0:0,0:0:0:0:
342,83,8700,2,0,L|326:192,1,94.9999952316285,2|0,0:1|1:2,0:0:0:0:
324,205,9031,1,10,0:1:0:0:
202,147,9252,1,0,1:2:0:0:
16,204,9472,6,0,P|76:181|106:195,1,94.9999952316285,10|2,0:1|1:1,0:0:0:0:
164,266,9913,1,8,0:2:0:0:
164,266,10024,1,0,1:2:0:0:
164,266,10134,2,0,L|161:318,2,47.4999976158143,0|2|8,1:0|1:2|0:0,0:0:0:0:
220,247,10465,2,0,P|244:205|213:156,1,94.9999952316285,2|0,0:1|1:2,0:0:0:0:
202,147,10796,1,10,0:1:0:0:
344,85,11016,1,0,1:2:0:0:
511,49,11237,6,0,P|486:85|501:144,1,94.9999952316285,10|2,1:1|1:1,0:0:0:0:
477,252,11678,1,8,0:2:0:0:
477,252,11788,1,0,1:2:0:0:
477,252,11899,2,0,P|428:227|372:247,1,94.9999952316285,2|8,0:2|0:2,0:0:0:0:
361,280,12230,2,0,L|261:270,1,94.9999952316285,2|0,0:1|1:2,0:0:0:0:
235,267,12561,1,10,0:1:0:0:
78,216,12781,6,0,L|70:276,2,47.4999976158143,0|8|10,3:3|3:3|3:3,0:0:0:0:
29,184,13112,1,0,3:3:0:0:
29,184,13222,2,0,L|24:122,1,47.4999976158143,2|0,3:3|3:3,0:0:0:0:
79,101,13443,2,0,L|84:39,1,47.4999976158143,2|8,3:3|3:3,0:0:0:0:
86,17,13663,5,10,3:3:0:0:
196,3,13884,1,10,3:2:0:0:
212,126,14105,1,10,0:2:0:0:
212,126,14215,2,0,L|266:146,2,47.4999976158143,10|8|8,0:2|0:2|0:2,0:0:0:0:
229,227,14546,6,0,P|264:199|330:216,1,94.9999952316285,4|10,1:2|0:1,0:0:0:0:
432,217,14987,2,0,P|437:173|444:103,1,94.9999952316285,2|10,1:1|0:0,0:0:0:0:
443,123,15318,1,2,1:2:0:0:
443,123,15428,2,0,P|408:135|351:105,1,94.9999952316285,2|8,0:2|0:2,0:0:0:0:
331,87,15759,2,0,P|280:57|225:82,1,94.9999952316285,2|0,0:1|1:2,0:0:0:0:
226,80,16090,1,10,0:1:0:0:
100,44,16311,1,0,1:2:0:0:
24,149,16531,6,0,L|36:257,2,94.9999952316285,10|2|8,0:1|1:1|0:2,0:0:0:0:
136,127,17193,1,2,0:2:0:0:
136,127,17303,1,2,1:2:0:0:
126,235,17524,2,0,P|190:215|222:243,1,94.9999952316285,2|0,0:1|1:2,0:0:0:0:
223,256,17855,1,10,0:1:0:0:
349,291,18075,1,0,1:2:0:0:
423,239,18296,6,0,L|436:334,2,94.9999952316285,10|2|8,0:1|1:1|0:2,0:0:0:0:
408,149,18958,1,2,0:2:0:0:
408,149,19068,1,2,1:2:0:0:
451,66,19288,2,0,P|412:44|354:70,1,94.9999952316285,2|0,0:1|1:2,0:0:0:0:
340,76,19619,1,10,0:1:0:0:
269,187,19840,1,0,1:2:0:0:
269,187,19950,6,0,P|223:162|169:184,1,94.9999952316285,2|0,0:1|0:0,0:0:0:0:
172,189,20281,1,2,1:1:0:0:
130,284,20502,1,10,0:1:0:0:
35,242,20722,1,2,0:1:0:0:
77,147,20943,1,10,0:1:0:0:
41,69,21163,1,2,1:1:0:0:
41,69,21274,1,2,1:1:0:0:
41,69,21384,2,0,P|98:61|137:97,1,94.9999952316285,8|2,0:2|0:2,0:0:0:0:
126,80,22046,5,2,0:2:0:0:
228,66,22266,1,2,0:2:0:0:
240,176,22487,2,0,P|289:160|325:189,1,75.9999961853028,2|2,0:2|0:2,0:0:0:0:
331,202,22818,2,0,P|309:279|303:337,1,113.999994277954,2|2,0:2|0:2,0:0:0:0:
304,313,23590,1,2,0:2:0:0:
407,332,23811,1,2,0:2:0:0:
434,232,24031,1,2,0:2:0:0:
332,209,24252,2,0,L|255:208,1,75.9999961853028,2|2,0:2|0:2,0:0:0:0:
227,224,24583,2,0,P|237:156|191:126,1,113.999994277954,2|2,0:2|0:2,0:0:0:0:
207,129,25355,5,2,0:2:0:0:
105,106,25575,1,2,0:2:0:0:
84,206,25796,1,2,0:2:0:0:
187,227,26016,1,2,0:2:0:0:
172,338,26237,5,2,0:2:0:0:
172,338,26347,1,2,0:2:0:0:
172,338,26458,2,0,P|108:319|89:327,1,75.9999961853028,2|2,0:2|0:2,0:0:0:0:
329,339,27119,5,2,0:2:0:0:
397,275,27340,1,2,0:2:0:0:
343,200,27561,1,2,0:2:0:0:
427,162,27781,2,0,P|432:113|391:74,1,75.9999961853028,2|0,0:2|0:0,0:0:0:0:
387,83,28112,2,0,P|382:34|423:-5,1,75.9999961853028,2|0,0:2|0:0,0:0:0:0:
415,3,28443,1,2,0:2:0:0:
25,75,28884,5,2,0:2:0:0:
123,61,29105,1,2,0:2:0:0:
139,158,29325,1,2,0:2:0:0:
42,178,29546,2,0,P|36:229|68:262,1,75.9999961853028,2|0,0:2|0:0,0:0:0:0:
68,262,29877,2,0,P|94:300|77:362,1,113.999994277954,2|2,0:2|0:2,0:0:0:0:
302,298,30649,5,2,0:2:0:0:
390,340,30869,1,2,0:2:0:0:
439,254,31090,1,2,0:2:0:0:
353,203,31311,1,2,0:2:0:0:
353,203,31421,1,2,0:2:0:0:
421,134,31641,1,2,0:2:0:0:
421,134,31752,2,0,P|392:104|336:124,1,75.9999961853028,2|2,0:2|0:2,0:0:0:0:
223,45,32413,5,2,0:2:0:0:
233,143,32634,1,2,0:2:0:0:
135,156,32855,1,2,0:2:0:0:
119,58,33075,2,0,P|83:30|39:51,1,75.9999961853028,2|2,0:2|0:2,0:0:0:0:
40,51,33406,2,0,L|47:177,1,113.999994277954,2|2,0:2|0:2,0:0:0:0:
26,343,34178,5,2,0:2:0:0:
124,338,34399,1,2,0:2:0:0:
222,335,34619,1,2,0:2:0:0:
320,334,34840,2,0,P|308:284|331:255,1,75.9999961853028,2|0,0:2|0:0,0:0:0:0:
343,232,35171,1,2,0:2:0:0:
343,232,35281,2,0,L|340:141,1,75.9999961853028,2|2,0:0|0:2,0:0:0:0:
338,25,35722,5,4,1:2:0:0:
197,66,35943,6,0,L|254:64,2,47.4999976158143,10|2|2,0:2|0:2|1:2,0:0:0:0:
182,102,36274,2,0,L|119:106,2,47.4999976158143,2|10|2,1:2|0:0|1:2,0:0:0:0:
200,142,36605,1,2,0:2:0:0:
200,142,36715,2,0,L|197:204,1,47.4999976158143,2|8,1:2|0:2,0:0:0:0:
184,237,36936,1,2,0:2:0:0:
184,237,37046,2,0,P|132:205|78:230,2,94.9999952316285,0|10|0,1:2|0:2|1:2,0:0:0:0:
245,327,37708,5,10,0:2:0:0:
339,358,37928,2,0,P|377:338|412:348,1,47.4999976158143,2|0,1:2|1:2,0:0:0:0:
424,353,38149,1,10,0:2:0:0:
424,353,38259,1,2,1:2:0:0:
424,353,38369,2,0,L|431:244,1,94.9999952316285,2|8,0:2|0:2,0:0:0:0:
461,253,38700,2,0,L|468:148,1,94.9999952316285,2|0,0:2|1:2,0:0:0:0:
470,129,39031,1,10,0:0:0:0:
448,20,39252,1,0,1:2:0:0:
332,18,39472,6,0,P|348:82|320:117,2,94.9999952316285,10|2|10,0:2|1:2|0:2,0:0:0:0:
289,11,40024,1,0,1:2:0:0:
289,11,40134,2,0,L|180:6,1,94.9999952316285,2|8,0:2|0:2,0:0:0:0:
158,18,40465,2,0,P|146:66|166:84,1,47.4999976158143,2|0,0:2|1:2,0:0:0:0:
211,135,40796,1,10,0:2:0:0:
86,211,41016,6,0,P|115:199|144:206,1,47.4999976158143,0|8,3:3|3:3,0:0:0:0:
152,226,41237,2,0,P|181:238|210:231,1,47.4999976158143,8|0,3:3|3:3,0:0:0:0:
246,226,41458,2,0,L|236:301,2,47.4999976158143,8|8|0,3:3|3:3|3:3,0:0:0:0:
286,204,41788,1,0,3:3:0:0:
286,204,41899,2,0,P|343:180|374:209,1,94.9999952316285,0|8,3:3|0:2,0:0:0:0:
407,226,42230,1,8,0:2:0:0:
407,226,42340,1,8,0:2:0:0:
407,226,42450,1,8,0:2:0:0:
407,226,42561,2,0,L|482:236,1,47.4999976158143,0|0,1:2|1:2,0:0:0:0:
415,353,42781,6,0,P|470:322|524:342,2,94.9999952316285,4|10|2,1:2|0:2|1:2,0:0:0:0:
289,378,43443,2,0,L|210:363,1,47.4999976158143,10|0,0:2|1:2,0:0:0:0:
230,357,43663,1,2,0:2:0:0:
230,357,43774,2,0,L|151:342,1,47.4999976158143,2|8,1:2|0:2,0:0:0:0:
151,349,43994,2,0,P|173:286|137:232,1,94.9999952316285,2|0,0:2|1:2,0:0:0:0:
142,241,44325,1,10,0:2:0:0:
96,138,44546,5,0,1:2:0:0:
213,15,44766,2,0,P|189:63|235:124,1,94.9999952316285,10|2,0:2|1:2,0:0:0:0:
241,200,45208,2,0,L|320:185,1,47.4999976158143,10|0,0:2|1:2,0:0:0:0:
300,179,45428,1,2,0:2:0:0:
300,179,45539,2,0,L|379:164,1,47.4999976158143,2|8,1:2|0:2,0:0:0:0:
379,171,45759,2,0,P|357:108|393:54,1,94.9999952316285,2|0,0:2|1:2,0:0:0:0:
386,53,46090,1,10,0:2:0:0:
481,132,46311,5,0,1:2:0:0:
453,286,46531,6,0,L|392:267,1,47.4999976158143,8|0,0:2|0:0,0:0:0:0:
383,289,46752,2,0,L|327:273,1,47.4999976158143,0|0,1:2|1:2,0:0:0:0:
308,291,46972,1,8,0:2:0:0:
217,319,47193,6,0,L|156:300,1,47.4999976158143,2|0,0:2|1:2,0:0:0:0:
147,322,47414,2,0,L|91:306,1,47.4999976158143,8|0,0:2|0:2,0:0:0:0:
80,332,47634,1,0,1:2:0:0:
80,332,47744,1,0,1:2:0:0:
80,332,47855,1,8,0:2:0:0:
29,185,48075,5,2,1:1:0:0:
116,82,48406,5,2,1:1:0:0:
225,151,48737,5,6,1:1:0:0:
320,122,48958,2,0,L|310:176,3,47.4999976158143,0|0|8|8,3:3|3:3|3:3|3:3,0:0:0:0:
346,177,49399,2,0,L|356:231,4,47.4999976158143,8|8|8|8|2,3:3|3:3|3:3|3:3|0:2,0:0:0:0:
174,131,59987,5,0,1:2:0:0:
174,131,60428,6,0,P|107:110|77:125,1,94.9999952316285,6|2,1:2|0:2,0:0:0:0:
52,144,60759,2,0,L|60:208,1,47.4999976158143,2|8,0:2|0:2,0:0:0:0:
45,213,60980,2,0,L|61:312,1,94.9999952316285,2|2,0:2|1:2,0:0:0:0:
84,323,61311,1,2,0:2:0:0:
84,323,61421,1,10,0:2:0:0:
84,323,61531,2,0,P|122:289|182:312,2,94.9999952316285,2|10|0,1:2|0:2|0:0,0:0:0:0:
280,364,62193,5,6,1:2:0:0:
280,364,62303,1,2,0:2:0:0:
280,364,62413,2,0,L|275:303,1,47.4999976158143,2|2,0:2|0:2,0:0:0:0:
297,297,62634,2,0,L|292:237,1,47.4999976158143,10|2,0:2|0:2,0:0:0:0:
303,220,62855,2,0,L|298:170,1,47.4999976158143,2|2,0:2|1:2,0:0:0:0:
296,145,63075,1,2,0:2:0:0:
296,145,63186,1,10,0:2:0:0:
296,145,63296,2,0,P|338:169|397:142,2,94.9999952316285,2|10|0,1:2|0:2|0:0,0:0:0:0:
475,36,63958,1,4,1:2:0:0:
512,117,64178,6,0,L|498:221,2,94.9999952316285,2|10|2,0:2|0:2|0:2,0:0:0:0:
473,46,64840,2,0,P|403:21|369:55,1,94.9999952316285,2|2,0:2|1:2,0:0:0:0:
375,108,65281,2,0,P|319:125|289:97,1,94.9999952316285,10|2,0:2|0:2,0:0:0:0:
181,111,65722,5,4,1:1:0:0:
119,0,66053,5,4,1:1:0:0:
33,91,66384,6,0,L|41:219,1,113.999994277954,0|0,1:1|0:0,0:0:0:0:
41,234,66825,2,0,P|114:196|166:283,1,189.999990463257,4|0,1:2|0:0,0:0:0:0:
189,304,67487,6,0,L|256:301,1,47.4999976158143,4|0,1:1|0:0,0:0:0:0:
276,281,67708,2,0,L|343:278,1,47.4999976158143,10|0,0:1|0:0,0:0:0:0:
348,310,67928,2,0,L|415:313,1,47.4999976158143,2|0,1:2|1:2,0:0:0:0:
449,315,68149,1,10,0:2:0:0:
449,315,68259,2,0,P|425:257|447:225,1,94.9999952316285,2|2,1:2|1:2,0:0:0:0:
462,222,68590,1,10,0:2:0:0:
334,106,68811,1,2,1:1:0:0:
452,44,69031,5,10,0:2:0:0:
452,44,69141,1,2,0:2:0:0:
452,44,69252,2,0,L|442:107,1,47.4999976158143,6|0,1:2|0:0,0:0:0:0:
421,108,69472,2,0,L|411:171,1,47.4999976158143,10|0,0:2|0:0,0:0:0:0:
390,180,69693,2,0,P|337:157|300:182,1,94.9999952316285,2|10,1:2|0:1,0:0:0:0:
283,200,70024,2,0,P|228:226|187:207,1,94.9999952316285,2|2,1:2|1:2,0:0:0:0:
184,201,70355,1,10,0:2:0:0:
46,179,70575,2,0,L|42:123,2,47.4999976158143,2|0|12,1:2|1:2|0:1,0:0:0:0:
55,268,71016,1,6,1:1:0:0:
62,369,71237,6,0,P|119:346|146:366,1,94.9999952316285,10|2,0:2|1:2,0:0:0:0:
178,364,71568,1,0,1:2:0:0:
178,364,71678,2,0,L|240:348,1,47.4999976158143,10|2,0:2|1:2,0:0:0:0:
242,331,71899,2,0,L|299:334,1,47.4999976158143,2|0,0:2|1:2,0:0:0:0:
329,339,72119,1,10,0:1:0:0:
340,248,72340,1,2,1:2:0:0:
340,248,72450,1,0,1:2:0:0:
340,248,72561,2,0,P|354:210|328:146,1,94.9999952316285,10|10,0:1|3:3,0:0:0:0:
340,137,72891,5,8,3:3:0:0:
340,137,73002,2,0,L|279:147,1,47.4999976158143,10|8,3:3|3:3,0:0:0:0:
272,170,73222,2,0,L|211:160,1,47.4999976158143,10|8,3:3|3:3,0:0:0:0:
207,127,73443,2,0,L|146:137,1,47.4999976158143,10|8,3:3|3:3,0:0:0:0:
127,140,73663,1,10,3:3:0:0:
49,37,73884,1,10,0:2:0:0:
7,128,74105,6,0,L|13:182,1,47.4999976158143,10|8,0:2|0:2,0:0:0:0:
42,197,74325,2,0,L|36:251,1,47.4999976158143,10|8,0:2|0:2,0:0:0:0:
32,270,74546,5,6,1:1:0:0:
139,355,74877,5,2,1:1:0:0:
226,250,75208,5,2,1:1:0:0:
323,296,75428,1,0,3:3:0:0:
323,296,75538,1,0,3:3:0:0:
323,296,75649,2,0,P|356:301|388:279,1,47.4999976158143,8|8,3:3|3:3,0:0:0:0:
386,259,75869,2,0,P|408:253|431:258,1,47.4999976158143,8|8,3:3|3:3,0:0:0:0:
459,288,76090,2,0,L|450:342,1,47.4999976158143,8|8,3:3|3:3,0:0:0:0:
436,366,76311,5,6,1:1:0:0:
300,369,76641,5,2,1:1:0:0:
293,232,76972,5,2,1:1:0:0:
194,250,77193,1,8,3:3:0:0:
194,250,77303,1,8,3:3:0:0:
194,250,77413,2,0,L|137:255,1,47.4999976158143,8|8,3:3|3:3,0:0:0:0:
133,271,77634,2,0,L|76:276,1,47.4999976158143,0|8,3:3|3:3,0:0:0:0:
59,278,77855,1,8,3:3:0:0:
59,278,77965,1,8,3:3:0:0:
59,278,78075,6,0,P|28:215|54:180,1,94.9999952316285,6|10,1:1|0:2,0:0:0:0:
91,126,78516,2,0,L|187:143,1,94.9999952316285,6|10,1:2|0:2,0:0:0:0:
214,150,78847,1,2,1:2:0:0:
214,150,78958,2,0,L|208:94,1,47.4999976158143,0|0,0:0|1:2,0:0:0:0:
231,85,79178,2,0,L|237:29,1,47.4999976158143,14|0,0:1|0:0,0:0:0:0:
239,16,79399,1,2,1:2:0:0:
372,54,79619,1,10,0:2:0:0:
479,20,79840,6,0,P|460:79|471:91,1,47.4999976158143,6|0,1:2|0:0,0:0:0:0:
474,86,80061,2,0,P|493:129|469:181,1,94.9999952316285,10|0,0:2|1:2,0:0:0:0:
346,191,80502,5,10,0:2:0:0:
358,313,80722,1,14,0:1:0:0:
480,303,80943,1,6,1:1:0:0:
347,330,81163,6,0,P|289:292|220:325,1,142.499992847443,6|0,1:1|0:0,0:0:0:0:
192,331,81605,6,0,L|183:215,1,94.9999952316285,6|10,1:2|0:1,0:0:0:0:
73,258,82046,2,0,P|53:209|99:157,1,94.9999952316285,2|8,1:1|0:2,0:0:0:0:
89,145,82377,1,0,1:2:0:0:
89,145,82487,2,0,L|203:155,1,94.9999952316285,2|8,0:2|0:2,0:0:0:0:
193,133,82818,2,0,L|302:117,1,94.9999952316285,2|0,0:1|1:2,0:0:0:0:
315,115,83149,1,10,0:1:0:0:
382,215,83369,1,0,1:2:0:0:
512,141,83590,6,0,P|452:118|422:132,1,94.9999952316285,10|2,0:1|1:1,0:0:0:0:
275,234,84031,1,8,0:2:0:0:
275,234,84142,1,0,1:2:0:0:
275,234,84252,2,0,L|272:286,2,47.4999976158143,2|2|8,0:2|1:2|0:2,0:0:0:0:
245,223,84583,2,0,L|250:118,1,94.9999952316285,2|0,0:1|1:2,0:0:0:0:
259,110,84914,1,10,0:1:0:0:
162,59,85134,1,0,1:2:0:0:
53,102,85355,6,0,L|63:202,1,94.9999952316285,10|2,0:1|1:1,0:0:0:0:
157,170,85796,1,8,0:2:0:0:
157,170,85906,1,0,1:2:0:0:
157,170,86017,2,0,L|152:275,1,94.9999952316285,2|8,0:2|0:2,0:0:0:0:
144,287,86348,2,0,P|106:268|47:299,1,94.9999952316285,2|0,0:1|1:2,0:0:0:0:
49,302,86679,1,10,0:1:0:0:
222,337,86899,6,0,L|230:397,2,47.4999976158143,0|8|10,3:3|3:3|3:3,0:0:0:0:
265,317,87230,1,0,3:3:0:0:
265,317,87340,2,0,L|270:255,1,47.4999976158143,2|0,3:3|3:3,0:0:0:0:
240,230,87561,2,0,L|235:168,1,47.4999976158143,2|8,3:3|3:3,0:0:0:0:
230,148,87781,5,10,3:3:0:0:
343,130,88002,1,10,3:2:0:0:
368,246,88223,1,10,0:2:0:0:
368,246,88333,2,0,L|422:266,2,47.4999976158143,10|8|8,0:2|0:2|0:2,0:0:0:0:
384,336,88664,6,0,P|419:308|485:325,1,94.9999952316285,4|10,1:2|0:1,0:0:0:0:
502,217,89105,2,0,P|507:173|514:103,1,94.9999952316285,2|10,1:1|0:2,0:0:0:0:
492,126,89436,1,2,1:2:0:0:
492,126,89546,2,0,L|503:9,1,94.9999952316285,2|8,0:2|0:2,0:0:0:0:
482,28,89877,2,0,P|443:54|398:45,1,94.9999952316285,2|0,0:1|1:2,0:0:0:0:
384,23,90208,1,10,0:1:0:0:
266,7,90429,1,0,1:2:0:0:
211,100,90649,6,0,L|103:112,2,94.9999952316285,10|2|8,0:1|1:1|0:2,0:0:0:0:
297,146,91311,1,2,0:2:0:0:
297,146,91421,1,2,1:2:0:0:
233,228,91642,2,0,P|169:208|137:236,1,94.9999952316285,2|0,0:1|1:2,0:0:0:0:
136,249,91973,1,10,0:1:0:0:
44,178,92193,1,0,1:2:0:0:
20,278,92414,6,0,L|33:373,2,94.9999952316285,10|2|8,0:1|1:1|0:2,0:0:0:0:
115,340,93076,1,2,0:2:0:0:
115,340,93186,1,2,1:2:0:0:
208,327,93406,2,0,P|252:340|293:317,1,94.9999952316285,2|0,0:1|1:2,0:0:0:0:
301,296,93737,1,10,0:1:0:0:
269,187,93958,1,0,1:2:0:0:
269,187,94068,6,0,P|223:162|169:184,1,94.9999952316285,2|0,0:2|0:0,0:0:0:0:
172,189,94399,1,2,1:1:0:0:
130,284,94620,1,10,0:1:0:0:
35,242,94840,1,2,0:1:0:0:
77,147,95061,1,10,0:1:0:0:
172,189,95281,1,0,1:2:0:0:
396,45,95722,6,0,L|390:138,1,75.9999961853028,2|2,1:2|0:2,0:0:0:0:
453,183,96163,2,0,L|447:276,1,75.9999961853028,10|2,0:2|0:2,0:0:0:0:
386,330,96605,1,2,0:2:0:0:
386,330,96715,2,0,P|348:297|299:304,1,75.9999961853028,8|2,0:2|0:2,0:0:0:0:
282,323,97046,1,8,0:2:0:0:
282,323,97156,2,0,P|242:341|185:318,1,75.9999961853028
183,315,97487,1,0,1:2:0:0:
120,224,97708,6,0,P|78:215|45:232,2,75.9999961853028,2|10|2,0:2|0:2|0:2,0:0:0:0:
214,215,98369,6,0,L|220:157,1,37.9999980926514,2|8,0:2|0:2,0:0:0:0:
222,152,98590,1,2,1:2:0:0:
222,152,98700,2,0,L|228:99,1,37.9999980926514,2|8,0:2|0:2,0:0:0:0:
231,81,98921,1,2,0:2:0:0:
231,81,99031,2,0,P|282:65|315:94,1,75.9999961853028,2|0,0:2|1:2,0:0:0:0:
390,124,99472,6,0,P|367:165|382:211,2,75.9999961853028,2|10|2,0:2|0:2|0:2,0:0:0:0:
412,121,100024,1,0,1:2:0:0:
412,121,100134,2,0,L|513:137,1,75.9999961853028,2|0,0:2|1:2,0:0:0:0:
509,146,100465,2,0,P|526:174|512:207,1,37.9999980926514,2|8,0:2|0:2,0:0:0:0:
512,281,100796,2,0,P|472:251|418:269,1,75.9999961853028,2|0,0:2|1:2,0:0:0:0:
338,227,101237,5,2,0:2:0:0:
324,326,101458,1,10,0:2:0:0:
233,317,101678,1,2,0:2:0:0:
139,319,101899,1,2,0:2:0:0:
139,319,102009,6,0,P|145:271|133:250,1,37.9999980926514,8|0,0:2|1:2,0:0:0:0:
129,255,102230,1,2,0:2:0:0:
129,255,102340,2,0,P|105:199|127:173,2,75.9999961853028,8|2|0,0:2|0:2|1:2,0:0:0:0:
196,192,103002,5,2,0:2:0:0:
152,108,103222,1,10,0:2:0:0:
241,72,103443,1,2,0:2:0:0:
309,130,103663,2,0,L|301:205,1,75.9999961853028,2|0,0:2|1:2,0:0:0:0:
319,222,103994,2,0,P|342:214|378:225,1,37.9999980926514,0|10,0:0|0:2,0:0:0:0:
434,302,104325,5,2,0:2:0:0:
367,347,104546,2,0,P|324:337|308:286,1,75.9999961853028,2|2,1:2|0:2,0:0:0:0:
186,238,104987,2,0,P|209:284|185:329,1,75.9999961853028,10|2,0:2|0:2,0:0:0:0:
104,341,105428,1,2,0:2:0:0:
104,341,105538,2,0,P|71:303|78:254,1,75.9999961853028,8|2,0:2|0:2,0:0:0:0:
97,237,105869,1,8,0:2:0:0:
97,237,105979,2,0,P|115:197|92:140,1,75.9999961853028
89,138,106310,1,0,1:2:0:0:
206,93,106531,6,0,L|214:56,2,37.9999980926514,2|2|10,0:2|0:2|0:2,0:0:0:0:
212,128,106862,1,2,0:2:0:0:
212,128,106972,2,0,L|262:126,1,37.9999980926514,2|0,0:2|1:2,0:0:0:0:
275,157,107193,2,0,L|322:155,1,37.9999980926514,2|8,0:2|0:2,0:0:0:0:
346,159,107413,1,2,1:2:0:0:
346,159,107524,1,2,0:2:0:0:
466,147,107744,1,2,0:2:0:0:
466,147,107855,2,0,P|438:188|451:231,1,75.9999961853028,2|0,0:2|1:2,0:0:0:0:
427,309,108296,5,2,0:2:0:0:
427,309,108406,1,2,0:2:0:0:
427,309,108516,2,0,L|359:296,1,37.9999980926514,10|2,0:2|0:2,0:0:0:0:
369,285,108737,2,0,L|316:277,1,37.9999980926514,2|2,0:2|1:2,0:0:0:0:
283,288,108958,2,0,L|289:336,2,37.9999980926514,2|8|2,0:2|0:2|1:2,0:0:0:0:
239,266,109288,1,2,0:2:0:0:
239,266,109399,1,2,0:2:0:0:
239,266,109509,2,0,P|205:290|156:279,1,75.9999961853028,2|0,0:2|0:0,0:0:0:0:
146,268,109840,1,6,1:2:0:0:
56,205,110061,5,2,0:2:0:0:
56,205,110171,1,0,0:0:0:0:
56,205,110281,1,10,0:2:0:0:
80,106,110502,1,2,0:2:0:0:
174,139,110722,2,0,L|227:132,1,37.9999980926514,2|8,0:2|0:2,0:0:0:0:
239,130,110943,1,2,1:2:0:0:
239,130,111053,1,2,0:2:0:0:
239,130,111163,2,0,L|292:123,1,37.9999980926514,10|2,0:2|0:2,0:0:0:0:
302,124,111384,2,0,P|278:84|301:53,1,75.9999961853028,2|0,0:2|1:2,0:0:0:0:
466,100,111825,6,0,L|460:195,2,75.9999961853028,2|10|2,0:2|0:2|0:2,0:0:0:0:
379,40,112487,2,0,L|382:102,1,37.9999980926514,2|8,0:2|0:2,0:0:0:0:
369,105,112708,1,2,1:2:0:0:
369,105,112818,2,0,L|372:167,1,37.9999980926514,2|8,0:2|0:2,0:0:0:0:
371,169,113038,1,2,0:2:0:0:
371,169,113149,1,2,0:2:0:0:
379,296,113369,1,0,1:2:0:0:
265,309,113590,1,2,0:2:0:0:
265,309,113700,1,2,0:2:0:0:
265,309,113811,2,0,P|238:273|197:280,1,75.9999961853028,10|2,0:2|0:2,0:0:0:0:
65,250,114252,2,0,P|125:237|136:208,1,75.9999961853028,2|2,0:2|1:2,0:0:0:0:
160,146,114693,2,0,P|156:101|111:76,1,75.9999961853028,10|2,0:2|0:2,0:0:0:0:
71,152,115134,6,0,L|-11:136,1,75.9999961853028,2|2,1:2|0:2,0:0:0:0:
142,56,115575,2,0,L|224:40,1,75.9999961853028,8|2,0:2|0:2,0:0:0:0:
367,150,116016,2,0,L|285:134,1,75.9999961853028,2|2,0:2|1:2,0:0:0:0:
473,90,116458,6,0,P|479:137|467:148,1,37.9999980926514,10|0,0:2|0:0,0:0:0:0:
469,147,116678,2,0,P|451:207|469:236,1,75.9999961853028,2|0,0:2|1:2,0:0:0:0:
423,311,117119,6,0,P|382:291|331:308,1,75.9999961853028,2|10,0:2|0:2,0:0:0:0:
271,300,117561,1,2,0:2:0:0:
271,300,117671,1,2,1:2:0:0:
179,231,117891,1,8,0:2:0:0:
179,231,118002,2,0,L|186:306,2,75.9999961853028,0|8|2,1:2|0:2|0:2,0:0:0:0:
122,125,118663,5,0,1:2:0:0:
219,75,118884,1,2,0:2:0:0:
276,166,119105,2,0,P|320:148|303:63,1,113.999994277954,10|0,0:2|1:2,0:0:0:0:
348,81,119546,2,0,P|352:138|368:163,2,75.9999961853028,2|2|8,0:2|1:2|0:2,0:0:0:0:
420,18,120208,5,2,0:2:0:0:
506,59,120428,2,0,P|493:122|500:159,1,75.9999961853028,2|2,1:2|0:2,0:0:0:0:
505,271,120869,1,10,0:2:0:0:
430,223,121090,1,2,0:2:0:0:
381,300,121311,2,0,P|341:277|327:285,1,37.9999980926514,2|8,0:2|0:2,0:0:0:0:
331,290,121531,2,0,P|289:318|234:304,1,75.9999961853028,2|8,1:2|0:2,0:0:0:0:
176,283,121972,1,2,0:2:0:0:
11,212,122193,6,0,L|113:198,1,75.9999961853028,4|10,1:2|0:2,0:0:0:0:
112,209,122524,1,8,0:2:0:0:
112,209,122634,2,0,L|119:149,1,37.9999980926514,2|10,1:2|0:2,0:0:0:0:
140,159,122855,2,0,L|130:114,1,37.9999980926514,8|10,0:2|0:2,0:0:0:0:
150,101,123075,6,0,L|192:95,2,25.3333320617676,8|0|0,0:3|3:3|3:3,0:0:0:0:
145,75,123296,2,0,L|103:69,2,25.3333320617676,0|0|0,3:3|3:3|3:3,0:0:0:0:
164,57,123516,1,0,3:3:0:0:
267,3,123737,1,8,3:3:0:0:
354,78,123958,5,2,0:2:0:0:
339,129,134546,5,4,1:2:0:0:
237,78,134766,5,2,0:2:0:0:
174,131,134987,2,0,P|107:110|77:125,1,94.9999952316285,10|2,0:2|0:2,0:0:0:0:
69,138,135318,2,0,L|75:242,1,94.9999952316285,2|10,1:2|0:2,0:0:0:0:
78,262,135649,1,2,1:2:0:0:
48,357,135869,2,0,P|79:301|186:326,1,189.999990463257,10|0,0:2|1:2,0:0:0:0:
317,346,136531,5,2,0:2:0:0:
317,346,136641,1,2,0:2:0:0:
317,346,136752,2,0,L|325:245,1,94.9999952316285,10|2,0:2|0:2,0:0:0:0:
332,218,137083,2,0,P|379:244|428:206,1,94.9999952316285,2|10,1:2|0:2,0:0:0:0:
428,209,137413,1,2,1:2:0:0:
396,124,137634,2,0,L|201:107,1,189.999990463257,10|0,0:2|1:2,0:0:0:0:
115,67,138296,5,2,0:2:0:0:
76,160,138516,1,10,0:2:0:0:
168,211,138737,1,2,0:2:0:0:
84,272,138958,6,0,P|123:244|166:271,1,94.9999952316285,2|2,0:2|1:2,0:0:0:0:
253,383,139399,2,0,P|233:324|263:299,1,94.9999952316285,10|2,0:2|0:2,0:0:0:0:
330,235,139840,5,6,1:1:0:0:
436,330,140171,5,6,1:1:0:0:
345,366,140502,6,0,L|353:232,1,113.999994277954,2|0,1:1|0:0,0:0:0:0:
381,246,140943,1,4,1:3:0:0:
381,246,141053,1,8,0:3:0:0:
381,246,141163,2,0,L|384:183,1,37.9999980926514,8|8,0:3|0:3,0:0:0:0:
409,189,141384,2,0,L|412:126,1,37.9999980926514,8|8,0:3|0:3,0:0:0:0:
413,113,141605,6,0,P|385:97|346:116,1,47.4999976158143,4|0,1:1|0:0,0:0:0:0:
334,129,141826,2,0,P|311:150|267:132,1,47.4999976158143,10|0,0:1|0:0,0:0:0:0:
255,123,142046,2,0,L|188:120,1,47.4999976158143,2|0,1:2|1:2,0:0:0:0:
153,102,142267,1,10,0:2:0:0:
153,102,142377,2,0,L|162:214,1,94.9999952316285,2|2,1:2|1:2,0:0:0:0:
164,222,142708,1,10,0:2:0:0:
24,187,142929,1,2,1:1:0:0:
10,336,143149,5,10,0:2:0:0:
10,336,143259,1,2,0:2:0:0:
10,336,143370,2,0,L|73:326,1,47.4999976158143,6|0,1:2|0:0,0:0:0:0:
74,305,143590,2,0,L|137:295,1,47.4999976158143,10|0,0:2|0:0,0:0:0:0:
137,271,143811,2,0,P|190:248|227:273,1,94.9999952316285,2|10,1:2|0:1,0:0:0:0:
229,295,144142,2,0,P|284:321|325:302,1,94.9999952316285,2|2,1:2|1:2,0:0:0:0:
330,288,144473,1,10,0:2:0:0:
443,290,144693,2,0,L|439:346,2,47.4999976158143,2|0|12,1:2|1:2|0:2,0:0:0:0:
453,199,145134,1,6,1:1:0:0:
342,223,145355,6,0,P|319:166|339:139,1,94.9999952316285,10|2,0:2|1:2,0:0:0:0:
364,129,145686,1,0,1:2:0:0:
364,129,145796,2,0,P|372:99|348:67,1,47.4999976158143,10|0,0:2|1:2,0:0:0:0:
331,65,146017,2,0,L|334:8,1,47.4999976158143,2|0,0:2|1:2,0:0:0:0:
350,0,146237,1,10,0:1:0:0:
225,12,146458,1,2,1:2:0:0:
225,12,146568,1,2,1:2:0:0:
225,12,146679,2,0,P|211:50|237:114,1,94.9999952316285,10|10,0:1|3:3,0:0:0:0:
226,131,147009,5,8,3:3:0:0:
226,131,147120,2,0,L|165:141,1,47.4999976158143,10|8,3:3|3:3,0:0:0:0:
163,153,147340,2,0,L|102:143,1,47.4999976158143,10|8,3:3|3:3,0:0:0:0:
102,132,147561,2,0,L|41:142,1,47.4999976158143,10|8,3:3|3:3,0:0:0:0:
34,144,147781,1,10,3:3:0:0:
0,264,148002,1,10,0:2:0:0:
94,359,148223,6,0,L|101:299,1,47.4999976158143,10|8,0:2|0:2,0:0:0:0:
124,303,148443,2,0,L|131:237,1,47.4999976158143,10|8,0:2|0:2,0:0:0:0:
131,233,148664,5,6,1:1:0:0:
265,307,148995,5,2,1:1:0:0:
405,204,149326,5,2,1:1:0:0:
322,189,149546,1,0,3:3:0:0:
322,189,149656,1,0,3:3:0:0:
322,189,149767,2,0,P|317:222|339:254,1,47.4999976158143,8|8,3:3|3:3,0:0:0:0:
347,261,149987,2,0,P|353:283|348:306,1,47.4999976158143,8|8,3:3|3:3,0:0:0:0:
330,326,150208,2,0,L|321:380,1,47.4999976158143,8|8,3:3|3:3,0:0:0:0:
321,384,150429,5,6,1:1:0:0:
205,330,150759,5,2,1:1:0:0:
451,253,151090,5,2,1:1:0:0:
447,162,151311,1,8,3:3:0:0:
447,162,151421,1,8,3:3:0:0:
447,162,151531,2,0,L|390:167,1,47.4999976158143,8|8,3:3|3:3,0:0:0:0:
370,182,151752,2,0,L|313:187,1,47.4999976158143,0|8,3:3|3:3,0:0:0:0:
296,191,151973,1,8,3:3:0:0:
296,191,152083,1,8,3:3:0:0:
296,191,152193,6,0,P|265:128|291:93,1,94.9999952316285,6|10,1:1|0:2,0:0:0:0:
362,40,152634,2,0,L|268:23,1,94.9999952316285,2|10,1:2|0:2,0:0:0:0:
234,44,152965,1,0,1:2:0:0:
234,44,153076,2,0,L|178:50,1,47.4999976158143,2|0,0:2|1:2,0:0:0:0:
169,27,153296,2,0,L|113:21,1,47.4999976158143,14|0,0:1|0:0,0:0:0:0:
100,19,153517,1,2,1:2:0:0:
23,110,153737,1,10,0:2:0:0:
51,214,153958,6,0,P|110:233|122:222,1,47.4999976158143,6|0,1:2|0:0,0:0:0:0:
117,219,154179,2,0,L|218:207,1,94.9999952316285,8|0,0:2|1:0,0:0:0:0:
345,216,154620,5,10,0:2:0:0:
333,338,154840,1,14,0:2:0:0:
211,328,155061,1,6,1:2:0:0:
339,348,155281,6,0,P|397:310|466:343,1,142.499992847443,6|0,1:2|0:0,0:0:0:0:
475,356,155722,6,0,L|485:215,1,94.9999952316285,2|10,1:1|0:2,0:0:0:0:
506,132,156163,1,2,1:2:0:0:
506,141,156274,1,0,1:2:0:0:
506,150,156384,1,8,0:2:0:0:
503,159,156494,2,0,P|438:135|398:161,1,94.9999952316285,2|0,1:1|1:2,0:0:0:0:
411,161,156825,1,10,0:2:0:0:
316,219,157046,1,2,1:2:0:0:
306,218,157156,1,0,1:2:0:0:
296,216,157266,2,0,P|286:186|303:150,1,47.4999976158143,10|0,0:2|0:0,0:0:0:0:
294,135,157487,6,0,P|244:161|184:118,1,94.9999952316285,6|10,1:1|0:2,0:0:0:0:
192,128,157818,2,0,L|139:118,1,47.4999976158143,2|0,0:2|1:2,0:0:0:0:
115,126,158038,2,0,L|52:115,1,47.4999976158143,2|8,1:2|0:2,0:0:0:0:
37,113,158259,2,0,L|49:242,1,94.9999952316285,0|0,1:1|1:2,0:0:0:0:
48,234,158590,1,10,0:1:0:0:
144,302,158811,1,2,1:1:0:0:
46,371,159031,1,10,0:1:0:0:
152,289,159252,6,0,P|212:321|261:285,1,94.9999952316285,6|10,1:1|0:2,0:0:0:0:
253,298,159583,1,2,0:2:0:0:
253,298,159693,1,2,1:2:0:0:
253,298,159803,2,0,P|308:298|319:310,1,47.4999976158143,2|8,1:2|0:2,0:0:0:0:
327,315,160024,2,0,L|337:202,1,94.9999952316285,2|0,1:2|1:2,0:0:0:0:
337,196,160355,1,8,0:2:0:0:
411,128,160575,1,0,1:2:0:0:
414,116,160686,1,0,1:2:0:0:
408,102,160796,1,10,0:1:0:0:
328,49,161016,6,0,L|254:58,1,47.4999976158143,10|8,0:3|0:3,0:0:0:0:
272,74,161237,2,0,L|198:83,1,47.4999976158143,10|8,0:3|0:3,0:0:0:0:
200,62,161458,1,10,0:3:0:0:
88,80,161678,2,0,P|99:108|86:136,1,47.4999976158143,10|8,0:3|0:3,0:0:0:0:
67,148,161899,2,0,P|59:170|76:205,1,47.4999976158143,10|8,0:3|0:3,0:0:0:0:
69,228,162119,5,10,2:2:0:0:
77,224,162230,1,8,2:2:0:0:
86,222,162340,1,10,2:2:0:0:
95,223,162450,1,8,2:2:0:0:
103,226,162561,1,10,2:2:0:0:
111,230,162671,1,8,2:2:0:0:
118,235,162781,6,0,P|171:271|225:247,1,94.9999952316285,6|0,1:1|0:0,0:0:0:0:
216,247,163112,2,0,P|284:228|315:256,1,94.9999952316285,6|0,1:1|0:0,0:0:0:0:
314,265,163443,1,4,1:1:0:0:
394,197,163663,1,8,2:3:0:0:
394,197,163774,1,8,2:3:0:0:
394,197,163884,2,0,L|399:113,1,47.4999976158143,8|8,2:3|2:3,0:0:0:0:
365,128,164105,2,0,L|368:67,1,47.4999976158143,8|8,2:3|2:3,0:0:0:0:
366,56,164325,1,8,2:3:0:0:
366,56,164436,1,8,2:3:0:0:
366,56,164546,6,0,P|455:56|463:89,1,94.9999952316285,6|0,1:1|0:0,0:0:0:0:
477,67,164877,2,0,L|463:184,1,94.9999952316285,6|0,1:1|0:0,0:0:0:0:
485,188,165208,2,0,L|473:290,1,94.9999952316285,6|8,1:1|2:3,0:0:0:0:
354,340,165649,6,0,P|338:321|288:334,1,47.4999976158143,8|8,2:3|2:3,0:0:0:0:
288,327,165869,2,0,P|256:338|230:320,1,47.4999976158143,8|8,2:3|2:3,0:0:0:0:
230,314,166090,2,0,P|202:303|175:318,1,47.4999976158143,8|8,2:3|2:3,0:0:0:0:
161,303,166311,6,0,L|167:242,11,47.4999976158143,14|8|8|8|8|8|8|8|8|8|8|8,0:1|2:2|2:2|2:2|2:2|2:2|2:2|2:2|2:0|2:2|2:2|2:2,0:0:0:0:
112,321,167634,6,0,L|120:367,3,47.4999976158143,14|8|8|8,2:1|2:2|2:2|2:2,0:0:0:0:
65,286,168075,2,0,L|71:238,7,47.4999976158143,14|8|8|8|8|8|8|8,2:1|2:2|2:2|2:2|2:2|2:2|2:2|2:2,0:0:0:0:
38,190,168958,2,0,L|31:142,7,47.4999976158143,14|8|8|8|8|8|8|8,2:1|2:2|2:2|2:2|2:2|2:2|2:2|2:2,0:0:0:0:
37,29,176899,5,6,1:1:0:0:
136,108,177230,1,2,1:1:0:0:
0,159,177561,1,2,1:1:0:0:
72,216,177781,6,0,L|77:269,3,47.4999976158143,0|0|8|8,3:3|3:3|3:3|3:3,0:0:0:0:
109,279,178222,2,0,L|104:332,3,47.4999976158143,8|8|8|8,3:3|3:3|3:3|3:3,0:0:0:0:
103,354,178663,1,6,1:1:0:0:
204,282,178994,1,2,1:1:0:0:
283,354,179325,1,2,1:1:0:0:
376,313,179546,6,0,P|369:287|379:256,1,47.4999976158143,0|0,3:3|3:3,0:0:0:0:
399,251,179766,2,0,P|405:211|385:187,1,47.4999976158143,8|8,3:3|3:3,0:0:0:0:
383,186,179987,2,0,P|375:155|399:121,1,47.4999976158143,8|8,3:3|3:3,0:0:0:0:
399,114,180208,1,8,3:3:0:0:
399,114,180318,1,8,3:3:0:0:
399,114,180428,6,0,P|336:131|293:93,1,94.9999952316285,6|10,1:1|0:1,0:0:0:0:
223,46,180869,1,0,1:2:0:0:
223,46,180979,1,0,1:2:0:0:
223,46,181090,2,0,L|229:117,1,47.4999976158143,10|0,0:2|1:2,0:0:0:0:
218,119,181311,2,0,L|224:178,1,47.4999976158143,2|0,0:2|1:2,0:0:0:0:
218,195,181531,2,0,L|225:300,1,94.9999952316285,10|2,0:2|1:1,0:0:0:0:
114,341,181972,6,0,P|97:315|113:274,1,47.4999976158143,10|0,0:2|0:0,0:0:0:0:
115,275,182193,2,0,P|128:255|97:204,1,47.4999976158143,2|0,1:2|0:0,0:0:0:0:
105,212,182413,2,0,P|96:182|122:153,1,47.4999976158143,10|0,0:2|0:0,0:0:0:0:
130,158,182634,1,2,1:2:0:0:
130,158,182744,1,0,1:2:0:0:
130,158,182855,1,10,0:1:0:0:
125,41,183075,5,6,1:1:0:0:
201,96,183296,1,6,1:1:0:0:
281,40,183516,1,6,1:1:0:0:
465,41,183958,6,0,B|457:81|457:81|459:92|459:92|452:139,1,94.9999952316285,6|10,1:1|0:1,0:0:0:0:
426,166,184288,1,0,0:0:0:0:
426,166,184399,2,0,P|435:214|423:228,2,47.4999976158143,2|0|8,1:2|1:2|0:2,0:0:0:0:
332,207,184840,1,2,0:2:0:0:
332,207,184950,2,0,L|242:194,1,47.4999976158143,0|8,1:2|0:2,0:0:0:0:
252,192,185171,1,0,0:0:0:0:
252,192,185281,2,0,P|200:160|162:188,1,94.9999952316285,2|10,1:1|0:2,0:0:0:0:
79,122,185722,6,0,P|89:215|88:249,1,94.9999952316285,6|8,1:2|0:2,0:0:0:0:
77,240,186053,1,0,0:0:0:0:
77,240,186163,2,0,P|45:229|6:243,2,47.4999976158143,2|0|10,1:2|1:2|0:1,0:0:0:0:
145,316,186605,1,0,0:0:0:0:
145,316,186715,2,0,P|170:302|215:314,1,47.4999976158143,0|8,1:2|0:2,0:0:0:0:
227,311,186935,2,0,P|258:260|234:213,1,94.9999952316285,0|0,0:0|1:2,0:0:0:0:
233,216,187266,1,14,0:2:0:0:
378,175,187487,6,0,P|367:250|362:284,1,94.9999952316285,6|10,1:1|0:2,0:0:0:0:
467,364,187928,2,0,L|464:260,1,94.9999952316285,2|10,1:2|0:2,0:0:0:0:
485,251,188259,1,0,1:2:0:0:
485,251,188369,2,0,P|494:218|474:186,1,47.4999976158143,2|0,0:2|1:2,0:0:0:0:
471,189,188590,2,0,P|463:165|488:128,1,47.4999976158143,10|0,0:1|0:0,0:0:0:0:
483,128,188810,1,2,1:2:0:0:
461,15,189031,1,10,0:1:0:0:
341,49,189252,6,0,P|323:39|286:47,1,47.4999976158143,10|8,3:3|3:3,0:0:0:0:
280,63,189472,2,0,P|251:67|218:45,1,47.4999976158143,10|8,3:3|3:3,0:0:0:0:
208,45,189693,1,10,3:3:0:0:
208,45,189803,1,8,3:3:0:0:
208,45,189913,2,0,L|207:101,1,47.4999976158143,10|8,3:3|3:3,0:0:0:0:
209,122,190134,1,10,3:3:0:0:
84,71,190355,1,8,0:2:0:0:
57,176,190575,5,8,0:2:0:0:
57,176,190685,1,8,0:2:0:0:
57,176,190796,2,0,P|93:167|126:178,1,47.4999976158143,8|8,0:2|0:2,0:0:0:0:
136,184,191016,6,0,L|120:298,1,94.9999952316285,6|10,1:1|0:2,0:0:0:0:
166,354,191458,2,0,P|208:357|227:381,1,47.4999976158143,2|0,1:2|1:2,0:0:0:0:
241,372,191678,2,0,P|291:324|330:328,1,94.9999952316285,10|0,0:2|0:0,0:0:0:0:
344,338,192009,1,0,1:2:0:0:
344,338,192119,1,10,0:1:0:0:
454,302,192340,5,0,1:2:0:0:
454,302,192450,1,0,1:2:0:0:
454,302,192560,2,0,P|437:237|448:217,1,47.4999976158143,10|0,0:2|0:0,0:0:0:0:
449,239,192781,2,0,P|470:180|451:128,1,94.9999952316285,6|10,1:2|0:2,0:0:0:0:
375,113,193222,2,0,P|367:54|372:45,2,47.4999976158143,2|0|8,1:1|1:2|0:2,0:0:0:0:
346,137,193553,1,0,1:2:0:0:
346,137,193663,2,0,P|275:116|223:128,1,94.9999952316285,2|8,0:2|0:2,0:0:0:0:
176,187,194105,5,0,1:2:0:0:
70,101,194325,2,0,P|83:151|80:162,1,47.4999976158143,10|0,0:1|0:0,0:0:0:0:
68,165,194546,2,0,P|52:211|79:274,1,94.9999952316285,6|10,1:2|0:2,0:0:0:0:
154,277,194987,1,0,1:2:0:0:
154,277,195097,1,0,1:2:0:0:
154,277,195208,2,0,P|189:264|238:305,2,94.9999952316285,10|2|10,0:2|0:1|0:2,0:0:0:0:
182,364,195869,1,2,1:2:0:0:
182,364,195980,1,0,1:2:0:0:
182,364,196090,1,10,0:2:0:0:
307,341,196310,6,0,P|287:288|315:251,1,94.9999952316285,6|10,1:2|0:1,0:0:0:0:
367,193,196752,1,2,1:2:0:0:
367,193,196862,1,0,1:2:0:0:
367,193,196972,2,0,P|377:147|346:84,2,94.9999952316285,10|0|8,0:2|0:0|0:2,0:0:0:0:
422,267,197634,1,2,1:1:0:0:
422,267,197744,1,0,1:2:0:0:
422,267,197855,2,0,P|474:250|525:275,1,94.9999952316285,10|6,0:2|1:2,0:0:0:0:
256,192,198185,12,0,201605,1:2:0:0:
416,297,202046,6,0,P|363:262|333:273,1,94.9999952316285,2|8,1:1|0:2,0:0:0:0:
254,326,202487,1,2,0:2:0:0:
254,326,202597,2,0,P|228:298|180:304,1,47.4999976158143,2|8,1:2|0:2,0:0:0:0:
180,313,202818,2,0,P|158:248|201:178,1,142.499992847443,2|10,0:1|0:1,0:0:0:0:
249,116,203369,6,0,L|309:108,2,47.4999976158143,8|8|10,3:3|3:3|3:3,0:0:0:0:
217,67,203700,1,8,3:3:0:0:
217,67,203810,2,0,L|155:62,1,47.4999976158143,10|8,3:3|3:3,0:0:0:0:
134,117,204031,2,0,L|72:122,1,47.4999976158143,10|8,3:3|3:3,0:0:0:0:
50,124,204251,5,10,3:3:0:0:
47,248,204472,1,10,0:2:0:0:
166,254,204693,1,10,0:2:0:0:
166,254,204803,2,0,P|171:281|161:314,2,47.4999976158143,10|8|8,0:2|0:2|0:2,0:0:0:0:
175,229,205134,6,0,P|210:201|276:218,1,94.9999952316285,6|10,1:2|0:1,0:0:0:0:
377,282,205575,2,0,P|403:243|389:168,1,94.9999952316285,2|10,1:1|0:2,0:0:0:0:
381,180,205906,1,2,1:2:0:0:
381,180,206016,2,0,P|358:138|384:77,1,94.9999952316285,2|8,0:2|0:2,0:0:0:0:
369,69,206347,2,0,L|475:64,1,94.9999952316285,2|0,0:1|1:2,0:0:0:0:
488,68,206678,1,10,0:1:0:0:
498,168,206899,1,0,1:2:0:0:
403,196,207119,6,0,P|456:218|500:186,2,94.9999952316285,10|2|8,0:1|1:1|0:2,0:0:0:0:
310,136,207781,1,2,0:2:0:0:
310,136,207891,1,2,1:2:0:0:
229,193,208112,2,0,P|185:178|145:201,1,94.9999952316285,2|0,0:1|1:2,0:0:0:0:
136,221,208443,1,10,0:1:0:0:
152,329,208663,1,0,1:2:0:0:
252,290,208884,6,0,L|265:385,2,94.9999952316285,10|2|8,0:1|1:1|0:2,0:0:0:0:
344,273,209546,1,2,0:2:0:0:
344,273,209656,1,2,1:2:0:0:
440,223,209876,2,0,L|426:352,1,94.9999952316285,2|0,0:1|1:2,0:0:0:0:
423,343,210207,1,10,0:1:0:0:
334,382,210428,1,0,1:2:0:0:
334,382,210538,6,0,P|288:357|234:379,1,94.9999952316285,2|0,0:2|0:0,0:0:0:0:
232,375,210869,1,2,1:2:0:0:
118,341,211090,1,10,0:2:0:0:
153,228,211310,1,2,0:2:0:0:
267,263,211531,1,10,0:2:0:0:
232,375,211751,1,8,0:3:0:0:
96,155,212193,5,6,1:2:0:0:
96,155,212303,1,2,0:2:0:0:
192,110,212524,2,0,L|191:161,1,47.4999976158143,2|10,0:2|0:2,0:0:0:0:
185,242,212855,1,2,0:2:0:0:
185,242,212965,1,2,1:2:0:0:
190,331,213185,2,0,L|245:316,1,47.4999976158143,8|0,0:2|1:2,0:0:0:0:
333,298,213516,6,0,L|322:357,3,47.4999976158143,8|2|2|2,0:2|0:2|0:2|0:2,0:0:0:0:
325,370,213957,5,0,1:2:0:0:
325,370,214068,1,2,0:2:0:0:
429,332,214288,2,0,L|419:273,1,47.4999976158143,2|8,0:2|0:2,0:0:0:0:
407,205,214619,1,2,0:2:0:0:
407,205,214730,1,2,1:2:0:0:
315,205,214950,2,0,L|328:143,1,47.4999976158143,10|2,0:2|1:2,0:0:0:0:
451,109,215281,6,0,L|440:50,3,47.4999976158143,10|2|2|2,0:2|0:0|0:0|0:0,0:0:0:0:
437,34,215722,5,2,1:2:0:0:
437,34,215832,1,2,0:0:0:0:
355,85,216053,2,0,L|300:75,1,47.4999976158143,2|10,0:0|0:2,0:0:0:0:
240,27,216384,1,2,0:0:0:0:
240,27,216494,1,2,1:2:0:0:
181,104,216715,2,0,L|133:97,1,47.4999976158143,10|2,0:2|1:2,0:0:0:0:
45,36,217046,2,0,L|0:48,3,47.4999976158143,10|2|2|2,0:2|0:0|0:0|0:0,0:0:0:0:
76,35,217487,5,2,1:2:0:0:
76,35,217597,1,2,0:0:0:0:
89,120,217818,2,0,L|81:169,1,47.4999976158143,2|10,0:0|0:2,0:0:0:0:
73,252,218149,1,2,0:0:0:0:
73,252,218259,1,2,1:2:0:0:
62,345,218480,2,0,L|117:327,1,47.4999976158143,10|2,0:2|1:2,0:0:0:0:
178,264,218810,6,0,L|236:273,3,47.4999976158143,10|2|2|2,0:2|0:0|0:0|0:0,0:0:0:0:
252,276,219252,5,2,1:2:0:0:
252,276,219362,1,2,0:0:0:0:
344,278,219582,2,0,L|340:226,1,47.4999976158143,2|10,0:0|0:2,0:0:0:0:
337,154,219913,1,2,0:0:0:0:
337,154,220023,1,2,1:2:0:0:
424,132,220244,2,0,L|428:80,1,47.4999976158143,10|2,0:2|1:2,0:0:0:0:
288,14,220575,6,0,L|291:61,3,47.4999976158143,10|2|2|2,0:2|0:0|0:0|0:0,0:0:0:0:
298,81,221016,5,2,1:2:0:0:
298,81,221127,1,2,0:0:0:0:
339,164,221347,2,0,L|329:225,1,47.4999976158143,2|10,0:0|0:2,0:0:0:0:
316,295,221678,1,2,0:0:0:0:
316,295,221788,1,2,1:2:0:0:
419,300,222009,2,0,L|411:253,1,47.4999976158143,10|2,0:2|1:2,0:0:0:0:
244,220,222340,2,0,L|235:153,3,47.4999976158143,10|2|2|2,0:2|0:0|0:0|0:0,0:0:0:0:
234,149,222781,5,2,1:2:0:0:
234,149,222891,1,2,0:0:0:0:
133,114,223112,2,0,L|125:186,1,47.4999976158143,2|10,0:0|0:2,0:0:0:0:
122,250,223443,1,2,0:0:0:0:
122,250,223553,1,2,1:2:0:0:
31,226,223774,2,0,L|27:159,1,47.4999976158143,10|2,0:2|1:2,0:0:0:0:
102,104,224105,6,0,L|111:39,3,47.4999976158143,10|2|2|2,0:2|0:0|0:0|0:0,0:0:0:0:
106,33,224546,6,0,P|184:61|216:33,1,94.9999952316285,6|8,1:2|0:2,0:0:0:0:
226,33,224877,1,8,0:2:0:0:
226,33,224987,2,0,L|214:103,1,47.4999976158143,8|8,0:2|0:2,0:0:0:0:
239,105,225207,2,0,L|251:175,1,47.4999976158143,8|8,0:2|0:2,0:0:0:0:
278,183,225428,6,0,L|326:187,2,31.6666650772095,8|8|8,3:3|3:3|0:3,0:0:0:0:
245,217,225649,2,0,L|197:221,2,31.6666650772095,8|8|8,0:3|0:3|0:3,0:0:0:0:
259,249,225869,1,8,0:3:0:0:
