osu file format v14

[General]
AudioFilename: audio.mp3
AudioLeadIn: 0
PreviewTime: 213982
Countdown: 0
SampleSet: Soft
StackLeniency: 0.2
Mode: 0
LetterboxInBreaks: 0
EpilepsyWarning: 1
WidescreenStoryboard: 1

[Editor]
Bookmarks: 297031
DistanceSpacing: 6
BeatDivisor: 4
GridSize: 32
TimelineZoom: 2.599998

[Metadata]
Title:Konayuki
TitleUnicode:粉雪
Artist:Kaf
ArtistUnicode:花譜
Creator:Yugu
Version:Sleet
Source:1リットルの涙
Tags:Kafu PIEDPIPER KAMITSUBAKI STUDIO 藤巻亮太 Fujimaki Ryouta ROAD TO YOU レミオロメン Ryota Remioromen vtuber バーチャルyoutuber バーチャルユーチューバー virtual youtuber vtb japanese
BeatmapID:2237429
BeatmapSetID:1068748

[Difficulty]
HPDrainRate:5
CircleSize:5
OverallDifficulty:7
ApproachRate:8
SliderMultiplier:2.2
SliderTickRate:1

[Events]
//Background and Video events
0,0,"73.png",0,0
//Break Periods
2,258551,264919
//Storyboard Layer 0 (Background)
//Storyboard Layer 1 (Fail)
//Storyboard Layer 2 (Pass)
//Storyboard Layer 3 (Foreground)
//Storyboard Layer 4 (Overlay)
//Storyboard Sound Samples

[TimingPoints]
791,731.707317073171,4,2,1,20,1,0
791,-133.333333333333,4,2,1,20,0,0
12498,-83.3333333333333,4,2,1,60,0,0
23839,-83.3333333333333,4,3,0,60,0,0
24205,-200,4,2,1,35,0,0
57742,-100,4,2,1,40,0,0
57864,-100,4,2,1,50,0,0
59327,-100,4,2,1,50,0,0
89327,-83.3333333333333,4,2,1,50,0,0
89693,-71.4285714285714,4,2,1,50,0,0
90059,-62.5,4,2,1,50,0,0
91156,-105.263157894737,4,2,1,50,0,0
91522,-90.9090909090909,4,2,1,60,0,0
120059,-71.4285714285714,4,2,1,60,0,0
120791,-66.6666666666667,4,2,1,80,0,1
131400,-66.6666666666667,4,2,1,80,0,0
132132,-66.6666666666667,4,3,0,80,0,0
132498,-66.6666666666667,4,2,1,80,0,1
139815,-166.666666666667,4,2,1,80,0,0
141278,-83.3333333333333,4,2,1,80,0,1
152620,-83.3333333333333,4,2,0,80,0,1
152986,-100,4,2,1,50,0,0
182986,-83.3333333333333,4,2,1,50,0,0
183351,-71.4285714285714,4,2,1,50,0,0
183717,-62.5,4,2,1,50,0,0
184815,-105.263157894737,4,2,1,50,0,0
185181,-90.9090909090909,4,2,1,60,0,0
213717,-71.4285714285714,4,2,1,50,0,0
215181,-66.6666666666667,4,2,1,80,0,1
225791,-66.6666666666667,4,3,0,80,0,1
226156,-66.6666666666667,4,2,1,80,0,1
236034,-83.3333333333333,4,2,1,80,0,1
236766,-66.6666666666667,4,2,1,80,0,1
238961,-83.3333333333333,4,2,1,80,0,1
239693,-66.6666666666667,4,2,1,80,0,1
254693,-50,4,2,1,80,0,1
255059,-74.2390497401633,4,2,1,60,0,0
255150,-74.2390497401633,4,2,1,5,0,0
258351,-74.2390497401633,4,2,1,50,0,0
265669,-66.6666666666667,4,2,0,20,0,0
265714,-66.6666666666667,4,2,0,20,0,0
265760,-66.6666666666667,4,2,0,20,0,0
265806,-66.6666666666667,4,2,0,20,0,0
265851,-66.6666666666667,4,2,0,20,0,0
265897,-66.6666666666667,4,2,0,20,0,0
265943,-66.6666666666667,4,2,0,22,0,0
265989,-66.6666666666667,4,2,0,24,0,0
266034,-66.6666666666667,4,2,0,26,0,0
266080,-66.6666666666667,4,2,0,28,0,0
266126,-66.6666666666667,4,2,0,30,0,0
266172,-66.6666666666667,4,2,0,32,0,0
266217,-66.6666666666667,4,2,0,34,0,0
266263,-66.6666666666667,4,2,0,36,0,0
266309,-66.6666666666667,4,2,0,38,0,0
266355,-66.6666666666667,4,2,0,40,0,0
266400,-66.6666666666667,4,2,0,42,0,0
266446,-66.6666666666667,4,2,0,44,0,0
266492,-66.6666666666667,4,2,0,46,0,0
266537,-66.6666666666667,4,2,0,48,0,0
266583,-66.6666666666667,4,2,0,50,0,0
266629,-66.6666666666667,4,2,0,52,0,0
266675,-66.6666666666667,4,2,0,54,0,0
266720,-66.6666666666667,4,2,0,56,0,0
266766,-66.6666666666667,4,2,0,58,0,0
266812,-66.6666666666667,4,2,0,60,0,0
266858,-66.6666666666667,4,2,0,62,0,0
266903,-66.6666666666667,4,2,0,64,0,0
266949,-66.6666666666667,4,2,0,66,0,0
266995,-66.6666666666667,4,2,0,68,0,0
267041,-74.2390497401633,4,2,0,70,0,0
267132,-66.6666666666667,4,2,1,80,0,1
280669,-66.6666666666667,4,2,1,80,0,0
281766,-66.6666666666667,4,3,0,80,0,0
282132,-66.6666666666667,4,2,1,80,0,0
282498,-66.6666666666667,4,2,1,80,0,1
293108,-66.6666666666667,4,3,0,80,0,1
293473,-66.6666666666667,4,2,1,80,0,1
300791,-166.666666666667,4,2,1,60,0,0
302254,-166.666666666667,4,2,1,5,0,0
303717,731.707317073171,4,2,1,20,1,0
303717,-133.333333333333,4,2,1,20,0,0
315424,-133.333333333333,4,2,1,15,0,0
316887,-133.333333333333,4,2,1,10,0,0
318351,-133.333333333333,4,2,1,5,0,0

[Colours]
Combo1 : 255,202,255
Combo2 : 79,4,179
Combo3 : 250,65,240

[HitObjects]
61,102,791,6,0,B|95:131|139:133|139:133,1,82.5000031471253,2|0,0:0|0:0,0:0:0:0:
194,86,1522,2,0,B|228:57|272:55|272:55,1,82.5000031471253
336,87,2254,2,0,B|370:116|414:118|414:118,1,82.5000031471253,2|0,0:0|0:0,0:0:0:0:
474,79,2986,1,0,0:0:0:0:
474,79,3169,2,0,L|505:28,2,41.2500015735627,2|2|2,0:0|0:0|0:0,0:0:0:0:
443,183,3717,6,0,B|442:235|479:259|479:259,1,82.5000031471253,2|0,0:0|0:0,0:0:0:0:
424,310,4449,2,0,B|425:362|388:386|388:386,1,82.5000031471253
323,353,5181,2,0,B|324:301|287:277|287:277,1,82.5000031471253,2|0,0:0|0:0,0:0:0:0:
217,290,5912,1,0,0:0:0:0:
217,290,6095,2,0,L|174:277,2,41.2500015735627,2|2|2,0:0|0:0|0:0,0:0:0:0:
304,206,6644,6,0,B|318:155|278:104|278:104,1,82.5000031471253,2|0,0:0|0:0,0:0:0:0:
232,81,7376,2,0,B|218:30|258:-21|258:-21,1,82.5000031471253
317,15,8108,2,0,B|331:66|291:117|291:117,1,82.5000031471253,2|0,0:0|0:0,0:0:0:0:
256,151,8839,1,0,0:0:0:0:
256,151,9022,2,0,L|256:209,2,41.2500015735627,2|2|2,0:0|0:0|0:0,0:0:0:0:
231,286,9571,6,0,P|209:251|175:228,1,82.5000031471254,2|0,0:0|0:0,0:0:0:0:
103,207,10303,2,0,P|68:184|47:149,1,82.5000031471254
55,75,11034,2,0,P|33:40|0:17,1,82.5000031471254,2|0,0:0|0:0,0:0:0:0:
123,27,11766,1,0,0:0:0:0:
123,27,11949,2,0,L|182:16,2,41.2500015735627,2|2|2,0:0|0:0|0:0,0:0:0:0:
232,55,12498,6,0,P|293:75|338:123,1,131.99999597168,6|2,2:3|0:0,0:0:0:0:
411,117,13047,1,2,2:3:0:0:
411,117,13230,2,0,P|454:165|469:229,1,131.99999597168,10|2,0:2|2:3,0:0:0:0:
505,292,13778,2,0,P|492:322|468:344,1,65.9999979858399,2|2,2:3|0:0,0:0:0:0:
402,376,14144,1,8,0:0:0:0:
402,376,14327,2,0,P|389:345|365:323,1,65.9999979858399,0|2,0:0|2:3,0:0:0:0:
216,345,14693,5,10,0:2:0:0:
159,299,14876,1,2,0:0:0:0:
170,225,15059,2,0,P|182:194|206:172,1,65.9999979858399,2|2,2:3|2:3,0:0:0:0:
276,151,15425,6,0,P|322:106|339:43,1,131.99999597168,2|0,2:3|0:0,0:0:0:0:
339,43,15973,1,2,2:3:0:0:
406,14,16156,2,0,P|416:45|431:74,2,65.9999979858399,10|2|2,0:2|0:0|0:0,0:0:0:0:
281,1,16705,1,2,2:3:0:0:
281,1,16797,1,8,0:0:0:0:
281,1,16888,2,0,P|260:27|233:45,1,65.9999979858399,10|8,0:2|0:0,0:0:0:0:
160,45,17254,2,0,P|132:63|112:88,1,65.9999979858399,0|2,0:0|2:3,0:0:0:0:
8,165,17620,5,10,0:2:0:0:
22,236,17803,2,0,P|42:261|69:279,2,65.9999979858399,2|2|2,0:0|2:3|2:3,0:0:0:0:
66,379,18351,6,0,P|114:335|178:318,1,131.99999597168,2|0,2:3|0:0,0:0:0:0:
206,251,18900,1,2,2:3:0:0:
206,251,19083,2,0,P|270:237|333:255,1,131.99999597168,8|2,0:0|2:0,0:0:0:0:
391,210,19632,2,0,P|431:219|465:240,1,65.9999979858399,2|2,2:3|0:0,0:0:0:0:
445,303,19998,1,8,0:0:0:0:
445,303,20181,2,0,P|485:294|519:273,1,65.9999979858399,2|2,0:0|2:3,0:0:0:0:
466,145,20547,1,10,0:2:0:0:
466,145,20912,5,2,2:3:0:0:
432,80,21095,1,2,2:3:0:0:
476,23,21278,6,0,P|422:59|357:67,1,131.99999597168,2|0,2:3|0:0,0:0:0:0:
297,108,21827,1,2,2:3:0:0:
297,108,22010,2,0,P|232:116|177:152,1,131.99999597168,8|2,0:0|0:0,0:0:0:0:
100,160,22559,1,2,2:3:0:0:
100,160,22650,1,8,0:0:0:0:
100,160,22742,6,0,P|87:179|71:194,1,43.9999986572266,10|8,0:2|0:0,0:0:0:0:
147,213,22986,1,8,0:0:0:0:
59,279,23108,6,0,P|71:297|87:312,1,43.9999986572266,8|8,0:0|0:0,0:0:0:0:
17,341,23351,1,8,0:0:0:0:
168,351,23473,6,0,P|155:369|139:384,2,43.9999986572266,8|8|8,2:3|2:3|2:3,0:0:0:0:
276,318,23839,2,0,P|297:319|318:326,2,43.9999986572266,4|4|4,3:3|3:3|3:3,0:0:0:0:
243,210,24205,5,2,3:2:0:0:
245,199,24937,2,0,L|263:124,1,55
266,118,25486,2,0,L|276:267,1,137.5,0|0,0:0|3:0,0:0:0:0:
345,298,26766,1,0,0:0:0:0:
414,255,27132,6,0,L|419:186,1,55
433,173,27681,2,0,L|428:104,1,55
426,87,28230,2,0,B|388:75|346:91|346:91|300:109|264:98,1,165,0|0,0:0|3:0,0:0:0:0:
201,45,29693,1,0,0:0:0:0:
124,77,30059,6,0,P|67:134|45:213,1,165,2|0,0:0|0:0,0:0:0:0:
27,234,31339,2,0,P|48:312|105:370,1,165,0|0,3:0|0:0,0:0:0:0:
131,361,32620,1,0,0:0:0:0:
156,371,32803,1,2,0:0:0:0:
164,367,32894,1,2,0:0:0:0:
172,363,32986,6,0,L|202:361,2,27.5,2|2|0,3:2|0:0|0:0,0:0:0:0:
252,99,35181,1,0,3:0:0:0:
252,99,35364,2,0,L|261:146,1,27.5,2|2,0:0|0:0,0:0:0:0:
189,173,35912,6,0,P|240:162|355:204,1,165,2|0,0:0|0:0,0:0:0:0:
364,214,37193,2,0,P|388:225|416:228,1,55,0|0,0:0|3:0,0:0:0:0:
416,228,38108,1,0,3:0:0:0:
454,300,38473,1,2,0:0:0:0:
397,360,38839,6,0,P|373:346|346:341,1,55
320,351,39388,2,0,P|296:364|269:369,1,55
247,352,39937,2,0,P|167:333|87:351,1,165,0|2,0:0|3:2,0:0:0:0:
36,286,41400,1,0,0:0:0:0:
68,209,41766,6,0,P|119:204|205:146,1,137.5,2|0,3:2|0:0,0:0:0:0:
204,136,42864,1,0,0:0:0:0:
214,110,43047,2,0,P|270:72|338:61,1,137.5,0|0,0:0|3:0,0:0:0:0:
407,107,44327,2,0,L|414:152,1,27.5
428,155,44693,5,0,3:0:0:0:
428,155,44937,2,0,L|421:200,2,36.6666666666667,2|2|2,0:0|0:0|3:2,0:0:0:0:
352,193,45669,2,0,L|359:238,2,36.6666666666667,2|2|2,0:0|0:0|3:2,0:0:0:0:
280,151,46522,5,0,0:0:0:0:
254,141,46705,1,0,0:0:0:0:
228,131,46888,1,0,3:0:0:0:
213,106,47071,6,0,P|210:78|217:52,2,55,0|0|0,0:0|3:0|0:0,0:0:0:0:
228,131,47986,2,0,P|234:157|231:184,1,55,0|0,0:0|3:0,0:0:0:0:
61,320,49815,1,2,3:2:0:0:
85,212,50547,1,2,3:2:0:0:
141,272,50912,6,0,L|190:267,1,27.5
191,254,51278,2,0,L|264:261,1,55,0|0,3:0|0:0,0:0:0:0:
272,261,51827,1,0,0:0:0:0:
299,264,52010,1,2,3:2:0:0:
326,267,52193,2,0,L|399:274,2,55
299,264,53108,1,0,3:0:0:0:
304,181,53473,6,0,P|256:61|207:180,1,330,2|0,3:2|3:0,0:0:0:0:
256,131,55851,1,2,0:0:0:0:
256,131,56034,1,2,0:0:0:0:
256,131,56217,1,2,0:0:0:0:
256,231,56400,6,0,B|251:263|238:282|251:301|256:333|256:333|260:301|272:282|260:263|258:246,1,192.5,2|0,3:2|0:0,0:0:0:0:
298,181,57742,2,0,P|305:186|310:194,1,18.3333333333333,2|2,0:0|0:0,0:0:0:0:
361,232,57864,6,0,P|440:215|488:150,1,165,6|2,0:0|2:3,0:0:0:0:
370,376,58595,5,8,0:0:0:0:
338,306,58778,1,2,2:3:0:0:
286,249,58961,1,2,2:3:0:0:
220,211,59144,1,2,2:3:0:0:
145,195,59327,6,0,P|48:147|1:49,1,220,6|8,2:3|0:0,0:0:0:0:
29,248,60425,1,0,0:0:0:0:
7,316,60608,1,0,0:0:0:0:
61,361,60791,2,0,P|117:338|167:333,2,110,2|2|8,2:3|2:3|0:0,0:0:0:0:
210,277,61888,2,0,P|237:280|262:291,1,55
328,264,62254,6,0,P|375:300|405:341,1,110,2|0,2:3|0:0,0:0:0:0:
449,284,62803,1,0,0:0:0:0:
449,284,62986,2,0,P|457:224|477:178,1,110,8|0,0:0|0:0,0:0:0:0:
406,170,63534,1,2,0:0:0:0:
406,170,63626,1,2,0:0:0:0:
406,170,63717,6,0,P|350:193|299:198,1,110,2|0,2:3|0:0,0:0:0:0:
301,198,64266,1,2,2:3:0:0:
182,113,64449,1,8,0:0:0:0:
250,91,64632,1,2,2:3:0:0:
197,44,64815,1,0,0:0:0:0:
183,28,65181,6,0,P|167:137|177:246,1,220,6|8,0:0|0:0,0:0:0:0:
0,277,66278,1,0,0:0:0:0:
53,323,66461,1,0,0:0:0:0:
121,305,66644,2,0,P|174:316|216:350,2,110,2|2|8,2:3|2:3|0:0,0:0:0:0:
287,330,67742,2,0,P|313:325|339:313,1,55
410,321,68108,5,2,2:3:0:0:
410,321,68291,2,0,P|430:303|447:281,1,55
450,94,68839,2,0,P|493:163|510:243,1,165,8|2,0:0|2:3,0:0:0:0:
389,175,69571,2,0,P|410:191|429:212,1,55,2|0,2:3|0:0,0:0:0:0:
324,250,69937,2,0,P|351:253|377:262,1,55,2|2,2:3|0:0,0:0:0:0:
256,368,70303,1,10,0:2:0:0:
256,344,70669,2,0,P|252:303|242:263,1,82.5,2|0,0:0|0:0,0:0:0:0:
254,229,71034,6,0,P|236:122|260:15,1,220,6|8,0:0|0:0,0:0:0:0:
22,93,72132,1,0,0:0:0:0:
93,86,72315,1,0,0:0:0:0:
134,143,72498,2,0,P|148:195|148:253,2,110,2|2|8,2:3|2:3|0:0,0:0:0:0:
199,301,73595,2,0,P|184:324|165:343,1,55,0|2,0:0|0:0,0:0:0:0:
93,341,73870,1,2,0:0:0:0:
93,341,73961,6,0,P|147:346|197:369,1,110,2|0,2:3|0:0,0:0:0:0:
267,352,74510,1,0,0:0:0:0:
267,352,74693,2,0,P|321:346|371:323,1,110,8|2,0:0|0:0,0:0:0:0:
441,311,75242,1,2,0:0:0:0:
441,311,75425,5,2,2:3:0:0:
418,244,75608,1,2,0:0:0:0:
418,173,75791,1,2,0:0:0:0:
442,106,75973,1,2,2:3:0:0:
372,120,76156,5,10,0:2:0:0:
326,66,76339,1,2,2:3:0:0:
264,31,76522,1,2,0:0:0:0:
194,18,76705,1,2,0:0:0:0:
217,85,76888,6,0,P|133:153|26:166,1,220,2|8,2:3|0:0,0:0:0:0:
78,363,77986,1,0,0:0:0:0:
101,295,78169,1,0,0:0:0:0:
171,280,78351,2,0,P|227:274|287:233,2,110,2|2|8,2:3|2:3|0:0,0:0:0:0:
340,263,79449,2,0,P|352:238|357:211,1,55
416,169,79815,5,2,2:3:0:0:
416,169,79998,2,0,P|414:141|405:115,1,55,2|2,0:0|0:0,0:0:0:0:
221,14,80547,2,0,P|293:52|334:121,1,165,8|2,0:0|2:3,0:0:0:0:
293,180,81278,1,2,2:3:0:0:
293,179,81644,2,0,P|263:209|246:246,1,82.5,2|0,2:3|0:0,0:0:0:0:
214,263,82010,2,0,P|225:289|240:312,1,55,8|0,0:0|0:0,0:0:0:0:
272,376,82376,1,2,0:0:0:0:
272,376,82559,1,2,0:0:0:0:
315,320,82742,6,0,P|424:326|517:383,1,220,6|8,0:0|0:0,0:0:0:0:
356,231,83839,1,0,0:0:0:0:
166,313,84205,2,0,P|138:309|113:299,1,55,2|0,2:3|0:0,0:0:0:0:
42,312,84571,2,0,P|20:295|2:274,1,55,2|0,2:3|0:0,0:0:0:0:
49,219,84937,1,10,0:2:0:0:
49,219,85120,2,0,P|70:202|88:181,1,55,2|0,0:0|0:0,0:0:0:0:
0,23,85669,6,0,P|19:74|54:116,1,110,2|0,2:3|0:0,0:0:0:0:
222,192,86400,1,8,0:0:0:0:
291,175,86583,1,0,0:0:0:0:
310,106,86766,1,0,0:0:0:0:
310,106,87132,6,0,P|360:85|414:80,1,110,2|0,2:3|0:0,0:0:0:0:
479,46,87681,1,0,0:0:0:0:
461,158,87864,1,8,0:0:0:0:
494,221,88047,1,2,2:3:0:0:
443,270,88230,1,2,0:0:0:0:
453,287,88595,6,0,P|416:270|377:259,1,82.5,6|0,2:3|0:0,0:0:0:0:
352,231,88961,6,0,P|337:255|326:280,1,55,8|0,0:0|0:0,0:0:0:0:
150,185,89327,6,0,P|167:212|180:242,1,65.9999979858399,8|0,0:0|0:0,0:0:0:0:
379,72,89693,6,0,P|358:104|343:139,1,76.9999976501466,8|0,0:0|0:0,0:0:0:0:
139,52,90059,6,0,P|149:71|156:92,1,44,6|0,0:0|0:0,0:0:0:0:
226,166,90242,2,0,P|235:146|242:125,1,44,2|0,2:3|0:0,0:0:0:0:
63,40,90425,5,10,0:2:0:0:
215,64,90608,1,2,2:3:0:0:
118,183,90791,5,8,2:3:0:0:
91,112,90973,1,8,2:3:0:0:
164,123,91156,2,0,P|201:136|225:166,1,78.3749979071618,8|0,2:3|0:0,0:0:0:0:
245,189,91522,6,0,L|232:329,1,121.000003692627,6|2,0:0|2:3,0:0:0:0:
363,215,92254,2,0,L|370:299,1,60.5000018463135,8|0,0:0|0:0,0:0:0:0:
433,365,92620,2,0,L|440:281,1,60.5000018463135,0|2,0:0|2:3,0:0:0:0:
486,167,92986,2,0,L|402:174,1,60.5000018463135,2|0,2:3|0:0,0:0:0:0:
302,220,93351,2,0,L|386:212,1,60.5000018463135,2|2,2:3|0:0,0:0:0:0:
381,69,93717,5,10,0:2:0:0:
298,49,93900,1,2,0:0:0:0:
229,98,94083,1,2,0:0:0:0:
224,109,94449,5,2,0:0:0:0:
141,129,94632,1,0,0:0:0:0:
72,80,94815,2,0,L|67:0,1,60.5000018463135
0,217,95181,1,8,0:0:0:0:
6,206,95547,5,0,0:0:0:0:
89,186,95730,1,2,2:3:0:0:
158,235,95912,2,0,L|163:315,1,60.5000018463135,2|0,2:3|0:0,0:0:0:0:
294,369,96278,5,2,2:3:0:0:
301,284,96461,1,0,0:0:0:0:
309,199,96644,1,8,0:0:0:0:
420,262,96827,2,0,L|410:116,1,121.000003692627
491,33,97376,6,0,P|431:33|382:68,1,121.000003692627,6|2,2:3|2:3,0:0:0:0:
205,130,98108,2,0,P|177:143|148:150,1,60.5000018463135,8|0,0:0|0:0,0:0:0:0:
56,195,98473,1,0,0:0:0:0:
56,195,98656,1,2,2:3:0:0:
56,195,98839,2,0,P|99:207|135:234,1,90.7500027694703,2|0,2:3|0:0,0:0:0:0:
164,245,99205,2,0,L|161:318,1,60.5000018463135,2|0,2:3|0:0,0:0:0:0:
256,192,99571,2,0,L|259:265,1,60.5000018463135,8|0,0:0|0:0,0:0:0:0:
348,245,99937,2,0,L|345:318,1,60.5000018463135,2|0,0:0|0:0,0:0:0:0:
256,352,100303,5,6,2:3:0:0:
299,120,100669,1,2,2:3:0:0:
77,199,101034,1,10,0:2:0:0:
256,352,101400,1,2,0:0:0:0:
256,352,101583,1,2,2:3:0:0:
204,287,101766,5,2,2:3:0:0:
287,274,101949,1,2,2:3:0:0:
339,339,102132,1,10,0:2:0:0:
256,352,102315,1,2,2:3:0:0:
251,185,102498,6,0,P|279:175|304:158,1,60.5000018463135,8|8,0:0|2:3,0:0:0:0:
351,87,102864,2,0,P|376:70|404:60,1,60.5000018463135,8|8,2:3|2:3,0:0:0:0:
466,2,103230,6,0,P|481:67|460:130,1,121.000003692627,6|2,0:0|2:3,0:0:0:0:
46,2,103961,2,0,P|31:67|52:130,1,121.000003692627,8|0,0:0|0:0,0:0:0:0:
87,192,104510,1,2,2:3:0:0:
44,265,104693,2,0,P|30:324|46:382,1,121.000003692627,2|2,2:3|2:3,0:0:0:0:
225,325,105425,5,10,0:2:0:0:
306,346,105608,1,2,0:0:0:0:
367,288,105791,1,0,0:0:0:0:
370,276,106156,6,0,P|403:213|453:173,1,121.000003692627,6|0,0:0|0:0,0:0:0:0:
476,103,106705,1,0,0:0:0:0:
476,103,106888,2,0,P|404:105|345:82,1,121.000003692627,8|0,0:0|0:0,0:0:0:0:
274,98,107437,1,2,2:3:0:0:
274,98,107620,2,0,P|312:158|321:221,1,121.000003692627,2|2,2:3|2:3,0:0:0:0:
242,238,108169,5,2,0:0:0:0:
233,235,108260,1,2,0:0:0:0:
224,232,108351,1,10,0:2:0:0:
139,238,108534,1,2,0:0:0:0:
101,314,108717,1,2,0:0:0:0:
147,384,108900,1,2,0:0:0:0:
0,233,109083,6,0,P|57:216|101:175,1,121.000003692627,6|2,0:0|2:3,0:0:0:0:
241,40,109815,2,0,P|184:58|140:99,1,121.000003692627,8|0,0:0|0:0,0:0:0:0:
183,172,110364,1,2,2:3:0:0:
183,172,110547,2,0,P|214:175|241:187,1,60.5000018463135,2|0,2:3|0:0,0:0:0:0:
304,241,110912,2,0,P|331:252|361:255,1,60.5000018463135,2|0,2:3|0:0,0:0:0:0:
447,256,111278,2,0,P|477:258|504:270,1,60.5000018463135,10|0,0:2|0:0,0:0:0:0:
447,333,111644,2,0,P|416:335|389:347,1,60.5000018463135
272,379,112010,6,0,P|212:373|158:345,1,121.000003692627,6|2,0:0|2:3,0:0:0:0:
248,174,112742,1,10,0:2:0:0:
332,179,112925,1,2,0:0:0:0:
380,109,113108,1,2,0:0:0:0:
374,98,113291,6,0,L|444:84,2,60.5000018463135,2|2|2,2:3|2:3|2:3,2:3:0:0:
290,93,113839,6,0,P|264:76|235:68,1,60.5000018463135,10|2,0:2|0:0,0:0:0:0:
95,41,114205,2,0,P|121:57|150:66,1,60.5000018463135,10|8,0:2|2:3,0:0:0:0:
234,223,114571,1,8,2:3:0:0:
233,140,114754,1,8,2:3:0:0:
28,276,114937,5,6,2:3:0:0:
104,310,115120,1,2,0:0:0:0:
184,289,115303,2,0,P|234:299|305:349,1,121.000003692627,2|8,0:0|0:0,0:0:0:0:
498,163,116034,5,2,2:3:0:0:
422,197,116217,1,2,2:3:0:0:
342,176,116400,2,0,P|292:186|221:236,1,121.000003692627,2|0,0:0|0:0,0:0:0:0:
233,222,116949,1,2,2:3:0:0:
204,54,117132,2,0,P|198:104|154:179,1,121.000003692627,10|2,0:2|2:3,0:0:0:0:
172,230,117681,1,0,0:0:0:0:
0,291,117864,2,0,P|46:270|133:270,1,121.000003692627,10|2,0:2|2:3,0:0:0:0:
172,230,118412,1,2,2:3:0:0:
308,349,118595,2,0,P|266:318|223:243,1,121.000003692627,8|2,0:0|2:3,0:0:0:0:
172,230,119144,1,2,2:3:0:0:
172,230,119327,5,0,0:0:0:0:
308,168,119510,2,0,P|323:194|332:222,1,60.5000018463135,8|0,0:0|0:0,0:0:0:0:
340,92,119876,5,2,2:3:0:0:
204,30,120059,2,0,P|188:56|179:84,2,51.3333317667644,2|2|2,1:3|1:3|1:3,0:0:0:0:
308,30,120425,2,0,P|323:56|332:84,2,51.3333317667644,8|8|8,2:3|2:3|2:3,0:0:0:0:
220,219,120791,6,0,P|255:129|291:219,1,247.500009441376,6|2,2:3|2:3,0:0:0:0:
188,297,121522,2,0,P|141:256|83:237,1,123.750004720688,8|0,0:0|0:0,0:0:0:0:
29,190,121888,1,2,2:3:0:0:
144,137,122071,1,2,0:0:0:0:
43,298,122254,6,0,P|89:338|147:357,1,123.750004720688,2|0,2:3|0:0,0:0:0:0:
218,359,122620,1,8,0:0:0:0:
218,359,122803,1,2,2:3:0:0:
333,255,122986,5,8,2:3:0:0:
371,294,123108,1,8,2:3:0:0:
318,308,123230,1,8,2:3:0:0:
340,260,123351,5,8,1:3:0:0:
362,298,123473,1,8,2:3:0:0:
319,297,123595,1,8,2:3:0:0:
466,208,123717,6,0,P|465:269|451:329,1,123.750004720688,6|0,2:3|0:0,0:0:0:0:
395,371,124083,2,0,P|384:331|361:297,1,82.5000031471254,2|2,0:0|2:3,0:0:0:0:
259,259,124449,2,0,P|202:235|161:189,1,123.750004720688,8|0,0:0|0:0,0:0:0:0:
177,121,124815,1,2,2:3:0:0:
0,22,124998,6,0,P|68:67|108:138,1,165.000006294251,2|8,2:3|0:0,0:0:0:0:
108,139,125547,1,0,0:0:0:0:
332,91,125730,2,0,P|250:85|176:120,1,165.000006294251,2|0,2:3|0:0,0:0:0:0:
373,162,126278,1,2,2:3:0:0:
512,45,126461,1,2,2:3:0:0:
512,45,126644,6,0,P|430:50|356:15,1,165.000006294251,6|0,2:3|0:0,0:0:0:0:
457,150,127193,1,2,2:3:0:0:
325,235,127376,2,0,P|348:291|397:337,1,123.750004720688,8|0,0:0|0:0,0:0:0:0:
340,381,127742,1,2,2:3:0:0:
481,220,127925,6,0,P|410:256|392:334,1,165.000006294251,2|8,2:3|0:0,0:0:0:0:
256,280,128473,1,0,0:0:0:0:
140,369,128656,2,0,P|60:352|-2:286,1,165.000006294251,2|0,2:3|0:0,0:0:0:0:
101,61,129205,1,2,2:3:0:0:
177,297,129388,1,2,2:3:0:0:
0,226,129571,6,0,P|37:177|92:150,1,123.750004720688,6|0,2:3|0:0,0:0:0:0:
161,162,129937,1,2,1:3:0:0:
161,162,130120,1,2,2:3:0:0:
288,226,130303,6,0,P|247:227|210:210,1,82.5000031471254,8|2,0:2|2:3,0:0:0:0:
380,80,130669,1,2,2:3:0:0:
407,199,130851,1,2,2:3:0:0:
261,107,131034,2,0,B|199:33|310:23|268:98,1,123.750004720688,4|0,0:0|0:0,0:0:0:0:
176,83,131400,6,0,P|175:55|183:29,1,55.0000020980836,2|2,1:3|1:3,0:0:0:0:
329,20,131644,1,2,1:3:0:0:
182,94,131766,5,8,2:3:0:0:
335,29,131888,2,0,P|343:55|343:83,1,55.0000020980836,8|8,2:3|2:3,0:0:0:0:
224,160,132132,5,4,0:3:0:0:
296,184,132254,1,4,0:3:0:0:
253,192,132376,1,4,0:3:0:0:
428,130,132498,6,0,P|475:219|374:212,1,247.500009441376,6|2,2:3|2:3,0:0:0:0:
235,306,133230,2,0,P|174:299|118:325,1,123.750004720688,8|0,0:0|0:0,0:0:0:0:
48,320,133595,1,2,2:3:0:0:
298,333,133778,2,0,P|338:327|373:305,1,82.5000031471254,2|0,2:3|0:0,0:0:0:0:
432,169,134144,6,0,P|433:209|418:248,1,82.5000031471254,8|0,0:0|0:0,0:0:0:0:
241,377,134510,1,2,2:3:0:0:
330,245,134693,2,0,P|337:189|317:113,1,123.750004720688,8|0,0:0|0:0,0:0:0:0:
346,57,135059,1,2,2:3:0:0:
256,157,135242,1,2,2:3:0:0:
166,57,135425,5,6,0:0:0:0:
166,57,135791,2,0,P|126:63|89:81,1,82.5000031471254,0|2,0:0|2:3,0:0:0:0:
60,177,136156,2,0,P|41:235|49:296,1,123.750004720688,8|0,0:0|0:0,0:0:0:0:
110,328,136522,1,2,2:3:0:0:
187,167,136705,6,0,P|210:244|180:320,1,165.000006294251,2|8,2:3|0:0,0:0:0:0:
349,384,137254,1,0,0:0:0:0:
391,297,137437,2,0,P|310:308|255:366,1,165.000006294251
255,366,137986,1,2,2:3:0:0:
369,217,138169,1,2,2:3:0:0:
369,217,138351,6,0,P|431:214|483:182,1,123.750004720688,6|0,0:0|0:0,0:0:0:0:
474,112,138717,2,0,P|412:108|360:76,1,123.750004720688,8|0,0:0|0:0,0:0:0:0:
301,37,139083,2,0,P|239:41|187:73,1,123.750004720688,8|0,0:0|0:0,0:0:0:0:
128,112,139449,2,0,P|66:108|14:76,1,123.750004720688,8|0,0:0|0:0,0:0:0:0:
37,9,139815,6,0,B|105:0|151:45|151:45|192:89|264:77,1,247.4999924469,2|0,3:2|0:0,0:0:0:0:
291,58,141278,6,0,P|351:57|460:142,1,197.99999395752,6|2,2:3|2:3,0:0:0:0:
508,196,142010,2,0,P|503:262|471:319,1,131.99999597168,10|2,0:2|2:3,0:0:0:0:
422,382,142559,1,2,2:3:0:0:
353,342,142742,1,2,0:0:0:0:
353,342,142925,6,0,P|321:343|289:353,1,65.9999979858399,8|0,0:0|0:0,0:0:0:0:
225,305,143291,1,2,2:3:0:0:
152,335,143473,2,0,P|119:333|87:323,1,65.9999979858399,8|0,0:0|0:0,0:0:0:0:
32,191,143839,2,0,P|54:215|69:245,1,65.9999979858399,2|2,2:3|2:3,0:0:0:0:
85,119,144205,6,0,P|158:183|254:205,1,197.99999395752,2|2,2:3|2:3,0:0:0:0:
332,193,144937,2,0,P|395:208|447:248,1,131.99999597168,8|2,0:0|0:0,0:0:0:0:
484,318,145486,1,2,2:3:0:0:
482,324,145577,1,8,0:0:0:0:
480,330,145669,6,0,P|447:332|416:343,1,65.9999979858399,2|8,2:3|0:0,0:0:0:0:
337,333,146034,2,0,P|309:351|288:376,1,65.9999979858399,2|2,0:0|2:3,0:0:0:0:
212,348,146400,2,0,P|167:366|118:370,1,98.9999969787599,10|0,0:2|0:0,0:0:0:0:
92,348,146766,1,2,2:3:0:0:
23,307,146949,1,2,2:3:0:0:
163,277,147132,6,0,P|237:213|253:117,1,197.99999395752,2|2,2:3|2:3,0:0:0:0:
203,54,147864,2,0,P|171:110|169:176,1,131.99999597168,8|2,0:0|2:3,0:0:0:0:
107,224,148412,1,2,2:3:0:0:
42,70,148595,5,2,2:3:0:0:
100,108,148778,1,10,0:2:0:0:
168,126,148961,1,2,0:0:0:0:
239,120,149144,1,2,2:3:0:0:
286,174,149327,6,0,L|274:221,1,32.99999899292,8|8,0:0|0:0,0:0:0:0:
344,136,149510,1,2,0:0:0:0:
412,118,149693,1,2,2:3:0:0:
483,124,149876,1,2,2:3:0:0:
442,184,150059,6,0,P|437:282|474:372,1,197.99999395752,2|2,2:3|2:3,0:0:0:0:
337,262,150791,2,0,P|357:325|395:379,1,131.99999597168,8|2,0:0|0:0,0:0:0:0:
284,358,151339,2,0,P|295:370|308:380,1,32.99999899292,2|8,2:3|0:0,0:0:0:0:
227,309,151522,6,0,P|206:301|184:299,1,43.9999986572266,10|8,0:2|0:0,0:0:0:0:
122,356,151766,1,8,0:0:0:0:
134,242,151888,6,0,P|117:256|104:273,1,43.9999986572266,10|8,0:2|0:0,0:0:0:0:
122,356,152132,1,8,0:0:0:0:
30,289,152254,6,0,P|33:310|42:330,2,43.9999986572266,8|8|8,2:3|2:3|2:3,0:0:0:0:
134,242,152620,2,0,P|143:222|146:200,2,43.9999986572266,4|4|4,3:3|3:3|3:3,0:0:0:0:
39,143,152986,6,0,P|110:56|230:8,1,220,6|8,2:3|0:0,0:0:0:0:
284,199,154083,1,0,0:0:0:0:
281,127,154266,1,0,0:0:0:0:
215,103,154449,2,0,P|170:143|124:165,2,110,2|2|8,2:3|2:3|0:0,0:0:0:0:
318,34,155547,2,0,P|345:37|370:48,1,55
436,21,155912,6,0,P|483:57|505:91,1,82.5,6|0,2:3|0:0,0:0:0:0:
498,103,156278,1,0,0:0:0:0:
463,165,156461,2,0,P|466:220|446:271,1,110
438,342,157010,1,0,0:0:0:0:
371,315,157193,1,2,0:0:0:0:
368,319,157284,1,2,0:0:0:0:
365,322,157376,6,0,P|297:321|240:284,1,137.5,2|0,2:3|0:0,0:0:0:0:
238,256,157925,1,2,2:3:0:0:
102,365,158108,1,8,0:0:0:0:
170,343,158291,1,2,2:3:0:0:
117,296,158473,1,0,0:0:0:0:
102,280,158839,6,0,P|88:172|21:86,1,220,6|8,2:3|0:0,0:0:0:0:
308,159,159937,1,0,0:0:0:0:
288,227,160120,1,0,0:0:0:0:
222,250,160303,2,0,P|184:289|169:341,2,110,2|2|8,2:3|2:3|0:0,0:0:0:0:
397,145,161400,2,0,P|417:127|433:104,1,55
500,79,161766,5,2,2:3:0:0:
500,79,161949,2,0,P|508:53|511:25,1,55
300,195,162498,2,0,P|264:268|266:350,1,165,8|2,0:0|2:3,0:0:0:0:
373,265,163230,2,0,P|355:284|340:308,1,55,2|0,2:3|0:0,0:0:0:0:
451,328,163595,2,0,P|424:335|400:349,1,55,2|2,2:3|0:0,0:0:0:0:
189,272,163961,1,10,0:2:0:0:
180,250,164327,2,0,P|143:234|103:224,1,82.5,2|0,0:0|0:0,0:0:0:0:
67,222,164693,6,0,P|123:218|294:164,1,220,6|8,2:3|0:0,0:0:0:0:
385,383,165791,1,0,0:0:0:0:
329,338,165973,1,0,0:0:0:0:
257,339,166156,2,0,P|274:288|307:241,2,110,2|2|8,2:3|2:3|0:0,0:0:0:0:
344,179,167254,2,0,P|333:153|317:131,1,55,0|2,0:0|0:0,0:0:0:0:
257,90,167529,1,2,0:0:0:0:
257,90,167620,6,0,P|280:40|314:6,1,82.5,2|0,2:3|0:0,0:0:0:0:
324,9,167986,1,0,0:0:0:0:
374,59,168169,2,0,P|397:108|440:141,1,110
499,182,168717,2,0,P|507:208|511:235,1,55,2|2,0:0|0:0,0:0:0:0:
414,317,169083,5,2,2:3:0:0:
344,303,169266,1,2,0:0:0:0:
282,267,169449,1,2,0:0:0:0:
236,213,169632,1,2,2:3:0:0:
214,281,169815,5,10,0:2:0:0:
144,294,169998,1,2,2:3:0:0:
83,330,170181,1,2,0:0:0:0:
36,384,170364,1,2,0:0:0:0:
11,316,170547,6,0,P|30:205|7:99,1,220,6|8,2:3|0:0,1:0:0:0:
179,33,171644,1,0,0:0:0:0:
210,96,171827,1,0,0:0:0:0:
170,157,172010,2,0,P|134:200|121:272,2,110,2|2|8,2:3|2:3|0:0,0:0:0:0:
346,224,173108,2,0,P|343:251|334:277,1,55
364,343,173473,5,2,2:3:0:0:
364,343,173656,2,0,P|348:366|327:384,1,55,2|2,0:0|0:0,0:0:0:0:
43,308,174205,2,0,P|25:228|52:152,1,165,8|2,0:0|2:3,0:0:0:0:
117,119,174937,1,2,2:3:0:0:
302,188,175303,2,0,P|323:205|337:228,1,55,2|0,2:3|0:0,0:0:0:0:
388,278,175669,2,0,P|409:260|423:237,1,55,8|0,0:0|0:0,0:0:0:0:
490,212,176034,1,2,0:0:0:0:
490,212,176218,1,2,0:0:0:0:
482,141,176400,6,0,P|377:107|293:38,1,220,6|10,2:3|0:2,0:0:0:0:
132,128,177498,1,0,0:0:0:0:
0,0,177864,2,0,P|10:26|14:52,1,55,2|0,2:3|0:0,0:0:0:0:
61,107,178230,2,0,P|57:134|48:160,1,55,2|0,2:3|0:0,0:0:0:0:
5,217,178595,1,10,0:2:0:0:
5,217,178778,2,0,P|8:244|17:270,1,55,2|0,0:0|0:0,0:0:0:0:
141,384,179327,5,2,2:3:0:0:
348,253,179693,2,0,P|351:280|344:306,1,55
299,362,180059,1,8,0:0:0:0:
256,304,180242,2,0,P|260:249|291:204,1,110
356,174,180791,5,2,2:3:0:0:
420,143,180973,2,0,P|415:88|384:43,1,110,0|2,0:0|2:3,0:0:0:0:
313,54,181522,1,8,0:0:0:0:
265,107,181705,1,2,2:3:0:0:
201,76,181888,1,2,2:3:0:0:
189,89,182254,6,0,P|194:49|183:9,1,82.5,6|0,2:3|0:0,0:0:0:0:
148,4,182620,6,0,P|133:28|122:53,1,55,8|0,0:0|0:0,0:0:0:0:
364,40,182986,6,0,P|381:68|394:97,1,65.9999979858399,8|0,0:0|0:0,0:0:0:0:
128,156,183351,6,0,P|107:188|92:223,1,76.9999976501466,8|0,0:0|0:0,0:0:0:0:
387,200,183717,6,0,P|398:218|407:238,1,44,6|0,0:0|0:0,0:0:0:0:
332,327,183900,2,0,P|340:306|352:288,1,44,2|0,2:3|0:0,0:0:0:0:
471,275,184083,5,10,0:2:0:0:
281,384,184266,1,2,2:3:0:0:
312,187,184449,5,8,2:3:0:0:
339,258,184632,1,8,2:3:0:0:
266,247,184815,2,0,P|229:234|205:204,1,78.3749979071618,8|0,2:3|0:0,0:0:0:0:
195,165,185181,6,0,L|124:171,1,60.5000018463135,6|0,0:0|0:0,0:0:0:0:
8,142,185547,2,0,L|78:135,1,60.5000018463135,2|0,2:3|0:0,0:0:0:0:
124,34,185912,2,0,L|130:95,1,60.5000018463135,8|0,0:0|0:0,0:0:0:0:
77,271,186278,2,0,L|70:187,1,60.5000018463135,0|2,0:0|2:3,0:0:0:0:
203,134,186644,2,0,L|273:140,1,60.5000018463135,2|0,2:3|0:0,0:0:0:0:
390,111,187010,2,0,L|320:104,1,60.5000018463135,2|0,2:3|0:0,0:0:0:0:
299,280,187376,5,10,0:2:0:0:
382,300,187559,1,2,0:0:0:0:
451,251,187742,1,2,0:0:0:0:
456,261,188108,5,2,2:3:0:0:
387,310,188290,1,0,0:0:0:0:
304,290,188473,2,0,P|277:275|247:269,1,60.5000018463135
208,166,188839,5,8,0:0:0:0:
139,117,189022,1,0,0:0:0:0:
56,136,189205,2,0,P|29:150|0:156,1,60.5000018463135,0|2,0:0|2:3,0:0:0:0:
23,316,189571,5,2,2:3:0:0:
107,326,189754,1,0,0:0:0:0:
191,336,189937,2,0,L|270:346,1,60.5000018463135,2|0,2:3|0:0,0:0:0:0:
317,216,190303,5,8,0:0:0:0:
401,206,190486,1,0,0:0:0:0:
436,282,190669,1,0,0:0:0:0:
374,338,190851,1,0,0:0:0:0:
301,296,191034,6,0,P|274:281|245:275,2,60.5000018463135,6|0|2,2:3|0:0|2:3,0:0:0:0:
301,88,191766,2,0,P|274:102|245:108,1,60.5000018463135,8|0,0:0|0:0,0:0:0:0:
175,158,192132,1,0,0:0:0:0:
175,158,192315,1,2,2:3:0:0:
175,158,192498,6,0,P|132:146|96:119,1,90.7500027694703,2|0,2:3|0:0,0:0:0:0:
66,108,192864,2,0,L|78:28,1,60.5000018463135,2|0,2:3|0:0,0:0:0:0:
175,158,193230,2,0,L|187:238,1,60.5000018463135,8|0,0:0|0:0,0:0:0:0:
72,315,193595,2,0,L|84:235,1,60.5000018463135,2|0,0:0|0:0,0:0:0:0:
208,359,193961,5,4,0:0:0:0:
158,63,194327,1,2,2:3:0:0:
439,167,194693,1,10,0:2:0:0:
208,359,195059,1,2,0:0:0:0:
208,359,195242,1,2,2:3:0:0:
196,274,195425,5,2,2:3:0:0:
154,202,195608,1,2,2:3:0:0:
88,151,195791,1,10,0:2:0:0:
7,128,195974,1,2,2:3:0:0:
194,93,196156,6,0,P|222:83|247:66,1,60.5000018463135,8|8,0:0|2:3,0:0:0:0:
298,133,196522,2,0,P|323:150|351:160,1,60.5000018463135,8|8,2:3|2:3,0:0:0:0:
421,209,196888,6,0,P|436:274|415:337,1,121.000003692627,6|2,0:0|2:3,0:0:0:0:
89,325,197620,2,0,P|75:266|91:209,1,121.000003692627,8|2,0:0|2:3,0:0:0:0:
177,267,198169,1,2,2:3:0:0:
263,209,198351,2,0,P|279:267|265:326,1,121.000003692627,2|2,2:3|2:3,0:0:0:0:
225,59,199083,5,10,0:2:0:0:
306,38,199266,1,2,0:0:0:0:
367,96,199449,1,0,0:0:0:0:
370,108,199815,6,0,P|403:171|453:211,1,121.000003692627,4|0,2:3|0:0,0:0:0:0:
477,279,200364,2,0,P|444:342|394:382,1,121.000003692627
331,336,200912,1,0,0:0:0:0:
254,374,201095,1,2,2:3:0:0:
254,374,201278,2,0,P|211:333|185:279,1,121.000003692627,2|2,2:3|2:3,0:0:0:0:
212,198,201827,5,2,0:0:0:0:
203,201,201919,1,2,0:0:0:0:
194,204,202010,1,10,0:2:0:0:
109,198,202193,1,2,0:0:0:0:
71,121,202376,1,2,0:0:0:0:
118,49,202559,1,2,0:0:0:0:
62,269,202742,6,0,P|79:326|120:370,1,121.000003692627,4|2,2:3|2:3,0:0:0:0:
358,257,203473,2,0,P|375:200|416:156,1,121.000003692627,8|0,0:0|0:0,0:0:0:0:
454,79,204022,1,2,2:3:0:0:
454,79,204205,2,0,P|435:53|412:36,1,60.5000018463135,2|0,2:3|0:0,0:0:0:0:
332,67,204571,2,0,P|313:92|290:109,1,60.5000018463135
210,79,204937,2,0,P|191:53|168:36,1,60.5000018463135,10|0,0:2|0:0,0:0:0:0:
89,67,205303,2,0,P|70:92|47:109,1,60.5000018463135
79,258,205669,6,0,P|27:226|0:173,1,121.000003692627,6|2,0:0|2:3,0:0:0:0:
195,220,206400,1,10,0:2:0:0:
279,215,206583,1,2,0:0:0:0:
327,285,206766,1,2,0:0:0:0:
321,296,206949,6,0,P|309:337|308:365,2,60.5000018463135,2|2|2,2:3|2:3|2:0,0:0:0:0:
512,256,207498,6,0,L|496:197,1,60.5000018463135,10|2,0:2|0:0,0:0:0:0:
424,83,207864,2,0,L|439:141,1,60.5000018463135,10|2,0:2|2:3,0:0:0:0:
279,214,208230,1,2,2:3:0:0:
300,132,208412,1,8,2:3:0:0:
195,220,208595,5,6,2:3:0:0:
164,142,208778,1,2,0:0:0:0:
229,89,208961,2,0,P|202:45|131:-4,1,121.000003692627,2|8,0:0|0:0,0:0:0:0:
40,326,209693,5,2,2:3:0:0:
71,248,209876,1,2,2:3:0:0:
6,195,210059,2,0,P|32:151|103:101,1,121.000003692627,2|0,0:0|0:0,0:0:0:0:
86,108,210608,1,2,2:3:0:0:
214,169,210791,2,0,P|185:115|178:56,1,121.000003692627,8|2,0:0|2:3,0:0:0:0:
274,196,211339,1,2,2:3:0:0:
281,262,211522,2,0,P|248:312|200:348,1,121.000003692627,2|0,2:3|0:0,0:0:0:0:
274,196,212071,1,2,2:3:0:0:
327,156,212254,2,0,P|387:158|442:182,1,121.000003692627,8|2,0:0|2:3,0:0:0:0:
274,196,212803,1,2,2:3:0:0:
274,196,212986,5,2,0:0:0:0:
292,75,213169,2,0,P|319:62|349:56,1,60.5000018463135,8|0,0:0|0:0,0:0:0:0:
179,120,213534,5,2,2:3:0:0:
292,75,213717,2,0,P|317:77|342:84,2,51.3333317667644,2|2|2,1:3|1:3|1:3,0:0:0:0:
443,114,214083,2,0,P|468:111|493:104,2,51.3333317667644,2|2|2,2:3|2:3|2:3,0:0:0:0:
423,198,214449,5,8,2:3:0:0:
448,195,214570,1,8,2:3:0:0:
473,188,214692,1,8,2:3:0:0:
353,181,214815,1,8,2:3:0:0:
328,174,214937,1,8,2:3:0:0:
303,172,215059,1,8,2:3:0:0:
372,251,215181,6,0,P|372:316|399:380,1,123.750004720688,6|0,2:3|0:0,0:0:0:0:
462,383,215547,1,10,0:2:0:0:
486,269,215730,1,2,0:0:0:0:
282,286,215912,6,0,P|290:326|307:363,1,82.5000031471254,2|8,2:3|0:0,0:0:0:0:
202,196,216278,2,0,P|185:255|149:305,1,123.750004720688,2|0,2:3|0:0,0:0:0:0:
82,283,216644,2,0,P|65:223|29:173,1,123.750004720688,2|0,1:3|0:0,0:0:0:0:
58,109,217010,1,2,2:3:0:0:
58,109,217193,1,2,2:3:0:0:
0,383,217376,6,0,P|57:360|118:357,1,123.750004720688,6|0,2:3|2:3,2:3:0:0:
185,380,217742,1,0,0:0:0:0:
321,342,217925,1,2,2:3:0:0:
171,310,218108,2,0,P|229:291|279:254,1,123.750004720688,8|0,0:0|0:0,2:3:0:0:
284,184,218473,1,2,2:3:0:0:
397,163,218656,6,0,P|366:190|343:224,1,82.5000031471254,2|2,2:3|0:0,2:3:0:0:
342,224,219022,1,8,0:0:0:0:
432,102,219205,1,2,0:0:0:0:
432,102,219388,2,0,P|446:63|470:30,2,82.5000031471254,2|10|0,2:3|0:2|0:0,0:0:0:0:
437,241,219937,1,2,2:3:0:0:
371,24,220120,1,2,2:3:0:0:
370,192,220303,6,0,P|313:82|219:3,1,247.500009441376,6|2,2:3|2:3,0:0:0:0:
273,207,221034,2,0,P|222:171|165:149,1,123.750004720688,8|0,0:0|0:0,0:0:0:0:
94,154,221400,1,2,2:3:0:0:
290,321,221583,6,0,P|215:286|133:279,1,165.000006294251,2|8,2:3|0:0,0:0:0:0:
133,279,222132,1,2,0:0:0:0:
14,370,222315,2,0,P|37:336|69:309,2,82.5000031471254,2|10|0,2:3|0:2|0:0,0:0:0:0:
73,238,222864,1,2,2:3:0:0:
301,254,223047,1,2,2:3:0:0:
174,357,223230,6,0,P|235:349|289:320,1,123.750004720688,6|0,2:3|0:0,0:0:0:0:
358,330,223595,2,0,P|412:301|473:293,1,123.750004720688,8|0,0:0|0:0,0:0:0:0:
511,233,223961,1,10,0:2:0:0:
511,233,224144,1,2,2:3:0:0:
421,155,224327,6,0,P|359:152|304:125,1,123.750004720688,2|0,0:0|0:0,0:0:0:0:
117,94,224693,2,0,P|179:96|234:123,1,123.750004720688,6|0,2:3|0:0,0:0:0:0:
350,183,225059,6,0,P|323:191|300:206,1,55.0000020980836,2|2,1:3|1:3,0:0:0:0:
152,160,225303,1,2,1:3:0:0:
360,191,225425,5,8,2:3:0:0:
142,168,225547,2,0,P|168:176|191:191,1,55.0000020980836,8|8,2:3|2:3,0:0:0:0:
278,271,225791,5,4,0:3:0:0:
201,259,225912,1,4,0:3:0:0:
236,286,226034,1,4,0:3:0:0:
0,289,226156,6,0,P|121:305|222:375,1,247.500009441376,6|2,2:3|2:3,0:0:0:0:
380,327,226888,2,0,P|440:318|492:285,1,123.750004720688,8|0,0:0|0:0,0:0:0:0:
512,217,227254,1,2,0:3:0:0:
480,384,227437,1,2,0:3:0:0:
480,384,227620,5,2,0:0:0:0:
238,384,227803,2,0,P|272:362|312:356,1,82.5000031471254,8|2,0:0|0:0,0:0:0:0:
346,262,228169,1,2,2:3:0:0:
175,305,228351,2,0,P|116:290|77:244,1,123.750004720688,8|0,0:0|0:0,0:0:0:0:
17,205,228717,1,2,2:3:0:0:
17,205,228900,1,2,2:3:0:0:
256,314,229083,6,0,P|315:329|354:375,1,123.750004720688,6|0,0:0|0:0,0:0:0:0:
421,354,229449,1,2,0:0:0:0:
421,354,229632,1,0,0:0:0:0:
491,203,229815,2,0,P|426:253|345:261,1,165.000006294251,10|2,0:2|2:3,0:0:0:0:
173,223,230364,6,0,P|232:241|278:283,1,123.750004720688,2|0,2:3|0:0,0:0:0:0:
287,352,230730,1,8,0:0:0:0:
260,174,230912,1,2,0:0:0:0:
119,287,231095,2,0,P|109:326|117:366,2,82.5000031471254,2|10|0,2:3|0:2|0:0,0:0:0:0:
37,372,231644,1,2,2:3:0:0:
90,154,231827,1,2,2:3:0:0:
194,341,232010,6,0,P|198:279|173:223,1,123.750004720688,14|0,0:2|0:0,0:0:0:0:
120,177,232376,2,0,P|115:115|140:59,1,123.750004720688,10|0,0:2|0:0,0:0:0:0:
211,60,232742,2,0,P|235:116|231:177,1,123.750004720688,10|0,0:2|0:0,0:0:0:0:
297,201,233108,2,0,P|333:151|388:124,1,123.750004720688,8|0,0:0|0:0,0:0:0:0:
440,171,233473,6,0,P|422:229|380:274,1,123.750004720688,10|0,0:2|0:0,0:0:0:0:
310,281,233839,2,0,P|273:231|218:204,1,123.750004720688,10|0,0:2|0:0,0:0:0:0:
168,252,234205,2,0,P|185:310|227:355,1,123.750004720688,10|0,0:2|0:0,0:0:0:0:
298,350,234571,1,10,0:2:0:0:
349,205,234754,1,2,0:0:0:0:
103,201,234937,6,0,P|43:187|0:144,1,123.750004720688,14|0,0:2|0:0,0:0:0:0:
33,82,235303,2,0,P|92:95|136:138,1,123.750004720688,2|0,0:0|0:0,0:0:0:0:
204,155,235669,1,2,2:3:0:0:
204,155,235851,1,2,2:3:0:0:
469,242,236034,6,0,P|356:230|274:152,1,230.99999295044,14|0,0:2|0:0,0:0:0:0:
295,84,236766,1,2,2:3:0:0:
311,80,237132,5,12,0:2:0:0:
259,252,237315,1,2,2:3:0:0:
292,184,237498,1,2,2:3:0:0:
278,12,237681,1,2,2:3:0:0:
161,174,237864,6,0,P|130:228|112:287,1,123.750004720688,14|0,0:2|0:0,0:0:0:0:
57,331,238230,2,0,P|26:277|8:218,1,123.750004720688,2|0,1:2|0:0,0:0:0:0:
39,155,238595,1,2,2:3:0:0:
39,155,238778,1,2,2:3:0:0:
283,281,238961,6,0,P|256:169|192:73,1,230.99999295044,6|0,2:3|0:0,0:0:0:0:
124,54,239693,6,0,P|185:53|242:29,1,123.750004720688,8|0,0:0|0:0,0:0:0:0:
311,45,240059,2,0,P|367:21|429:20,1,123.750004720688,10|0,0:2|0:0,0:0:0:0:
448,88,240425,2,0,P|391:111|329:112,1,123.750004720688,8|0,0:0|0:0,0:0:0:0:
277,159,240791,6,0,P|160:193|85:289,1,247.500009441376,6|2,2:3|2:3,0:0:0:0:
317,224,241522,2,0,P|242:320|125:354,1,247.500009441376,10|2,0:2|2:3,0:0:0:0:
354,322,242254,2,0,P|401:255|474:219,1,165.000006294251,2|2,2:3|2:3,0:0:0:0:
99,102,242986,1,8,2:3:0:0:
99,102,243169,1,8,2:3:0:0:
72,169,243351,6,0,P|171:99|66:38,1,288.750011014939,6|0,2:3|0:0,0:0:0:0:
7,76,244083,2,0,P|24:127|35:216,1,123.750004720688,10|0,0:2|0:0,0:0:0:0:
77,251,244449,2,0,P|66:303|31:386,1,123.750004720688,10|0,0:2|0:0,0:0:0:0:
121,359,244815,2,0,P|156:318|228:264,1,123.750004720688,8|0,0:0|0:0,0:0:0:0:
253,218,245181,6,0,L|408:245,1,123.750004720688,6|0,2:3|0:0,0:0:0:0:
430,282,245547,1,10,0:2:0:0:
430,282,245912,6,0,L|483:257,1,55.0000020980836,8|8,2:3|2:3,0:0:0:0:
413,181,246156,1,8,2:3:0:0:
318,146,246278,6,0,L|313:204,1,55.0000020980836,8|8,0:0|0:0,0:0:0:0:
413,181,246522,1,8,2:3:0:0:
491,117,246644,6,0,P|423:67|321:24,1,165.000006294251,6|0,2:3|0:0,0:0:0:0:
21,117,247376,2,0,P|89:67|191:24,1,165.000006294251,8|0,0:0|0:0,0:0:0:0:
256,96,247925,1,2,2:3:0:0:
256,96,248108,1,2,2:3:0:0:
256,192,248291,1,8,0:0:0:0:
256,183,248382,1,8,0:0:0:0:
256,174,248473,1,8,0:0:0:0:
256,270,248656,1,2,2:3:0:0:
172,346,248839,6,0,P|118:314|59:297,1,123.750004720688,10|0,0:2|0:0,0:0:0:0:
5,342,249205,1,2,2:3:0:0:
114,240,249388,1,2,2:3:0:0:
239,377,249571,6,0,P|298:360|351:328,1,123.750004720688,6|0,2:3|0:0,0:0:0:0:
383,266,249937,2,0,P|436:234|495:217,1,123.750004720688,2|0,2:3|0:0,0:0:0:0:
477,149,250303,2,0,P|423:117|364:100,1,123.750004720688,8|0,0:0|0:0,0:0:0:0:
302,133,250669,1,2,0:0:0:0:
209,13,250851,1,2,2:3:0:0:
58,33,251034,1,2,2:3:0:0:
302,133,251217,6,0,P|222:112|153:67,1,165.000006294251,8|2,0:0|2:3,0:0:0:0:
0,165,251766,2,0,P|55:137|116:129,1,123.750004720688,8|0,0:0|0:0,0:0:0:0:
164,180,252132,1,2,3:2:0:0:
164,180,252315,1,0,3:0:0:0:
23,306,252498,6,0,P|84:310|141:334,1,123.750004720688,6|0,2:3|0:0,0:0:0:0:
207,311,252864,2,0,P|268:306|325:282,1,123.750004720688,2|2,2:3|0:0,0:0:0:0:
393,299,253230,2,0,P|454:303|511:327,1,123.750004720688,8|0,0:0|0:0,0:0:0:0:
468,382,253595,1,2,0:0:0:0:
412,214,253778,1,2,2:3:0:0:
143,217,253961,6,0,P|198:193|257:207,1,123.750004720688,10|0,0:2|0:0,0:0:0:0:
318,260,254327,2,0,P|263:284|204:270,1,123.750004720688,10|0,0:2|0:0,0:0:0:0:
330,51,254693,6,0,P|374:84|402:131,1,110,2|2,2:3|2:3,0:0:0:0:
256,33,255059,6,0,B|231:32|154:35|97:83|30:139|37:295|107:312|180:380|231:369|227:337|285:360|302:355|336:342|351:323|374:300|402:278|406:237|412:214|412:214|349:186|349:186|341:94|250:79|225:79|150:108|128:201|169:242|203:270|203:270|273:213|273:213|291:192|277:173|277:173|256:192,1,1333.52996266132,6|2,2:3|0:0,0:0:0:0:
256,191,265669,6,0,L|248:166,30,20.6250007867813
324,113,267132,6,0,P|305:49|254:7,1,123.750004720688,12|0,0:2|0:0,0:0:0:0:
358,184,267498,2,0,P|389:127|385:61,1,123.750004720688,8|0,0:0|0:0,0:0:0:0:
333,260,267864,2,0,P|397:241|439:190,1,123.750004720688,8|0,0:0|0:0,0:0:0:0:
262,294,268230,2,0,P|319:325|385:321,1,123.750004720688,8|0,0:0|0:0,0:0:0:0:
187,269,268595,2,0,P|205:333|256:375,1,123.750004720688,8|0,0:0|0:0,0:0:0:0:
152,198,268961,2,0,P|120:255|125:321,1,123.750004720688,8|0,0:0|0:0,0:0:0:0:
177,123,269327,2,0,P|113:141|71:192,1,123.750004720688,8|0,0:0|0:0,0:0:0:0:
248,88,269693,2,0,P|191:56|125:61,1,123.750004720688,8|0,0:0|0:0,0:0:0:0:
256,192,270059,6,0,L|512:160,1,247.500009441376,6|2,2:3|2:3,0:0:0:0:
406,36,270791,2,0,P|373:89|365:149,1,123.750004720688,8|0,0:0|0:0,0:0:0:0:
344,215,271156,1,2,2:3:0:0:
474,51,271339,1,2,0:0:0:0:
412,200,271522,6,0,P|443:252|452:312,1,123.750004720688,2|0,2:3|0:0,0:0:0:0:
399,360,271888,1,8,0:0:0:0:
399,360,272071,1,2,2:3:0:0:
291,277,272254,5,2,2:3:0:0:
236,266,272376,1,2,2:3:0:0:
197,307,272498,1,2,2:3:0:0:
287,297,272620,5,8,2:3:0:0:
212,321,272742,1,8,2:3:0:0:
256,329,272864,1,8,2:3:0:0:
114,363,272985,6,0,P|82:308|73:245,1,123.750004720688,6|0,2:3|0:0,0:0:0:0:
37,188,273351,2,0,P|52:149|58:109,1,82.5000031471254,2|2,0:0|2:3,2:3:0:0:
226,155,273717,2,8,P|177:117|149:62,1,123.750004720688,8|0,0:0|0:0,0:0:0:0:
182,0,274083,1,2,2:3:0:0:
0,3,274266,6,0,P|63:53|97:127,1,165.000006294251,2|0,2:3|3:0,0:0:0:0:
97,128,274723,1,0,3:0:0:0:
97,128,274815,1,0,0:0:0:0:
209,329,274998,2,0,P|145:278|112:204,1,165.000006294251,2|0,2:3|3:0,0:0:0:0:
256,128,275546,1,2,2:3:0:0:
302,329,275729,1,2,2:3:0:0:
302,329,275912,6,0,P|366:278|400:204,1,165.000006294251,6|0,2:3|0:0,0:0:0:0:
270,45,276461,1,2,2:3:0:0:
366,141,276644,2,0,P|342:84|345:22,1,123.750004720688,8|0,0:0|0:0,0:0:0:0:
413,1,277010,1,2,2:3:0:0:
400,203,277193,6,0,P|468:251|505:324,1,165.000006294251,2|8,2:3|0:0,0:0:0:0:
512,149,277741,1,2,0:0:0:0:
278,366,277925,2,0,P|285:283|330:214,1,165.000006294251,2|0,2:3|0:0,0:0:0:0:
398,375,278473,1,2,2:3:0:0:
354,147,278656,1,2,2:3:0:0:
192,337,278839,6,0,P|184:276|150:225,1,123.750004720688,6|0,2:3|0:0,0:0:0:0:
84,201,279205,1,8,0:0:0:0:
84,201,279388,1,8,0:0:0:0:
139,21,279571,6,0,P|131:81|97:132,1,123.750004720688,2|0,2:3|0:0,0:0:0:0:
31,157,279937,1,8,0:0:0:0:
31,157,280120,1,8,0:0:0:0:
292,251,280303,6,0,P|267:195|268:133,1,123.750004720688,2|0,0:0|0:0,0:0:0:0:
395,89,280669,6,0,P|422:92|447:103,1,55.0000020980836,2|2,1:3|1:3,0:0:0:0:
347,210,280912,1,2,1:3:0:0:
476,192,281034,5,8,2:3:0:0:
347,210,281156,2,0,P|336:184|332:157,1,55.0000020980836,8|8,2:3|2:3,0:0:0:0:
476,192,281400,5,8,2:3:0:0:
460,233,281522,1,8,2:3:0:0:
417,241,281644,1,8,2:3:0:0:
344,279,281766,5,4,0:3:0:0:
356,311,281888,1,4,0:3:0:0:
391,318,282010,1,4,0:3:0:0:
453,353,282132,5,8,2:3:0:0:
443,378,282254,1,8,2:3:0:0:
415,384,282376,1,8,2:3:0:0:
269,305,282498,6,0,P|207:305|153:334,1,123.750004720688,6|0,2:3|0:0,0:0:0:0:
84,317,282864,1,8,0:0:0:0:
206,384,283047,1,2,0:0:0:0:
83,317,283230,2,0,P|43:320|5:305,1,82.5000031471254,2|8,2:3|0:0,1:0:0:0:
328,266,283595,6,0,P|381:234|413:182,1,123.750004720688,2|0,2:3|0:0,0:0:0:0:
423,113,283961,2,0,P|441:54|484:11,1,123.750004720688,2|0,1:3|0:0,0:0:0:0:
394,0,284327,1,2,2:3:0:0:
394,0,284510,1,2,2:3:0:0:
512,76,284693,6,0,P|493:134|450:177,1,123.750004720688,6|0,2:3|0:0,0:0:0:0:
381,168,285059,1,0,0:0:0:0:
492,320,285242,1,2,2:3:0:0:
408,232,285425,2,0,P|354:262|322:314,1,123.750004720688,8|0,2:0|0:0,0:0:0:0:
354,375,285790,1,2,2:3:0:0:
184,368,285973,6,0,P|224:358|254:331,1,82.5000031471254,2|0,2:3|0:0,0:0:0:0:
254,330,286339,1,8,0:0:0:0:
115,353,286522,1,2,0:0:0:0:
115,353,286705,2,0,P|74:351|38:371,2,82.5000031471254,2|10|0,2:3|0:2|0:0,0:0:0:0:
64,269,287254,1,2,2:3:0:0:
322,313,287437,1,2,2:3:0:0:
39,189,287620,6,0,P|151:131|232:11,1,247.500009441376,6|2,2:3|2:3,2:3:0:0:
288,197,288351,2,0,P|311:140|316:78,1,123.750004720688,8|0,0:0|0:0,0:0:0:0:
297,7,288717,1,2,2:3:0:0:
466,151,288900,6,0,P|431:75|372:17,1,165.000006294251,2|8,2:3|0:0,0:0:0:0:
420,202,289449,1,2,0:0:0:0:
438,349,289632,2,0,P|445:308|442:266,2,82.5000031471254,2|10|0,2:3|0:2|0:0,0:0:0:0:
488,216,290181,1,2,2:3:0:0:
342,384,290364,1,2,2:3:0:0:
352,188,290547,6,0,P|338:248|347:308,1,123.750004720688,6|0,2:3|0:0,0:0:0:0:
284,338,290912,2,0,P|238:296|181:273,1,123.750004720688,8|0,0:0|0:0,0:0:0:0:
118,304,291278,1,8,0:0:0:0:
118,304,291461,1,2,2:3:0:0:
295,147,291644,6,0,P|246:185|188:204,1,123.750004720688,6|0,0:3|0:0,0:0:0:0:
124,234,292010,2,0,P|66:211|21:169,1,123.750004720688,2|0,2:3|0:0,0:0:0:0:
9,100,292376,6,0,L|15:38,1,55.0000020980836,2|2,1:3|1:3,0:0:0:0:
108,148,292620,1,2,1:3:0:0:
197,17,292742,5,8,2:3:0:0:
98,65,292864,2,0,L|104:127,1,55.0000020980836,8|8,2:3|2:3,0:0:0:0:
183,144,293108,5,4,0:3:0:0:
191,56,293229,1,4,0:3:0:0:
187,100,293351,1,4,0:3:0:0:
309,19,293473,6,0,P|324:140|395:240,1,247.500009441376,6|2,2:3|2:3,0:0:0:0:
501,384,294205,2,0,P|493:323|458:273,1,123.750004720688,8|0,0:0|0:0,0:0:0:0:
455,203,294571,1,2,2:3:0:0:
379,347,294754,1,2,2:3:0:0:
379,347,294937,5,2,0:0:0:0:
468,124,295120,2,0,P|470:164|455:202,1,82.5000031471254,8|0,0:0|0:0,0:0:0:0:
254,250,295486,1,2,2:3:0:0:
225,44,295669,2,0,P|198:98|208:158,1,123.750004720688,8|0,0:0|0:0,0:0:0:0:
275,185,296034,1,2,2:3:0:0:
275,185,296217,1,2,2:3:0:0:
79,308,296400,6,0,P|140:304|187:265,1,123.750004720688,6|0,0:3|0:0,0:0:0:0:
233,316,296766,2,0,P|274:320|311:338,1,82.5000031471254,0|2,0:0|2:3,0:0:0:0:
397,192,297132,2,0,P|316:197|255:250,1,165.000006294251,10|2,0:2|2:3,0:0:0:0:
480,348,297681,6,0,P|482:286|456:230,1,123.750004720688,2|0,2:3|0:0,0:0:0:0:
393,262,298047,1,8,0:0:0:0:
503,20,298230,1,2,0:0:0:0:
460,160,298412,2,0,P|451:119|461:80,2,82.5000031471254,2|10|0,2:3|0:2|0:0,0:0:0:0:
400,38,298961,1,2,2:3:0:0:
452,234,299144,1,2,2:3:0:0:
290,92,299327,6,0,P|319:146|320:207,1,123.750004720688,12|0,0:2|0:0,0:0:0:0:
282,266,299693,2,0,P|252:320|251:381,1,123.750004720688,10|0,0:2|0:0,0:0:0:0:
180,377,300059,2,0,P|147:323|95:292,1,123.750004720688,10|0,0:2|0:0,0:0:0:0:
134,233,300425,2,0,P|196:231|249:201,1,123.750004720688,10|0,0:2|0:0,0:0:0:0:
234,133,300791,6,0,P|107:107|14:16,1,263.99999194336,2|0,3:2|0:0,0:0:0:0:
14,16,303717,6,0,B|5:59|26:99|26:99,1,82.5000031471253,2|0,0:0|0:0,0:0:0:0:
86,138,304448,2,0,P|97:179|94:228,1,82.5000031471254
62,284,305180,2,0,B|53:327|74:367|74:367,1,82.5000031471253,2|0,0:0|0:0,0:0:0:0:
142,337,305912,1,0,0:0:0:0:
142,337,306095,2,0,P|141:316|135:296,2,41.2500015735627,2|2|2,0:0|0:0|0:0,0:0:0:0:
245,366,306643,6,0,B|297:367|321:330|321:330,1,82.5000031471253,2|0,0:0|0:0,0:0:0:0:
391,320,307375,2,0,B|417:275|397:236|397:236,1,82.5000031471253
424,170,308107,2,0,B|398:124|354:122|354:122,1,82.5000031471253,2|0,0:0|0:0,0:0:0:0:
310,66,308838,1,0,0:0:0:0:
310,66,309021,2,0,P|290:68|262:78,2,41.2500015735627,2|2|2,0:0|0:0|0:0,0:0:0:0:
162,22,309570,6,0,P|185:70|196:107,1,82.5000031471254,2|0,0:0|0:0,0:0:0:0:
239,156,310302,2,0,P|216:204|205:241,1,82.5000031471254
158,288,311034,2,0,P|181:336|192:373,1,82.5000031471254,2|0,0:0|0:0,0:0:0:0:
262,351,311765,1,0,0:0:0:0:
262,351,311948,2,0,P|265:330|273:311,2,41.2500015735627,2|2|2,0:0|0:0|0:0,0:0:0:0:
336,260,312497,5,2,0:0:0:0:
338,187,312863,5,0,0:0:0:0:
364,117,313229,5,0,0:0:0:0:
411,61,313595,5,0,0:0:0:0:
475,23,313960,5,2,0:0:0:0:
256,192,314052,12,0,321277,0:0:0:0:
