osu file format v14

[General]
AudioFilename: audio.mp3
AudioLeadIn: 0
PreviewTime: 54653
Countdown: 0
SampleSet: Soft
StackLeniency: 0.3
Mode: 0
LetterboxInBreaks: 0
WidescreenStoryboard: 0

[Editor]
Bookmarks: 24997,56142,74462,120264,138585,175226,204539
DistanceSpacing: 0.8
BeatDivisor: 4
GridSize: 32
TimelineZoom: 2.6

[Metadata]
Title:Kodou no Himitsu
TitleUnicode:鼓動の秘密
Artist:Kaf
ArtistUnicode:花譜
Creator:Vararaup
Version:So I Like You...
Source:
Tags:東京女子流 tokyo girls' style vtuber virtual 神椿スタジオ kamitsubaki studio japanese pop jpop j-pop c.close 花村智志 Satoshi Hanamura Sho Watanabe
BeatmapID:2999962
BeatmapSetID:1459947

[Difficulty]
HPDrainRate:6
CircleSize:4
OverallDifficulty:7
ApproachRate:8
SliderMultiplier:2
SliderTickRate:1

[Events]
//Background and Video events
0,0,"kaflowe.jpg",0,0
//Break Periods
//Storyboard Layer 0 (Background)
//Storyboard Layer 1 (Fail)
//Storyboard Layer 2 (Pass)
//Storyboard Layer 3 (Foreground)
//Storyboard Layer 4 (Overlay)
//Storyboard Sound Samples

[TimingPoints]
3012,458.015267175573,4,2,2,50,1,0
17667,-90.9090909090909,4,2,1,50,0,0
22706,-58.8235294117647,4,2,1,50,0,0
23164,-90.9090909090909,4,2,1,50,0,0
24996,-100,4,2,1,40,0,0
39652,-125,4,2,1,40,0,0
41026,-90.9090909090909,4,2,1,40,0,0
41484,-125,4,2,1,40,0,0
42858,-90.9090909090909,4,2,1,40,0,0
43316,-125,4,2,1,40,0,0
44690,-90.9090909090909,4,2,1,40,0,0
45148,-125,4,2,1,40,0,0
48355,-90.9090909090909,4,2,1,40,0,0
48813,-125,4,2,1,40,0,0
50187,-90.9090909090909,4,2,1,40,0,0
52706,-90.9090909090909,4,2,1,30,0,0
54767,-200,4,2,1,40,0,0
55683,-90.9090909090909,4,2,1,50,0,0
56141,-83.3333333333333,4,2,1,50,0,0
56599,-90.9090909090909,4,2,1,50,0,0
74003,-200,4,2,1,50,0,0
74461,-90.9090909090909,4,2,1,50,0,0
86828,-58.8235294117647,4,2,1,50,0,0
87286,-90.9090909090909,4,2,1,50,0,0
89118,-125,4,2,2,40,0,0
92324,-100,4,2,2,40,0,0
92782,-100,4,2,1,40,0,0
103774,-125,4,2,1,40,0,0
105148,-90.9090909090909,4,2,1,40,0,0
105606,-125,4,2,1,40,0,0
106980,-90.9090909090909,4,2,1,40,0,0
107438,-125,4,2,1,40,0,0
108813,-90.9090909090909,4,2,1,40,0,0
109271,-125,4,2,1,40,0,0
112477,-90.9090909090909,4,2,1,40,0,0
112935,-125,4,2,1,40,0,0
114309,-90.9090909090909,4,2,1,40,0,0
116828,-90.9090909090909,4,2,1,35,0,0
118431,-200,4,2,1,40,0,0
119347,-50,4,2,1,40,0,0
119805,-200,4,2,1,40,0,0
120263,-83.3333333333333,4,2,1,50,0,0
120721,-90.9090909090909,4,2,1,50,0,0
138584,-83.3333333333333,4,2,1,50,0,0
139042,-90.9090909090909,4,2,1,50,0,0
162171,-83.3333333333333,4,2,1,50,0,0
162629,-90.9090909090909,4,2,1,50,0,0
166064,-200,4,2,1,50,0,0
167896,-125,4,2,2,50,0,0
174309,-50,4,2,1,40,0,0
174767,-90.9090909090909,4,2,1,50,0,0
175225,-83.3333333333333,4,2,1,50,0,0
175683,-90.9090909090909,4,2,1,50,0,0
185759,-200,4,2,1,50,0,0
186217,-83.3333333333333,4,2,1,50,0,0
186675,-90.9090909090909,4,2,1,50,0,0
204080,-200,4,2,1,50,0,0
204538,-90.9090909090909,4,2,1,50,0,0
216904,-58.8235294117647,4,2,1,50,0,0
217362,-384.615384615385,4,2,1,50,0,0
222858,-100,4,2,1,5,0,0

[Colours]
Combo1 : 75,101,203
Combo2 : 128,128,192
Combo3 : 223,151,232

[HitObjects]
47,136,3012,6,0,P|38:185|80:212,2,100,6|2|2,3:2|0:2|0:2,0:2:0:0:
118,36,3699,1,2,3:2:0:0:
118,36,3928,2,0,P|131:89|131:137,1,100,0|2,3:2|0:2,0:2:0:0:
167,222,4386,1,8,0:2:0:0:
84,358,4844,5,0,3:2:0:0:
8,313,5073,2,0,P|57:317|107:316,1,100,2|2,0:2|0:2,0:2:0:0:
220,303,5531,1,2,3:2:0:0:
220,303,5760,1,0,3:2:0:0:
295,365,5989,5,10,0:2:0:0:
309,267,6218,1,8,0:2:0:0:
483,191,6676,5,0,3:2:0:0:
436,261,6905,2,0,P|405:222|400:173,1,100,2|2,0:2|0:2,0:2:0:0:
496,101,7363,1,2,3:2:0:0:
496,101,7592,2,0,P|447:97|398:83,1,100,0|2,3:2|0:2,0:2:0:0:
315,136,8050,1,8,0:2:0:0:
150,35,8508,5,2,3:2:0:0:
168,64,8622,1,2,0:2:0:0:
167,99,8737,1,2,0:2:0:0:
151,130,8851,1,2,0:2:0:0:
63,134,8966,2,0,P|38:91|52:45,1,100,2|2,0:2|3:2,0:2:0:0:
115,206,9424,5,2,3:2:0:0:
115,206,9653,2,0,L|116:231,2,25,10|0|0,0:2|0:2|0:2,0:2:0:0:
118,258,9882,1,10,0:2:0:0:
121,298,9997,1,2,0:2:0:0:
124,337,10111,1,2,0:2:0:0:
318,226,10340,6,0,P|270:224|247:265,2,100,4|2|2,3:2|0:2|0:2,0:2:0:0:
420,313,11027,1,2,3:2:0:0:
420,313,11256,2,0,P|370:313|320:308,1,100,0|2,3:2|0:2,0:2:0:0:
234,353,11714,1,8,0:2:0:0:
99,180,12172,5,0,3:2:0:0:
11,213,12401,2,0,P|60:212|110:217,1,100,2|2,0:2|0:2,0:2:0:0:
241,247,12859,1,2,3:2:0:0:
241,247,13088,1,0,3:2:0:0:
315,179,13317,5,8,0:2:0:0:
218,152,13546,1,8,0:2:0:0:
462,80,14004,5,0,3:2:0:0:
403,19,14233,2,0,P|377:61|379:110,1,100,2|2,0:2|0:2,0:2:0:0:
497,167,14691,1,2,3:2:0:0:
497,167,14920,2,0,P|448:172|401:188,1,100,0|2,3:2|0:2,0:2:0:0:
343,273,15378,1,8,0:2:0:0:
226,116,15836,5,2,3:2:0:0:
198,137,15950,1,2,0:2:0:0:
164,142,16065,1,2,0:2:0:0:
132,130,16179,1,2,0:2:0:0:
109,103,16294,1,2,0:2:0:0:
87,77,16409,1,2,0:2:0:0:
54,67,16524,1,2,3:2:0:0:
22,79,16638,1,2,0:2:0:0:
2,107,16752,6,0,P|1:131|11:154,1,50,2|0,3:2|0:2,0:2:0:0:
178,59,16981,2,0,P|178:34|168:11,1,50,10|0,0:2|0:2,0:2:0:0:
83,203,17210,5,10,0:2:0:0:
88,242,17325,1,2,0:2:0:0:
94,281,17439,1,2,0:2:0:0:
304,359,17668,6,0,P|313:304|315:249,1,110.000003356934,6|2,3:2|0:2,0:2:0:0:
318,80,18127,1,10,0:2:0:0:
232,88,18356,2,0,P|253:137|301:162,1,110.000003356934,2|0,3:2|0:2,0:2:0:0:
472,172,18814,1,2,3:2:0:0:
397,51,19043,1,8,0:2:0:0:
381,252,19272,5,2,0:2:0:0:
381,252,19386,1,2,0:2:0:0:
381,252,19501,1,2,3:2:0:0:
466,337,19730,2,0,P|416:331|357:333,1,110.000003356934,2|10,0:2|0:2,0:2:0:0:
176,350,20188,2,0,P|221:320|239:269,1,110.000003356934,2|0,3:2|0:2,0:2:0:0:
180,119,20646,1,2,3:2:0:0:
261,104,20875,2,0,P|262:135|252:160,1,55.0000016784668,10|0,0:2|0:2,0:2:0:0:
128,261,21104,6,0,L|156:265,3,27.5000008392334,0|0|0|0,0:2|0:2|0:2|0:2,0:2:0:0:
108,257,21333,2,0,B|109:199|86:213|77:153,1,110.000003356934,6|0,3:2|0:2,0:2:0:0:
77,153,21791,1,10,0:2:0:0:
20,11,22020,2,0,P|68:35|121:27,1,110.000003356934,6|0,3:2|0:2,0:2:0:0:
122,27,22478,1,2,3:2:0:0:
285,114,22707,6,0,B|286:81|308:47|308:47|269:84|219:94|219:94|178:107|166:153,1,255.000004863739,10|0,0:2|0:2,0:2:0:0:
126,318,23165,5,6,3:2:0:0:
158,313,23279,1,2,0:2:0:0:
190,307,23394,1,2,0:2:0:0:
354,239,23623,5,14,0:2:0:0:
316,231,23737,1,2,0:2:0:0:
277,224,23852,1,2,0:2:0:0:
80,165,24081,5,6,3:2:0:0:
123,158,24195,1,2,0:2:0:0:
166,151,24310,1,2,0:2:0:0:
395,94,24539,5,14,0:2:0:0:
346,86,24653,1,2,0:2:0:0:
295,79,24768,2,0,P|319:65|346:61,1,55.0000016784668,2|0,3:2|3:2,0:2:0:0:
457,172,24997,5,4,3:2:0:0:
389,208,25226,1,2,0:2:0:0:
442,361,25455,1,10,0:2:0:0:
446,282,25684,2,0,B|404:276|374:301|383:310|349:336|310:329,1,150,2|0,3:2|0:2,0:2:0:0:
241,283,26142,2,0,P|268:243|316:246,1,100,2|8,3:2|0:2,0:2:0:0:
123,355,26600,5,2,0:2:0:0:
123,355,26714,1,2,0:2:0:0:
123,354,26829,2,0,P|121:305|116:255,1,100,2|2,3:2|0:2,0:2:0:0:
90,82,27287,1,10,0:2:0:0:
9,112,27516,2,0,P|63:160|136:153,1,150,2|0,3:2|0:2,0:2:0:0:
182,80,27974,5,2,3:2:0:0:
344,15,28203,1,10,0:2:0:0:
415,96,28431,2,0,L|417:72,3,25,2|0|0|0,0:2|0:2|0:2|0:2,0:2:0:0:
414,113,28661,5,0,3:2:0:0:
259,178,28890,1,2,0:2:0:0:
270,101,29119,1,10,0:2:0:0:
428,197,29348,2,0,P|355:201|310:258,1,150,2|0,3:2|0:2,0:2:0:0:
368,358,29806,2,0,P|402:322|395:273,1,100,2|8,3:2|0:2,0:2:0:0:
187,205,30264,5,2,0:2:0:0:
187,205,30378,1,2,0:2:0:0:
187,205,30493,2,0,P|200:252|201:302,1,100,2|2,3:2|0:2,0:2:0:0:
26,323,30951,1,10,0:2:0:0:
120,379,31180,1,2,3:2:0:0:
48,205,31409,5,2,0:2:0:0:
43,170,31523,1,2,0:2:0:0:
38,135,31638,1,2,3:2:0:0:
131,20,31867,1,10,0:2:0:0:
252,46,32096,2,0,L|276:41,3,25,2|0|0|0,0:2|0:2|0:2|0:2,0:2:0:0:
237,49,32325,5,4,3:2:0:0:
169,89,32554,1,2,0:2:0:0:
292,205,32783,1,10,0:2:0:0:
298,125,33012,2,0,B|256:119|226:144|235:153|201:179|162:172,1,150,2|0,3:2|0:2,0:2:0:0:
92,121,33470,2,0,P|66:162|84:207,1,100,2|8,3:2|0:2,0:2:0:0:
279,304,33928,5,2,0:2:0:0:
279,304,34043,1,2,0:2:0:0:
279,304,34157,2,0,P|281:255|290:205,1,100,2|2,3:2|0:2,0:2:0:0:
455,154,34615,1,10,0:2:0:0:
312,119,34844,2,0,P|353:146|375:190,1,100,2|0,3:2|0:2,0:2:0:0:
393,358,35302,5,2,3:2:0:0:
405,277,35531,2,0,P|375:279|355:285,1,50,10|0,0:2|0:2,0:2:0:0:
235,348,35760,2,0,L|232:373,3,25,2|0|0|0,0:2|0:2|0:2|0:2,0:2:0:0:
237,331,35989,5,0,3:2:0:0:
203,159,36218,2,0,B|253:171|235:189|291:204,1,100,2|10,0:2|0:2,0:2:0:0:
337,29,36676,2,0,P|309:69|308:118,1,100,2|0,3:2|0:2,0:2:0:0:
412,247,37134,5,2,3:2:0:0:
444,142,37363,1,10,0:2:0:0:
290,203,37592,1,2,0:2:0:0:
190,145,37821,5,2,3:2:0:0:
302,291,38050,1,2,0:2:0:0:
261,355,38279,1,10,0:2:0:0:
290,203,38508,1,2,3:2:0:0:
60,232,38737,5,2,0:2:0:0:
65,267,38852,1,2,0:2:0:0:
71,301,38966,2,0,P|83:278|89:254,1,50,2|0,3:2|0:2,0:2:0:0:
52,130,39195,1,8,0:2:0:0:
196,51,39424,2,0,L|193:26,3,25,0|0|0|0,0:2|0:2|0:2|0:2,0:2:0:0:
198,69,39653,6,0,B|241:58|274:82|262:97|296:119|344:109,1,160,6|0,3:2|0:2,0:2:0:0:
345,109,40340,1,2,3:2:0:0:
491,28,40569,2,0,P|466:82|458:141,1,120,2|0,3:2|0:2,0:2:0:0:
504,208,41027,2,0,P|466:170|413:177,1,110.000003356934,10|2,0:2|0:2,0:2:0:0:
309,300,41371,5,2,0:2:0:0:
283,329,41485,2,0,P|279:249|270:169,1,160,0|0,3:2|0:2,0:2:0:0:
270,169,42172,1,2,3:2:0:0:
171,57,42401,2,0,P|220:89|279:84,1,120,2|0,3:2|0:2,0:2:0:0:
310,13,42859,2,0,P|290:62|238:76,1,110.000003356934,10|0,0:2|0:2,0:2:0:0:
66,27,43203,5,2,0:2:0:0:
43,63,43317,2,0,P|57:141|53:221,1,160,6|0,3:2|0:2,0:2:0:0:
53,221,44004,1,2,3:2:0:0:
176,339,44233,2,0,P|177:279|184:219,1,120,2|0,3:2|0:2,0:2:0:0:
144,150,44691,2,0,P|182:188|235:181,1,110.000003356934,10|2,0:2|0:2,0:2:0:0:
474,38,45149,6,0,B|431:27|409:41|409:41|376:85|328:78,1,160,2|0,3:2|0:2,0:2:0:0:
329,79,45836,1,0,3:2:0:0:
500,188,46065,5,2,3:2:0:0:
390,164,46294,1,2,0:2:0:0:
297,307,46523,1,10,0:2:0:0:
422,280,46752,1,2,0:2:0:0:
214,342,46981,6,0,P|219:264|283:222,1,160,6|0,3:2|0:2,0:2:0:0:
282,222,47668,1,2,3:2:0:0:
201,100,47897,2,0,P|152:132|93:127,1,120,2|0,3:2|0:2,0:2:0:0:
64,59,48356,2,0,P|84:108|136:122,1,110.000003356934,10|2,0:2|0:2,0:2:0:0:
298,39,48699,5,2,0:2:0:0:
336,16,48814,2,0,P|337:95|342:175,1,160,2|0,3:2|0:2,0:2:0:0:
342,175,49501,1,2,3:2:0:0:
436,308,49730,2,0,P|393:268|334:265,1,120,2|0,3:2|0:2,0:2:0:0:
270,213,50188,6,0,P|252:289|310:343,1,165.000005035401,10|0,3:2|0:2,0:2:0:0:
436,308,50646,1,6,3:2:0:0:
502,361,51104,5,10,3:2:0:0:
441,149,51333,1,6,3:2:0:0:
495,80,51791,5,2,3:2:0:0:
357,173,52020,1,10,0:2:0:0:
198,18,52249,2,0,P|245:81|223:157,1,165.000005035401,6|0,3:2|0:2,0:2:0:0:
153,268,52707,5,4,3:2:0:0:
317,322,52936,1,0,3:2:0:0:
418,182,53165,1,4,3:2:0:0:
317,43,53394,1,0,3:2:0:0:
153,96,53623,1,4,3:2:0:0:
153,96,53737,1,0,3:2:0:0:
153,96,53852,1,4,3:2:0:0:
317,322,54081,1,4,3:2:0:0:
418,182,54310,2,0,B|373:170|338:195|351:211|315:234|265:223,1,165.000005035401,4|0,3:2|0:2,0:2:0:0:
166,194,54768,6,0,P|163:236|173:268,1,75,2|0,0:2|0:2,0:2:0:0:
186,266,55226,2,0,P|176:230|180:192,1,75,2|0,0:2|0:2,0:2:0:0:
249,144,55684,6,0,P|224:75|158:106,1,165.000005035401,2|0,0:2|0:2,0:2:0:0:
266,223,56142,6,0,B|310:220|310:220|382:273|382:273|431:269,1,179.999994506836,6|0,3:2|0:2,0:2:0:0:
416,191,56600,1,8,0:2:0:0:
285,302,56829,1,2,0:2:0:0:
81,255,57058,1,2,3:2:0:0:
164,208,57287,6,0,L|166:274,1,55.0000016784668,0|0,3:2|0:2,0:2:0:0:
176,224,57516,2,0,L|178:290,1,55.0000016784668,8|0,0:2|0:2,0:2:0:0:
122,356,57745,1,2,0:2:0:0:
3,137,57974,6,0,P|88:122|115:53,1,165.000005035401,2|0,3:2|0:2,0:2:0:0:
32,58,58432,1,8,0:2:0:0:
184,147,58661,1,2,0:2:0:0:
351,35,58890,1,2,3:2:0:0:
265,32,59119,6,0,L|263:98,1,55.0000016784668,0|0,3:2|0:2,0:2:0:0:
253,48,59348,2,0,L|251:114,1,55.0000016784668,8|0,0:2|0:2,0:2:0:0:
266,196,59577,1,2,0:2:0:0:
454,22,59806,6,0,P|446:77|445:131,1,110.000003356934,2|2,3:2|0:2,0:2:0:0:
508,286,60264,1,10,0:2:0:0:
411,207,60493,2,0,P|465:210|512:183,1,110.000003356934,2|0,0:2|3:2,0:2:0:0:
370,30,60951,6,0,P|366:57|374:82,1,55.0000016784668,0|0,3:2|0:2,0:2:0:0:
445,131,61180,1,10,0:2:0:0:
269,12,61409,1,2,0:2:0:0:
71,32,61638,6,0,P|104:73|108:132,1,110.000003356934,2|0,3:2|0:2,0:2:0:0:
31,153,61981,1,2,0:2:0:0:
28,109,62095,1,10,0:0:0:0:
193,143,62325,1,2,0:2:0:0:
136,340,62554,5,2,3:2:0:0:
197,280,62783,1,2,3:2:0:0:
390,340,63012,1,10,0:2:0:0:
421,309,63127,1,2,0:2:0:0:
451,278,63241,1,2,0:2:0:0:
417,41,63470,6,0,B|406:25|401:5|401:5|373:37|371:91|387:124,1,165.000005035401,6|0,3:2|0:2,0:2:0:0:
466,108,63928,1,8,0:2:0:0:
306,20,64157,1,2,0:2:0:0:
113,112,64386,1,2,3:2:0:0:
192,153,64615,6,0,L|194:87,1,55.0000016784668,0|0,3:2|0:2,0:2:0:0:
204,137,64844,2,0,L|206:71,1,55.0000016784668,8|0,0:2|0:2,0:2:0:0:
139,17,65073,1,2,0:2:0:0:
254,257,65302,6,0,B|209:245|174:270|187:286|151:309|101:298,1,165.000005035401,2|0,3:2|0:2,0:2:0:0:
117,215,65760,1,8,0:2:0:0:
243,334,65989,1,2,0:2:0:0:
437,280,66218,1,2,3:2:0:0:
367,331,66447,6,0,P|354:306|351:279,1,55.0000016784668,0|0,3:2|0:2,0:2:0:0:
387,200,66676,1,10,0:2:0:0:
343,27,66905,1,2,0:2:0:0:
61,89,67134,6,0,P|129:81|112:149,1,165.000005035401,6|0,3:2|0:2,0:2:0:0:
61,89,67592,1,10,0:2:0:0:
170,307,67821,6,0,B|144:275|145:226|145:226|181:208|208:172,1,165.000005035401,6|0,3:2|0:2,0:2:0:0:
245,257,68279,1,2,3:2:0:0:
93,341,68508,1,8,0:2:0:0:
185,44,68737,6,0,P|267:52|347:69,1,165.000005035401,6|0,3:2|0:2,0:2:0:0:
442,170,69195,1,0,3:2:0:0:
369,318,69424,1,4,3:2:0:0:
205,329,69653,1,0,3:2:0:0:
112,193,69882,1,4,3:2:0:0:
185,44,70111,1,4,3:2:0:0:
348,32,70340,6,0,P|374:80|362:132,1,110.000003356934,2|2,3:2|3:2,0:2:0:0:
288,229,70684,1,0,3:2:0:0:
231,175,70798,2,0,B|276:163|311:188|298:204|334:227|384:216,1,165.000005035401,4|0,3:2|0:2,0:2:0:0:
451,154,71256,1,10,0:2:0:0:
130,38,71485,6,0,P|139:119|140:202,1,165.000005035401,4|0,3:2|0:2,0:2:0:0:
123,306,71943,1,2,3:2:0:0:
43,168,72172,1,10,0:2:0:0:
224,11,72401,1,6,3:2:0:0:
403,48,72630,6,0,P|457:45|499:12,1,110.000003356934,2|0,0:2|3:2,0:2:0:0:
456,171,73088,1,10,0:2:0:0:
405,328,73317,2,0,L|408:355,3,27.5000008392334,2|0|0|0,0:2|0:2|0:2|0:2,0:2:0:0:
403,311,73546,5,6,3:2:0:0:
238,89,73775,1,6,3:2:0:0:
294,27,74004,6,0,P|315:56|321:93,1,75,0|0,3:2|0:2,0:2:0:0:
351,172,74462,6,0,P|296:173|241:180,1,110.000003356934,6|2,3:2|0:2,0:2:0:0:
74,213,74920,1,10,0:2:0:0:
93,130,75149,2,0,P|152:183|155:234,1,110.000003356934,2|0,3:2|0:2,0:2:0:0:
79,357,75607,1,2,3:2:0:0:
200,285,75836,1,8,0:2:0:0:
357,358,76065,5,2,0:2:0:0:
357,358,76180,1,2,0:2:0:0:
357,358,76294,1,2,3:2:0:0:
295,247,76523,2,0,P|292:192|294:137,1,110.000003356934,2|10,0:2|0:2,0:2:0:0:
394,0,76981,2,0,P|439:30|457:81,1,110.000003356934,2|0,3:2|0:2,0:2:0:0:
397,239,77439,1,2,3:2:0:0:
470,283,77668,2,0,P|479:257|479:229,1,55.0000016784668,10|0,0:2|0:2,0:2:0:0:
375,112,77897,6,0,L|376:84,3,27.5000008392334,0|0|0|0,0:2|0:2|0:2|0:2,0:2:0:0:
373,131,78127,2,0,P|319:133|261:140,1,110.000003356934,0|2,3:2|0:2,0:2:0:0:
100,200,78585,1,10,0:2:0:0:
156,265,78814,2,0,P|182:217|176:163,1,110.000003356934,2|0,3:2|0:2,0:2:0:0:
118,8,79272,1,2,3:2:0:0:
34,121,79501,1,8,0:2:0:0:
242,77,79730,5,2,0:2:0:0:
242,77,79844,1,2,0:2:0:0:
242,77,79959,1,2,3:2:0:0:
278,144,80188,1,2,0:2:0:0:
262,253,80417,1,10,0:2:0:0:
402,317,80646,1,2,3:2:0:0:
478,142,80875,5,2,0:2:0:0:
341,42,81104,1,2,3:2:0:0:
167,169,81333,1,10,0:2:0:0:
130,180,81447,1,2,0:2:0:0:
93,191,81562,2,0,L|95:220,3,27.5000008392334,2|0|0|0,0:2|0:2|0:2|0:2,0:2:0:0:
75,178,81791,6,0,P|44:133|48:79,1,110.000003356934,0|2,3:2|0:2,0:2:0:0:
231,25,82249,1,10,0:2:0:0:
270,109,82478,2,0,P|259:163|253:218,1,110.000003356934,2|0,3:2|0:2,0:2:0:0:
365,348,82936,1,2,3:2:0:0:
391,204,83165,1,8,0:2:0:0:
233,338,83394,5,2,0:2:0:0:
233,338,83508,1,2,0:2:0:0:
233,338,83623,1,2,3:2:0:0:
94,350,83852,2,0,P|133:312|141:259,1,110.000003356934,2|10,0:2|0:2,0:2:0:0:
2,126,84310,2,0,P|56:137|111:142,1,110.000003356934,2|0,3:2|0:2,0:2:0:0:
270,74,84768,1,2,3:2:0:0:
195,30,84997,2,0,P|184:58|184:83,1,55.0000016784668,10|0,0:2|0:2,0:2:0:0:
190,241,85226,6,0,L|187:268,3,27.5000008392334,0|0|0|0,0:2|0:2|0:2|0:2,0:2:0:0:
193,225,85455,2,0,B|251:224|237:247|297:256,1,110.000003356934,6|0,3:2|0:2,0:2:0:0:
296,255,85913,1,10,0:2:0:0:
421,359,86142,2,0,P|401:308|412:255,1,110.000003356934,6|0,3:2|0:2,0:2:0:0:
412,255,86600,1,2,3:2:0:0:
388,77,86829,6,0,B|418:88|458:82|458:82|409:103|380:145|380:145|352:178|305:171,1,255.000004863739,10|0,0:2|0:2,0:2:0:0:
155,77,87287,5,6,3:2:0:0:
187,82,87401,1,2,0:2:0:0:
219,88,87516,1,2,0:2:0:0:
383,156,87745,5,14,0:2:0:0:
345,164,87859,1,2,0:2:0:0:
306,171,87974,1,2,0:2:0:0:
109,230,88203,5,6,3:2:0:0:
152,237,88317,1,2,0:2:0:0:
195,244,88432,1,2,0:2:0:0:
424,301,88661,5,14,0:2:0:0:
375,309,88775,1,2,0:2:0:0:
324,316,88890,2,0,P|348:330|375:334,1,55.0000016784668,2|0,3:2|3:2,0:2:0:0:
476,223,89119,5,4,0:2:0:0:
422,153,89348,2,0,P|395:182|387:221,1,80,2|10,0:2|0:2,0:2:0:0:
493,106,89806,2,0,P|445:73|387:77,1,120,2|0,0:2|0:2,0:2:0:0:
351,95,90264,2,0,P|311:98|272:83,1,80,2|8,0:2|0:2,0:2:0:0:
178,16,90722,5,2,0:2:0:0:
178,16,90836,1,0,0:2:0:0:
178,16,90951,2,0,P|182:55|183:95,1,80,0|2,0:2|0:2,0:2:0:0:
175,199,91409,1,10,0:2:0:0:
90,109,91638,1,2,0:2:0:0:
21,164,91867,2,0,L|1:162,4,20,0|0|0|0|0,0:2|0:2|0:2|0:2|0:2,0:2:0:0:
7,28,92325,6,0,L|11:86,1,50,8|0,3:2|0:2,0:2:0:0:
18,16,92554,2,0,L|22:74,1,50,0|0,3:2|0:2,0:2:0:0:
105,191,92783,5,0,3:2:0:0:
36,340,93012,1,2,0:2:0:0:
105,379,93241,1,10,0:2:0:0:
24,261,93470,2,0,B|66:255|96:280|87:289|121:315|160:308,1,150,2|0,3:2|0:2,0:2:0:0:
230,260,93928,2,0,P|203:220|155:223,1,100,2|8,3:2|0:2,0:2:0:0:
44,100,94386,5,2,0:2:0:0:
44,100,94501,1,2,0:2:0:0:
44,100,94615,2,0,P|94:107|144:108,1,100,2|2,3:2|0:2,0:2:0:0:
311,69,95073,1,10,0:2:0:0:
215,16,95302,1,2,3:2:0:0:
245,192,95531,5,2,0:2:0:0:
238,226,95646,1,2,0:2:0:0:
230,260,95760,1,2,3:2:0:0:
304,369,95989,1,10,0:2:0:0:
430,339,96218,2,0,L|427:366,3,25,2|0|0|0,0:2|0:2|0:2|0:2,0:2:0:0:
432,322,96447,5,4,3:2:0:0:
380,261,96676,1,2,0:2:0:0:
439,105,96905,1,10,0:2:0:0:
501,164,97134,2,0,P|437:190|359:144,1,150,2|0,3:2|0:2,0:2:0:0:
331,80,97592,2,0,P|287:99|281:146,1,100,2|8,3:2|0:2,0:2:0:0:
200,328,98050,5,2,0:2:0:0:
200,328,98165,1,2,0:2:0:0:
200,328,98279,2,0,P|199:278|195:228,1,100,2|2,3:2|0:2,0:2:0:0:
59,131,98737,1,10,0:2:0:0:
197,146,98966,2,0,P|149:157|117:195,1,100,2|0,3:2|0:2,0:2:0:0:
106,360,99424,5,2,3:2:0:0:
65,288,99653,2,0,P|88:280|113:278,1,50,10|0,0:2|0:2,0:2:0:0:
252,334,99882,2,0,L|249:358,3,25,2|0|0|0,0:2|0:2|0:2|0:2,0:2:0:0:
256,317,100111,5,0,3:2:0:0:
341,167,100340,2,0,B|291:179|309:197|253:212,1,100,2|10,0:2|0:2,0:2:0:0:
406,226,100798,2,0,P|426:181|420:132,1,100,2|0,3:2|0:2,0:2:0:0:
305,20,101256,5,2,3:2:0:0:
412,12,101485,1,10,0:2:0:0:
341,167,101714,1,2,0:2:0:0:
253,95,101943,5,2,3:2:0:0:
82,141,102172,1,2,0:2:0:0:
24,86,102401,1,10,0:2:0:0:
176,177,102630,1,2,3:2:0:0:
356,89,102859,5,2,0:2:0:0:
350,54,102974,1,2,0:2:0:0:
344,19,103088,2,0,P|332:41|327:65,1,50,2|0,3:2|0:2,0:2:0:0:
350,189,103317,1,8,0:2:0:0:
474,277,103546,2,0,L|505:274,3,25,0|0|0|0,0:2|0:2|0:2|0:2,0:2:0:0:
455,280,103775,6,0,P|375:291|297:309,1,160,6|0,3:2|0:2,0:2:0:0:
297,309,104462,1,2,3:2:0:0:
148,362,104691,2,0,P|159:303|155:243,1,120,2|0,3:2|0:2,0:2:0:0:
89,198,105149,2,0,P|137:218|181:189,1,110.000003356934,10|2,0:2|0:2,0:2:0:0:
277,47,105493,5,2,0:2:0:0:
299,14,105607,2,0,P|300:93|306:173,1,160,0|0,3:2|0:2,0:2:0:0:
306,173,106294,1,2,3:2:0:0:
252,313,106523,2,0,P|301:281|360:286,1,120,2|0,3:2|0:2,0:2:0:0:
391,357,106981,2,0,P|371:308|319:294,1,110.000003356934,10|0,0:2|0:2,0:2:0:0:
153,355,107325,5,2,0:2:0:0:
113,360,107439,2,0,P|51:313|51:235,1,160,6|0,3:2|0:2,0:2:0:0:
50,235,108127,1,2,3:2:0:0:
121,94,108356,2,0,P|151:145|167:203,1,120,2|0,3:2|0:2,0:2:0:0:
130,275,108814,2,0,P|164:234|215:244,1,110.000003356934,10|2,0:2|0:0,0:2:0:0:
462,348,109272,6,0,P|454:268|452:188,1,160,2|0,3:2|0:0,0:2:0:0:
452,188,109959,1,0,3:2:0:0:
393,45,110188,5,2,3:2:0:0:
346,146,110417,1,2,0:2:0:0:
178,197,110646,1,10,0:2:0:0:
223,316,110875,1,2,0:2:0:0:
186,113,111103,6,0,B|143:102|121:116|121:116|88:160|40:153,1,160,6|0,3:2|0:2,0:2:0:0:
41,154,111791,1,2,3:2:0:0:
142,267,112020,2,0,P|89:242|31:255,1,120,2|0,3:2|0:2,0:2:0:0:
10,331,112478,2,0,P|22:279|72:258,1,110.000003356934,10|2,0:2|0:2,0:2:0:0:
237,329,112821,5,2,0:2:0:0:
272,346,112936,2,0,P|347:329|376:257,1,160,2|0,3:2|0:2,0:2:0:0:
376,257,113623,1,2,3:2:0:0:
464,126,113852,2,0,P|421:166|362:169,1,120,2|0,3:2|0:2,0:2:0:0:
298,221,114310,6,0,P|280:145|338:91,1,165.000005035401,10|0,3:2|0:2,0:2:0:0:
464,126,114768,1,6,3:2:0:0:
418,54,115226,5,10,3:2:0:0:
465,268,115455,1,6,3:2:0:0:
500,353,115913,5,2,3:2:0:0:
376,240,116142,1,10,0:2:0:0:
162,327,116371,2,0,P|209:264|187:188,1,165.000005035401,6|0,3:2|0:2,0:2:0:0:
117,77,116829,5,4,3:2:0:0:
281,23,117058,1,0,3:2:0:0:
382,163,117287,1,4,3:2:0:0:
281,302,117516,1,0,3:2:0:0:
117,249,117745,1,4,3:2:0:0:
117,249,117859,1,0,3:2:0:0:
117,249,117974,1,4,3:2:0:0:
281,23,118203,1,4,3:2:0:0:
382,163,118432,6,0,P|366:227|308:196,1,150,4|0,3:2|0:2,0:2:0:0:
228,50,119348,6,8,B|203:47|203:47|181:57,7,50,10|8|8|8|8|8|8|8,0:2|0:2|0:2|0:2|0:2|0:2|0:2|0:2,0:2:0:0:
244,54,119806,6,0,P|239:91|239:128,1,75,2|0,0:2|0:2,0:2:0:0:
382,163,120264,6,0,B|338:159|338:159|268:216|268:216|219:213,1,179.999994506836,6|0,3:2|0:2,0:2:0:0:
239,128,120722,1,8,0:2:0:0:
366,245,120951,1,2,0:2:0:0:
503,85,121180,1,2,3:2:0:0:
414,12,121409,6,0,L|417:77,1,55.0000016784668,0|0,3:2|0:2,0:2:0:0:
403,28,121638,2,0,L|406:93,1,55.0000016784668,8|0,0:2|0:2,0:2:0:0:
466,166,121867,1,2,0:2:0:0:
253,44,122096,6,0,P|176:67|151:142,1,165.000005035401,2|0,3:2|0:2,0:2:0:0:
239,128,122554,1,8,0:2:0:0:
99,20,122783,1,2,0:2:0:0:
0,200,123012,1,2,3:2:0:0:
96,213,123241,6,0,L|93:278,1,55.0000016784668,0|0,3:2|0:2,0:2:0:0:
107,229,123470,2,0,L|104:294,1,55.0000016784668,8|0,0:2|0:2,0:2:0:0:
44,360,123699,1,2,0:2:0:0:
242,212,123928,6,0,P|296:212|350:222,1,110.000003356934,2|2,3:2|0:2,0:2:0:0:
502,299,124386,1,10,0:2:0:0:
423,180,124615,2,0,P|435:232|412:280,1,110.000003356934,2|0,0:2|3:2,0:2:0:0:
251,128,125073,6,0,P|277:133|301:147,1,55.0000016784668,0|0,3:2|0:2,0:2:0:0:
351,223,125302,1,10,0:2:0:0:
235,47,125531,1,2,0:2:0:0:
14,69,125760,6,0,P|21:121|61:164,1,110.000003356934,2|0,3:2|0:2,0:2:0:0:
127,120,126103,1,2,0:2:0:0:
99,85,126218,1,10,0:0:0:0:
0,225,126447,1,2,0:2:0:0:
151,355,126676,5,2,3:2:0:0:
126,270,126905,1,2,3:2:0:0:
256,108,127134,1,10,0:2:0:0:
266,65,127249,1,2,0:2:0:0:
278,23,127363,1,2,0:2:0:0:
248,329,127592,6,0,B|224:318|210:293|210:293|212:223|278:215,1,165.000005035401,6|0,3:2|0:2,0:2:0:0:
318,288,128050,1,8,0:2:0:0:
175,170,128279,1,2,0:2:0:0:
309,0,128508,1,2,3:2:0:0:
249,125,128737,6,0,L|245:60,1,55.0000016784668,0|0,3:2|0:2,0:2:0:0:
236,110,128966,2,0,L|232:45,1,55.0000016784668,8|0,0:2|0:2,0:2:0:0:
149,0,129195,1,2,0:2:0:0:
347,124,129424,6,0,B|392:112|427:137|414:153|450:176|500:165,1,165.000005035401,2|0,3:2|0:2,0:2:0:0:
483,83,129882,1,8,0:2:0:0:
358,206,130111,1,2,0:2:0:0:
485,364,130340,1,2,3:2:0:0:
501,281,130569,6,0,P|473:280|447:288,1,55.0000016784668,0|0,3:2|0:2,0:2:0:0:
394,363,130798,1,10,0:2:0:0:
199,347,131027,1,2,0:2:0:0:
83,97,131256,6,0,P|75:166|143:148,1,165.000005035401,6|0,3:2|0:2,0:2:0:0:
83,97,131714,1,10,0:2:0:0:
249,287,131943,6,0,B|208:268|195:220|195:220|222:190|228:152,1,165.000005035401,6|0,3:2|0:2,0:2:0:0:
298,216,132401,1,2,3:2:0:0:
118,255,132630,1,8,0:2:0:0:
359,55,132859,6,0,P|380:134|393:215,1,165.000005035401,6|0,3:2|0:2,0:2:0:0:
332,339,133317,1,0,3:2:0:0:
168,323,133546,1,4,3:2:0:0:
99,174,133775,1,0,3:2:0:0:
192,39,134004,1,4,3:2:0:0:
359,55,134233,1,4,3:2:0:0:
431,199,134462,6,0,P|388:233|335:231,1,110.000003356934,2|2,3:2|3:2,0:2:0:0:
208,184,134806,1,0,3:2:0:0:
244,112,134920,2,0,P|250:194|248:276,1,165.000005035401,4|0,3:2|0:2,0:2:0:0:
203,362,135378,1,10,0:2:0:0:
332,113,135607,6,0,P|292:43|214:33,1,165.000005035401,4|0,3:2|0:2,0:2:0:0:
133,81,136065,1,2,3:2:0:0:
252,215,136294,1,10,0:2:0:0:
477,98,136523,1,6,3:2:0:0:
439,272,136752,6,0,P|445:326|479:369,1,110.000003356934,2|0,0:2|3:2,0:2:0:0:
302,360,137210,1,10,0:2:0:0:
126,348,137439,2,0,L|97:344,3,27.5000008392334,2|0|0|0,0:2|0:2|0:2|0:2,0:2:0:0:
144,350,137668,5,6,3:2:0:0:
244,112,137897,1,6,3:2:0:0:
171,75,138127,5,2,3:2:0:0:
162,112,138241,1,2,0:2:0:0:
169,149,138356,1,2,0:2:0:0:
192,179,138470,1,2,0:2:0:0:
229,192,138585,2,0,B|272:195|272:195|353:139|353:139|392:142,1,179.999994506836,6|0,3:2|0:2,0:2:0:0:
469,220,139043,6,0,P|424:247|375:226,1,110.000003356934,10|0,0:2|0:2,0:2:0:0:
392,142,139386,1,0,3:2:0:0:
417,153,139501,1,2,3:2:0:0:
435,335,139730,1,0,0:2:0:0:
246,365,139959,2,0,P|192:354|138:349,1,110.000003356934,10|0,0:2|0:2,0:2:0:0:
4,252,140417,6,0,P|55:234|87:190,1,110.000003356934,2|0,3:2|0:2,0:2:0:0:
0,110,140760,2,0,L|5:164,1,55.0000016784668,2|8,0:2|0:2,0:2:0:0:
240,38,141104,5,2,0:2:0:0:
277,30,141218,1,0,3:2:0:0:
315,24,141333,1,0,3:2:0:0:
411,78,141562,1,2,0:2:0:0:
369,265,141791,1,10,0:2:0:0:
455,345,142020,1,2,0:2:0:0:
463,167,142249,6,0,P|408:170|353:177,1,110.000003356934,0|2,3:2|0:2,0:2:0:0:
289,325,142707,2,0,P|284:271|247:232,1,110.000003356934,10|2,0:2|0:2,0:2:0:0:
185,289,143050,1,0,3:2:0:0:
207,305,143165,1,2,3:2:0:0:
166,197,143394,1,2,0:2:0:0:
363,45,143623,1,10,0:2:0:0:
467,98,143852,1,2,0:2:0:0:
428,328,144081,6,0,P|415:275|372:242,1,110.000003356934,2|0,3:2|0:2,0:2:0:0:
289,325,144424,2,0,L|343:321,1,55.0000016784668,2|8,0:2|0:2,0:2:0:0:
287,79,144768,5,2,0:2:0:0:
248,83,144883,1,0,3:2:0:0:
209,87,144997,1,0,3:2:0:0:
115,23,145226,1,2,0:2:0:0:
36,221,145455,1,10,0:2:0:0:
44,258,145569,1,2,0:2:0:0:
51,295,145684,2,0,P|63:270|67:243,1,55.0000016784668,2|0,0:2|0:2,0:2:0:0:
45,119,145913,5,4,3:2:0:0:
203,163,146142,1,2,0:2:0:0:
212,327,146371,1,10,0:2:0:0:
342,376,146600,1,2,0:2:0:0:
379,370,146714,1,0,3:2:0:0:
417,365,146829,1,2,3:2:0:0:
512,273,147058,1,2,0:2:0:0:
467,116,147287,1,10,0:2:0:0:
510,49,147516,1,2,0:2:0:0:
424,246,147745,6,0,P|411:193|371:156,1,110.000003356934,0|2,3:2|0:2,0:2:0:0:
230,250,148203,2,0,P|284:240|339:237,1,110.000003356934,10|2,0:2|0:2,0:2:0:0:
424,246,148546,1,0,3:2:0:0:
413,271,148661,1,0,3:2:0:0:
208,93,148890,5,2,0:2:0:0:
386,10,149119,1,10,0:2:0:0:
371,156,149348,1,2,0:2:0:0:
152,199,149577,6,0,B|153:141|130:155|121:95,1,110.000003356934,6|0,3:2|0:2,0:2:0:0:
121,95,150035,1,10,0:2:0:0:
288,8,150264,2,0,P|283:62|282:117,1,110.000003356934,6|0,3:2|0:2,0:2:0:0:
282,117,150722,1,2,3:2:0:0:
381,274,150951,6,0,P|375:247|389:224,1,55.0000016784668,10|0,0:2|0:2,0:2:0:0:
407,229,151180,2,0,P|412:255|398:278,1,55.0000016784668,2|0,0:2|0:2,0:2:0:0:
282,117,151409,5,6,3:2:0:0:
293,92,151523,1,2,0:2:0:0:
306,68,151638,1,2,0:2:0:0:
177,154,151867,5,14,0:2:0:0:
146,140,151981,1,2,0:2:0:0:
115,126,152096,1,2,0:2:0:0:
215,262,152325,5,6,3:2:0:0:
198,296,152439,1,2,0:2:0:0:
183,331,152554,1,2,0:2:0:0:
324,222,152783,5,14,0:2:0:0:
363,243,152897,1,2,0:2:0:0:
403,264,153012,1,2,0:2:0:0:
326,23,153241,5,6,3:2:0:0:
309,57,153356,1,2,0:2:0:0:
293,92,153470,1,2,0:2:0:0:
443,285,153699,5,14,0:2:0:0:
403,264,153814,1,2,0:2:0:0:
363,243,153928,1,2,0:2:0:0:
156,382,154157,5,6,3:2:0:0:
178,337,154272,1,2,0:2:0:0:
200,292,154386,1,2,0:2:0:0:
49,91,154615,5,14,0:2:0:0:
98,115,154730,1,2,0:2:0:0:
146,140,154844,1,2,0:2:0:0:
444,37,155073,6,0,P|437:91|435:146,1,110.000003356934,6|0,3:2|0:2,0:2:0:0:
475,308,155531,2,0,P|449:260|400:236,1,110.000003356934,8|0,0:2|0:2,0:2:0:0:
364,313,155875,1,0,3:2:0:0:
390,320,155989,1,0,3:2:0:0:
343,157,156218,1,0,0:2:0:0:
189,55,156447,1,8,0:2:0:0:
275,0,156676,6,0,P|272:52|271:109,1,110.000003356934,2|0,0:2|3:2,0:2:0:0:
63,174,157134,2,0,P|66:120|102:79,1,110.000003356934,2|8,0:2|0:2,0:2:0:0:
67,341,157592,5,2,0:2:0:0:
57,297,157707,1,0,3:2:0:0:
47,254,157821,2,0,B|95:264|131:241|118:225|153:200|198:212,1,165.000005035401,0|0,3:2|0:2,0:2:0:0:
267,319,158279,2,0,P|216:331|182:291,1,110.000003356934,10|2,0:2|0:2,0:2:0:0:
325,55,158737,6,0,P|326:109|332:164,1,110.000003356934,4|0,3:2|0:2,0:2:0:0:
481,250,159195,2,0,P|455:298|406:322,1,110.000003356934,8|0,0:2|0:2,0:2:0:0:
370,245,159539,1,0,3:2:0:0:
396,238,159653,1,0,3:2:0:0:
475,112,159882,2,0,P|474:59|508:16,1,110.000003356934,0|8,0:2|0:2,0:2:0:0:
133,58,160340,6,0,P|152:138|157:220,1,165.000005035401,6|0,3:2|0:2,0:2:0:0:
134,319,160798,1,2,3:2:0:0:
57,188,161027,1,8,0:2:0:0:
251,35,161256,6,0,B|296:23|331:48|318:64|354:87|402:77,1,165.000005035401,6|0,0:2|0:2,0:2:0:0:
507,53,161715,1,2,3:2:0:0:
501,96,161829,1,0,3:2:0:0:
495,139,161944,1,8,3:2:0:0:
412,343,162172,6,0,B|431:317|466:310|466:310|430:288|396:333|367:371|305:348,1,239.999992675781,6|0,3:2|0:2,0:2:0:0:
330,168,162859,6,0,P|350:219|337:272,1,110.000003356934,8|0,0:2|0:2,0:2:0:0:
214,365,163317,1,0,3:2:0:0:
175,169,163546,2,0,P|209:209|263:224,1,110.000003356934,0|8,0:2|0:2,0:2:0:0:
344,49,164004,6,0,P|262:57|182:74,1,165.000005035401,0|0,3:2|0:2,0:2:0:0:
87,175,164462,1,0,3:2:0:0:
160,323,164691,1,4,3:2:0:0:
324,334,164920,1,0,3:2:0:0:
417,198,165149,1,4,3:2:0:0:
344,49,165378,1,4,3:2:0:0:
181,37,165607,1,4,3:2:0:0:
256,194,165836,5,4,3:2:0:0:
256,194,165951,1,0,3:2:0:0:
256,194,166065,2,0,P|249:243|248:293,1,100,4|2,3:2|0:2,0:2:0:0:
248,293,167439,5,8,0:2:0:0:
184,190,167668,1,0,3:2:0:0:
185,153,167782,1,0,3:2:0:0:
188,116,167897,1,2,3:2:0:0:
295,56,168127,5,2,0:2:0:0:
369,119,168356,1,10,0:2:0:0:
449,112,168585,2,0,P|433:190|434:270,1,160,2|10,0:2|0:2,0:2:0:0:
434,270,169272,1,8,0:2:0:0:
160,248,169959,5,2,0:2:0:0:
96,177,170188,1,10,0:2:0:0:
32,224,170417,2,0,B|71:242|85:289|85:289|62:318|60:358,1,160,2|10,0:2|0:2,0:2:0:0:
60,356,171104,1,8,0:2:0:0:
362,361,171791,5,2,0:2:0:0:
449,316,172020,1,10,0:2:0:0:
468,238,172249,2,0,B|425:227|402:245|402:245|370:288|322:278,1,160,2|10,0:2|0:2,0:2:0:0:
323,279,172936,1,8,0:2:0:0:
72,111,173623,5,2,0:2:0:0:
116,178,173852,1,10,0:2:0:0:
222,201,174081,1,2,0:2:0:0:
385,97,174310,6,8,B|360:100|360:100|338:90,6,50,10|8|8|8|8|8|8,0:2|0:2|0:2|0:2|0:2|0:2|0:2,0:2:0:0:
405,96,174768,5,2,0:2:0:0:
413,138,174882,1,2,0:2:0:0:
424,180,174997,2,0,P|435:154|437:127,1,55.0000016784668,2|0,0:2|0:2,0:2:0:0:
200,24,175226,6,0,P|221:110|223:200,1,179.999994506836,6|0,3:2|0:0,0:2:0:0:
180,289,175684,1,8,0:2:0:0:
100,134,175913,1,2,0:2:0:0:
296,15,176142,1,2,3:2:0:0:
388,39,176371,6,0,L|385:104,1,55.0000016784668,0|0,3:2|0:2,0:2:0:0:
399,55,176600,2,0,L|396:120,1,55.0000016784668,8|0,0:2|0:2,0:2:0:0:
442,202,176829,1,2,0:2:0:0:
189,155,177058,6,0,B|234:143|269:168|256:184|292:207|342:196,1,165.000005035401,2|0,3:2|0:2,0:2:0:0:
323,112,177516,1,8,0:2:0:0:
201,240,177745,1,2,0:2:0:0:
60,68,177974,1,2,3:2:0:0:
134,26,178203,6,0,P|142:51|144:79,1,55.0000016784668,0|0,3:2|0:2,0:2:0:0:
100,161,178432,1,10,0:2:0:0:
162,326,178661,1,2,0:2:0:0:
441,309,178890,6,0,P|372:317|390:249,1,165.000005035401,6|0,3:2|0:2,0:2:0:0:
441,309,179348,1,10,0:2:0:0:
321,90,179576,6,0,B|347:128|345:170|345:170|309:188|286:224,1,165.000005035401,6|0,3:2|0:2,0:2:0:0:
245,140,180034,1,2,3:2:0:0:
387,30,180263,1,8,0:2:0:0:
339,323,180493,6,0,P|257:315|177:298,1,165.000005035401,6|0,3:2|0:2,0:2:0:0:
82,197,180951,1,0,3:2:0:0:
155,49,181180,1,4,3:2:0:0:
319,38,181409,1,0,3:2:0:0:
412,174,181638,1,4,3:2:0:0:
339,323,181867,1,4,3:2:0:0:
176,335,182096,6,0,P|150:287|162:235,1,110.000003356934,2|2,3:2|3:2,0:2:0:0:
236,138,182439,1,0,3:2:0:0:
294,194,182553,2,0,B|249:206|214:181|227:165|191:142|141:153,1,165.000005035401,4|0,3:2|0:2,0:2:0:0:
75,211,183012,1,10,0:2:0:0:
392,326,183241,6,0,P|383:245|382:162,1,165.000005035401,4|0,3:2|0:2,0:2:0:0:
399,58,183699,1,2,3:2:0:0:
479,196,183928,1,10,0:2:0:0:
298,353,184157,1,6,3:2:0:0:
119,316,184386,6,0,P|65:319|23:352,1,110.000003356934,2|0,0:2|3:2,0:2:0:0:
66,193,184844,1,10,0:2:0:0:
117,36,185073,2,0,L|114:9,3,27.5000008392334,2|0|0|0,0:2|0:2|0:2|0:2,0:2:0:0:
119,53,185302,5,6,3:2:0:0:
251,278,185531,1,6,3:2:0:0:
332,303,185760,6,0,P|334:265|321:231,1,75,0|0,3:2|0:2,0:2:0:0:
338,151,186218,6,0,B|296:148|296:148|221:205|221:205|175:201,1,179.999994506836,6|0,3:2|0:2,0:2:0:0:
193,117,186676,1,8,0:2:0:0:
321,231,186905,1,2,0:2:0:0:
497,99,187134,1,2,3:2:0:0:
407,28,187363,6,0,L|410:93,1,55.0000016784668,0|0,3:2|0:2,0:2:0:0:
396,44,187592,2,0,L|399:109,1,55.0000016784668,8|0,0:2|0:2,0:2:0:0:
459,182,187821,1,2,0:2:0:0:
287,354,188050,6,0,P|263:277|189:247,1,165.000005035401,2|0,3:2|0:2,0:2:0:0:
201,334,188508,1,8,0:2:0:0:
259,169,188737,1,2,0:2:0:0:
93,52,188966,1,2,3:2:0:0:
179,11,189195,6,0,L|176:76,1,55.0000016784668,0|0,3:2|0:2,0:2:0:0:
190,27,189424,2,0,L|187:92,1,55.0000016784668,8|0,0:2|0:2,0:2:0:0:
127,165,189653,1,2,0:2:0:0:
375,37,189882,6,0,P|367:92|366:146,1,110.000003356934,2|2,3:2|0:2,0:2:0:0:
429,301,190340,1,10,0:2:0:0:
332,222,190569,2,0,P|386:225|433:198,1,110.000003356934,2|0,0:2|3:2,0:2:0:0:
291,45,191027,6,0,P|287:72|295:97,1,55.0000016784668,0|0,3:2|0:2,0:2:0:0:
366,146,191256,1,10,0:2:0:0:
190,27,191485,1,2,0:2:0:0:
87,258,191714,6,0,P|82:204|112:154,1,110.000003356934,2|0,3:2|0:2,0:2:0:0:
194,185,192057,1,2,0:2:0:0:
170,222,192172,1,10,0:0:0:0:
0,208,192401,1,2,0:2:0:0:
39,19,192630,5,2,3:2:0:0:
120,65,192859,1,2,3:2:0:0:
306,0,193088,1,10,0:2:0:0:
344,21,193203,1,2,0:2:0:0:
380,44,193317,1,2,0:2:0:0:
455,283,193546,6,0,B|444:299|439:319|439:319|411:287|409:233|425:199,1,165.000005035401,6|0,3:2|0:2,0:2:0:0:
507,225,194004,1,8,0:2:0:0:
331,169,194233,1,2,0:2:0:0:
166,304,194462,1,2,3:2:0:0:
261,366,194691,6,0,L|258:301,1,55.0000016784668,0|0,3:2|0:2,0:2:0:0:
272,350,194920,2,0,L|269:285,1,55.0000016784668,8|0,0:2|0:2,0:2:0:0:
209,212,195149,1,2,0:2:0:0:
34,52,195378,6,0,B|79:40|114:65|101:81|137:104|187:93,1,165.000005035401,2|0,3:2|0:2,0:2:0:0:
171,10,195836,1,8,0:2:0:0:
45,129,196065,1,2,0:2:0:0:
166,304,196294,1,2,3:2:0:0:
90,349,196523,6,0,P|81:323|79:295,1,55.0000016784668,0|0,3:2|0:2,0:2:0:0:
127,216,196752,1,10,0:2:0:0:
89,30,196981,1,2,0:2:0:0:
407,93,197210,6,0,P|338:85|356:153,1,165.000005035401,6|0,3:2|0:2,0:2:0:0:
407,93,197668,1,10,0:2:0:0:
363,323,197897,6,0,B|376:280|358:238|358:238|316:234|285:212,1,165.000005035401,6|0,3:2|0:2,0:2:0:0:
283,303,198355,1,2,3:2:0:0:
437,191,198584,1,8,0:2:0:0:
166,318,198814,6,0,P|148:237|139:156,1,165.000005035401,6|0,3:2|0:2,0:2:0:0:
206,34,199272,1,0,3:2:0:0:
369,58,199501,1,4,3:2:0:0:
430,210,199730,1,0,3:2:0:0:
330,341,199959,1,4,3:2:0:0:
166,318,200188,1,4,3:2:0:0:
103,165,200417,6,0,P|157:154|212:152,1,110.000003356934,2|2,3:2|3:2,0:2:0:0:
356,163,200760,1,0,3:2:0:0:
319,235,200875,2,0,B|322:195|297:153|297:153|297:114|325:76,1,165.000005035401,4|0,3:2|0:2,0:2:0:0:
412,62,201333,1,10,0:2:0:0:
304,318,201562,6,0,P|221:320|139:329,1,165.000005035401,4|0,3:2|0:2,0:2:0:0:
47,355,202020,1,2,3:2:0:0:
172,231,202249,1,10,0:2:0:0:
386,306,202478,1,6,3:2:0:0:
415,105,202707,6,0,P|454:68|469:11,1,110.000003356934,2|0,0:2|3:2,0:2:0:0:
296,51,203165,1,10,0:2:0:0:
124,89,203394,2,0,L|96:93,3,27.5000008392334,2|0|0|0,0:2|0:2|0:2|0:2,0:2:0:0:
142,86,203623,5,6,3:2:0:0:
267,306,203852,1,6,3:2:0:0:
199,360,204081,6,0,P|183:326|181:288,1,75,0|0,0:2|0:2,0:2:0:0:
157,205,204539,6,0,P|211:207|267:212,1,110.000003356934,6|2,3:2|0:2,0:2:0:0:
416,139,204997,1,10,0:2:0:0:
382,61,205226,2,0,P|340:95|330:148,1,110.000003356934,2|0,0:2|3:2,0:2:0:0:
453,236,205684,6,0,L|399:231,1,55.0000016784668,2|0,3:2|0:2,0:2:0:0:
442,248,205913,2,0,L|388:243,1,55.0000016784668,8|0,0:2|0:2,0:2:0:0:
291,291,206142,1,0,0:2:0:0:
227,107,206371,5,0,3:2:0:0:
142,40,206600,2,0,P|146:94|147:149,1,110.000003356934,2|10,0:2|0:2,0:2:0:0:
81,315,207058,2,0,P|128:289|154:241,1,110.000003356934,2|0,0:2|3:2,0:2:0:0:
0,215,207516,6,0,L|54:210,1,55.0000016784668,2|0,3:2|0:2,0:2:0:0:
11,227,207745,2,0,L|65:222,1,55.0000016784668,8|0,0:2|0:2,0:2:0:0:
147,149,207974,1,0,0:2:0:0:
331,266,208203,5,0,3:2:0:0:
276,331,208432,2,0,P|246:285|250:231,1,110.000003356934,2|10,0:2|0:2,0:2:0:0:
403,146,208890,2,0,P|348:145|293:140,1,110.000003356934,2|0,0:2|3:2,0:2:0:0:
139,71,209348,6,0,L|193:76,1,55.0000016784668,2|0,3:2|0:2,0:2:0:0:
150,59,209577,2,0,L|204:64,1,55.0000016784668,8|0,0:2|0:2,0:2:0:0:
301,14,209806,1,0,0:2:0:0:
403,146,210035,5,0,3:2:0:0:
325,143,210264,1,2,0:2:0:0:
264,271,210493,1,10,0:2:0:0:
389,357,210722,1,2,0:2:0:0:
512,210,210951,5,2,3:2:0:0:
486,43,211180,1,2,3:2:0:0:
325,143,211409,1,10,0:2:0:0:
281,149,211523,1,2,0:2:0:0:
237,156,211638,1,2,0:2:0:0:
26,33,211867,6,0,P|34:87|37:142,1,110.000003356934,4|2,3:2|0:2,0:2:0:0:
25,312,212325,1,10,0:2:0:0:
2,229,212554,2,0,P|56:232|99:265,1,110.000003356934,2|0,0:2|3:2,0:2:0:0:
251,285,213012,6,0,L|196:288,1,55.0000016784668,2|0,3:2|0:2,0:2:0:0:
242,298,213241,2,0,L|187:301,1,55.0000016784668,8|0,0:2|0:2,0:2:0:0:
106,363,213470,1,0,0:2:0:0:
62,129,213699,5,0,3:2:0:0:
128,64,213928,2,0,P|182:66|238:70,1,110.000003356934,2|10,0:2|0:2,0:2:0:0:
408,24,214386,2,0,P|369:60|358:113,1,110.000003356934,2|0,0:2|3:2,0:2:0:0:
356,270,214844,6,0,L|410:265,1,55.0000016784668,2|0,3:2|0:2,0:2:0:0:
367,282,215073,2,0,L|421:277,1,55.0000016784668,8|0,0:2|0:2,0:2:0:0:
499,205,215302,1,0,0:2:0:0:
299,167,215531,6,0,B|300:225|277:211|268:271,1,110.000003356934,6|0,3:2|0:2,0:2:0:0:
268,270,215989,1,10,0:2:0:0:
96,359,216218,2,0,P|93:305|86:250,1,110.000003356934,6|0,3:2|0:2,0:2:0:0:
86,250,216676,1,2,3:2:0:0:
57,68,216905,5,8,0:0:0:0:
232,9,217134,1,0,3:0:0:0:
397,219,217363,6,0,B|386:250|399:283|399:283|372:238|395:194|395:194|412:157|447:139|495:142|517:62|437:19|393:67|393:67|364:10|284:34|274:107|311:113|340:135|348:164,1,623.999996191406,4|0,0:2|0:2,0:2:0:0:
