osu file format v14

[General]
AudioFilename: audio.mp3
AudioLeadIn: 0
PreviewTime: 54653
Countdown: 0
SampleSet: Soft
StackLeniency: 0.3
Mode: 0
LetterboxInBreaks: 0
WidescreenStoryboard: 1

[Editor]
Bookmarks: 24997,56142,74462,120264,138585,175226,204539
DistanceSpacing: 1.2
BeatDivisor: 4
GridSize: 32
TimelineZoom: 2.6

[Metadata]
Title:Kodou no Himitsu
TitleUnicode:鼓動の秘密
Artist:Kaf
ArtistUnicode:花譜
Creator:Vararaup
Version:Hard
Source:
Tags:東京女子流 tokyo girls' style vtuber virtual 神椿スタジオ kamitsubaki studio japanese pop jpop j-pop c.close 花村智志 Satoshi Hanamura Sho Watanabe
BeatmapID:3005871
BeatmapSetID:1459947

[Difficulty]
HPDrainRate:5
CircleSize:3.8
OverallDifficulty:6
ApproachRate:7
SliderMultiplier:1.64
SliderTickRate:1

[Events]
//Background and Video events
0,0,"kaflowe.jpg",0,0
//Break Periods
2,168097,173409
//Storyboard Layer 0 (Background)
//Storyboard Layer 1 (Fail)
//Storyboard Layer 2 (Pass)
//Storyboard Layer 3 (Foreground)
//Storyboard Layer 4 (Overlay)
//Storyboard Sound Samples

[TimingPoints]
3012,458.015267175573,4,2,2,50,1,0
17667,-90.9090909090909,4,2,1,50,0,0
22706,-83.3333333333333,4,2,1,50,0,0
23164,-90.9090909090909,4,2,1,50,0,0
24996,-100,4,2,1,40,0,0
39652,-111.111111111111,4,2,1,40,0,0
41026,-111.111111111111,4,2,1,40,0,0
41484,-111.111111111111,4,2,1,40,0,0
42858,-111.111111111111,4,2,1,40,0,0
43316,-111.111111111111,4,2,1,40,0,0
44690,-111.111111111111,4,2,1,40,0,0
45148,-111.111111111111,4,2,1,40,0,0
48355,-111.111111111111,4,2,1,40,0,0
48813,-111.111111111111,4,2,1,40,0,0
50187,-100,4,2,1,40,0,0
52706,-100,4,2,1,30,0,0
54767,-100,4,2,1,40,0,0
55683,-100,4,2,1,50,0,0
56141,-90.9090909090909,4,2,1,50,0,0
56599,-90.9090909090909,4,2,1,50,0,0
74003,-111.111111111111,4,2,1,50,0,0
74461,-90.9090909090909,4,2,1,50,0,0
86828,-83.3333333333333,4,2,1,50,0,0
87286,-90.9090909090909,4,2,1,50,0,0
89118,-111.111111111111,4,2,2,40,0,0
92324,-100,4,2,2,40,0,0
92782,-100,4,2,1,40,0,0
103774,-111.111111111111,4,2,1,40,0,0
105148,-111.111111111111,4,2,1,40,0,0
105606,-111.111111111111,4,2,1,40,0,0
106980,-111.111111111111,4,2,1,40,0,0
107438,-111.111111111111,4,2,1,40,0,0
108813,-111.111111111111,4,2,1,40,0,0
109271,-111.111111111111,4,2,1,40,0,0
112477,-111.111111111111,4,2,1,40,0,0
112935,-111.111111111111,4,2,1,40,0,0
114309,-100,4,2,1,40,0,0
116828,-100,4,2,1,35,0,0
118431,-100,4,2,1,40,0,0
119347,-100,4,2,1,20,0,0
119805,-100,4,2,1,40,0,0
120263,-90.9090909090909,4,2,1,50,0,0
120721,-90.9090909090909,4,2,1,50,0,0
138584,-90.9090909090909,4,2,1,50,0,0
139042,-90.9090909090909,4,2,1,50,0,0
162171,-90.9090909090909,4,2,1,50,0,0
162629,-90.9090909090909,4,2,1,50,0,0
166064,-100,4,2,1,50,0,0
167896,-111.111111111111,4,2,2,50,0,0
174309,-90.9090909090909,4,2,1,20,0,0
174767,-90.9090909090909,4,2,1,50,0,0
175225,-90.9090909090909,4,2,1,50,0,0
175683,-90.9090909090909,4,2,1,50,0,0
185759,-111.111111111111,4,2,1,50,0,0
186217,-90.9090909090909,4,2,1,50,0,0
186675,-90.9090909090909,4,2,1,50,0,0
204080,-111.111111111111,4,2,1,50,0,0
204538,-90.9090909090909,4,2,1,50,0,0
216904,-83.3333333333333,4,2,1,50,0,0
217362,-90.9090909090909,4,2,1,50,0,0
222858,-90.9090909090909,4,2,1,5,0,0

[Colours]
Combo1 : 75,101,203
Combo2 : 128,128,192
Combo3 : 223,151,232

[HitObjects]
100,149,3011,6,0,P|54:161|31:138,2,82,6|2|2,3:2|0:2|0:2,0:2:0:0:
81,50,3699,2,0,P|121:52|158:69,1,82,2|0,3:2|3:2,0:0:0:0:
201,157,4157,2,0,P|190:195|165:227,1,82,2|8,0:2|0:2,0:0:0:0:
316,355,4844,5,0,3:2:0:0:
303,257,5073,2,0,P|349:245|372:268,1,82,2|2,0:2|0:2,0:2:0:0:
447,328,5531,2,0,P|465:291|466:251,1,82,2|0,3:2|3:2,0:0:0:0:
407,172,5989,2,0,P|394:133|399:92,1,82,10|8,0:2|0:2,0:0:0:0:
211,34,6676,5,0,3:2:0:0:
152,113,6905,2,0,P|140:159|163:182,1,82,2|2,0:2|0:2,0:2:0:0:
247,134,7363,2,0,P|258:172|253:213,1,82,2|0,3:2|3:2,0:0:0:0:
177,275,7821,2,0,P|136:273|99:255,1,82,2|8,0:2|0:2,0:0:0:0:
130,63,8508,5,2,3:2:0:0:
150,60,8622,1,2,0:2:0:0:
170,58,8737,1,2,0:2:0:0:
190,56,8851,1,2,0:2:0:0:
210,54,8966,2,0,P|256:64|288:84,1,82,2|2,0:2|3:2,0:2:0:0:
339,163,9424,1,2,3:2:0:0:
326,260,9653,1,10,0:2:0:0:
252,323,9882,1,10,0:2:0:0:
252,323,9996,1,2,0:2:0:0:
252,323,10111,1,2,0:2:0:0:
106,282,10340,6,0,P|118:328|95:351,2,82,4|2|2,3:2|0:2|0:2,0:2:0:0:
9,303,11027,2,0,P|8:263|24:226,1,82,2|0,3:2|3:2,0:0:0:0:
116,189,11485,2,0,P|154:201|183:228,1,82,2|8,0:2|0:2,0:0:0:0:
202,33,12172,5,0,3:2:0:0:
104,28,12401,2,0,P|92:74|115:97,1,82,2|2,0:2|0:2,0:2:0:0:
205,130,12859,2,0,P|244:120|277:95,1,82,2|0,3:2|3:2,0:0:0:0:
336,17,13317,2,0,P|376:19|417:20,1,82,8|8,0:2|0:2,0:0:0:0:
445,215,14004,5,0,3:2:0:0:
494,300,14233,2,0,P|462:324|425:310,1,82,2|2,0:2|0:2,0:2:0:0:
350,245,14691,2,0,P|310:246|272:261,1,82,2|0,3:2|3:2,0:0:0:0:
208,336,15149,2,0,P|163:330|124:320,1,82,2|8,0:2|0:2,0:0:0:0:
23,153,15836,5,2,3:2:0:0:
42,156,15950,1,2,0:2:0:0:
61,160,16065,1,2,0:2:0:0:
80,163,16179,1,2,0:2:0:0:
100,167,16294,2,0,L|141:174,3,41,2|2|2|2,0:2|0:2|3:2|0:2,0:0:0:0:
172,155,16752,2,0,L|213:162,3,41,2|0|10|0,3:2|0:2|0:2|0:2,0:2:0:0:
252,152,17210,1,10,0:2:0:0:
252,152,17324,1,2,0:2:0:0:
252,152,17439,1,2,0:2:0:0:
365,27,17668,6,0,P|363:67|371:116,1,90.2000027526856,6|2,3:2|0:2,0:2:0:0:
447,180,18126,1,10,0:2:0:0:
461,278,18355,2,0,B|413:292|374:265|385:253|337:225|291:244,1,180.400005505371,2|2,3:2|3:2,0:2:0:0:
228,320,19042,1,8,0:2:0:0:
84,345,19271,5,2,0:2:0:0:
84,345,19386,1,2,0:2:0:0:
84,345,19500,2,0,P|90:300|88:255,1,90.2000027526856,2|2,3:2|0:2,0:0:0:0:
75,157,19958,1,10,0:2:0:0:
30,68,20187,2,0,P|112:73|220:95,1,180.400005505371,2|2,3:2|3:2,0:2:0:0:
289,147,20874,2,0,P|321:117|364:106,1,90.2000027526856,10|0,0:2|0:2,0:2:0:0:
456,67,21332,6,0,P|466:110|454:153,1,90.2000027526856,6|0,3:2|0:2,0:2:0:0:
367,200,21790,1,10,0:2:0:0:
451,251,22019,2,0,P|421:284|379:299,1,90.2000027526856,6|0,3:2|0:2,0:2:0:0:
285,266,22477,1,2,3:2:0:0:
161,321,22706,6,0,P|189:352|202:314,1,98.3999969970704,10|0,0:2|0:0,0:2:0:0:
152,180,23164,6,0,L|158:224,2,45.1000013763428,6|2|2,3:2|0:2|0:2,0:0:0:0:
229,118,23622,5,14,0:2:0:0:
233,141,23737,1,2,0:2:0:0:
237,164,23851,1,2,0:2:0:0:
322,150,24080,6,0,L|328:194,2,45.1000013763428,6|2|2,3:2|0:2|0:2,0:0:0:0:
405,96,24538,5,14,0:2:0:0:
409,119,24653,1,2,0:2:0:0:
413,142,24767,1,2,3:2:0:0:
481,219,24996,6,0,P|443:233|416:264,1,82,4|2,3:2|0:2,0:0:0:0:
378,354,25454,1,10,0:2:0:0:
281,332,25683,2,0,P|199:338|118:352,1,164,2|2,3:2|3:2,0:2:0:0:
37,296,26370,1,8,0:2:0:0:
99,205,26599,5,2,0:2:0:0:
99,205,26714,1,2,0:2:0:0:
99,205,26828,2,0,P|97:164|90:123,1,82,2|2,3:2|0:2,0:2:0:0:
78,26,27286,1,10,0:2:0:0:
175,39,27515,2,0,B|216:22|258:47|250:59|285:82|329:69,1,164,2|2,3:2|3:2,0:2:0:0:
425,49,28202,1,10,0:2:0:0:
490,122,28431,1,2,0:2:0:0:
448,211,28660,6,0,P|408:213|367:219,1,82,0|2,3:2|0:2,0:0:0:0:
278,262,29118,1,10,0:2:0:0:
233,349,29347,2,0,P|191:309|193:206,1,164,2|2,3:2|3:2,0:2:0:0:
251,130,30034,1,8,0:2:0:0:
341,84,30263,5,2,0:2:0:0:
341,84,30378,1,2,0:2:0:0:
341,84,30492,2,0,P|351:119|344:163,1,82,2|2,3:2|0:2,0:2:0:0:
285,241,30950,1,10,0:2:0:0:
191,208,31179,2,0,P|146:201|104:202,1,82,2|2,3:2|0:2,0:0:0:0:
76,211,31523,1,2,0:2:0:0:
76,211,31637,1,2,3:2:0:0:
91,113,31866,1,10,0:2:0:0:
34,32,32095,1,2,0:2:0:0:
179,39,32324,6,0,P|219:47|260:47,1,82,4|2,3:2|0:2,0:0:0:0:
357,35,32782,1,10,0:2:0:0:
440,88,33012,2,0,P|410:164|401:245,1,164,2|2,3:2|3:2,0:2:0:0:
426,340,33699,1,8,0:2:0:0:
298,363,33928,5,2,0:2:0:0:
298,363,34042,1,2,0:2:0:0:
298,362,34157,2,0,P|302:322|288:284,1,82,2|2,3:2|0:2,0:2:0:0:
219,213,34615,1,10,0:2:0:0:
233,115,34844,2,0,B|192:98|150:123|158:135|123:158|79:145,1,164,2|2,3:2|3:2,0:2:0:0:
24,227,35531,5,10,0:2:0:0:
60,317,35760,2,0,P|141:323|222:337,1,164,2|2,0:2|0:2,0:2:0:0:
319,355,36447,1,10,0:2:0:0:
416,366,36676,2,0,P|391:293|315:256,1,164,2|2,3:2|3:2,0:2:0:0:
218,248,37363,2,0,P|228:208|253:176,1,82,10|2,0:2|0:2,0:0:0:0:
349,152,37821,5,2,3:2:0:0:
293,70,38050,1,2,0:2:0:0:
195,80,38279,1,10,0:2:0:0:
151,168,38508,2,0,P|111:176|71:179,1,82,2|2,3:2|0:2,0:0:0:0:
37,188,38851,1,2,0:2:0:0:
37,188,38966,1,2,3:2:0:0:
20,284,39195,2,0,P|60:284|101:290,1,82,8|0,0:2|0:2,0:0:0:0:
238,358,39653,6,0,P|233:285|235:211,1,147.599995495606,6|0,3:2|0:2,0:2:0:0:
247,123,40340,1,2,3:2:0:0:
302,54,40569,2,0,P|332:99|331:153,1,110.699996621704,2|0,3:2|0:2,0:2:0:0:
317,184,41027,2,0,P|314:220|324:256,1,73.7999977478028,10|2,0:2|0:2,0:2:0:0:
412,263,41485,6,0,P|378:326|308:342,1,147.599995495606,0|0,3:2|0:2,0:2:0:0:
239,286,42172,1,2,3:2:0:0:
150,286,42401,2,0,P|98:305|58:343,1,110.699996621704,2|0,3:2|0:2,0:2:0:0:
28,356,42859,2,0,P|26:320|23:283,1,73.7999977478028,10|0,0:2|0:2,0:2:0:0:
19,159,43317,6,0,P|75:203|146:191,1,147.599995495606,6|0,3:2|0:2,0:2:0:0:
188,113,44004,1,2,3:2:0:0:
250,49,44233,2,0,P|201:24|147:31,1,110.699996621704,2|0,3:2|0:2,0:2:0:0:
120,50,44691,2,0,P|100:83|96:118,1,73.7999977478028,10|2,0:2|0:2,0:2:0:0:
146,190,45149,6,0,P|159:263|160:337,1,147.599995495606,2|0,3:2|0:2,0:2:0:0:
247,354,45836,1,0,3:2:0:0:
318,302,46065,2,0,P|354:305|391:311,1,73.7999977478028,2|2,3:2|0:2,0:0:0:0:
469,352,46523,2,0,P|478:316|473:280,1,73.7999977478028,10|2,0:2|0:2,0:0:0:0:
505,149,46981,6,0,B|467:145|435:164|447:174|407:195|366:182,1,147.599995495606,6|0,3:2|0:2,0:2:0:0:
282,152,47668,1,2,3:2:0:0:
292,64,47897,2,0,P|236:74|195:122,1,110.699996621704,2|0,3:2|0:2,0:2:0:0:
195,145,48355,2,0,P|203:180|207:217,1,73.7999977478028,10|2,0:2|0:2,0:2:0:0:
277,272,48813,6,0,P|207:306|145:281,1,147.599995495606,2|0,3:2|0:2,0:2:0:0:
121,196,49500,1,2,3:2:0:0:
48,145,49729,2,0,P|22:98|15:42,1,110.699996621704,2|0,3:2|0:2,0:2:0:0:
35,11,50187,6,0,P|95:22|156:26,1,123,10|0,3:2|0:2,0:2:0:0:
193,28,50645,1,6,3:2:0:0:
373,106,51103,5,10,3:2:0:0:
335,16,51332,2,0,P|282:70|286:153,1,164,6|2,3:2|3:2,0:0:0:0:
369,206,52019,1,10,0:2:0:0:
350,319,52248,6,0,P|269:311|189:293,1,164,6|4,3:2|3:2,0:2:0:0:
108,236,52935,1,0,3:2:0:0:
117,138,53164,1,4,3:2:0:0:
206,97,53393,1,0,3:2:0:0:
286,153,53622,1,4,3:2:0:0:
286,153,53737,1,0,3:2:0:0:
286,153,53851,1,4,3:2:0:0:
278,251,54080,1,4,3:2:0:0:
190,294,54309,6,0,P|135:237|58:254,1,164,4|2,3:2|0:2,0:2:0:0:
58,253,55683,1,2,0:2:0:0:
125,66,56141,6,0,B|168:79|215:56|191:42|245:12|294:30,1,180.400005505371,6|8,3:2|0:2,0:2:0:0:
389,79,56828,1,2,0:2:0:0:
487,33,57057,2,0,P|498:76|490:120,1,90.2000027526856,2|0,3:2|3:2,0:0:0:0:
403,184,57515,1,8,0:2:0:0:
305,137,57744,1,2,0:2:0:0:
293,29,57973,6,0,P|216:75|200:161,1,180.400005505371,2|8,3:2|0:2,0:2:0:0:
269,241,58660,1,2,0:2:0:0:
278,348,58889,2,0,P|235:337|190:331,1,90.2000027526856,2|0,3:2|3:2,0:0:0:0:
82,342,59347,1,8,0:2:0:0:
37,243,59576,1,2,0:2:0:0:
109,164,59805,6,0,P|153:159|198:157,1,90.2000027526856,2|2,3:2|0:2,0:2:0:0:
306,168,60263,1,10,0:2:0:0:
238,252,60492,2,0,P|242:296|264:335,1,90.2000027526856,2|0,0:2|3:2,0:2:0:0:
370,358,60950,1,0,3:2:0:0:
463,303,61179,5,10,0:2:0:0:
447,195,61408,1,2,0:2:0:0:
431,87,61637,2,0,P|388:99|354:129,1,90.2000027526856,2|0,3:2|0:2,0:2:0:0:
332,164,61981,1,2,0:2:0:0:
332,164,62095,2,0,P|295:189|250:196,1,90.2000027526856,10|2,0:0|0:2,0:0:0:0:
175,118,62553,5,2,3:2:0:0:
130,216,62782,1,2,3:2:0:0:
66,141,63012,1,10,0:2:0:0:
66,141,63126,1,2,0:2:0:0:
66,141,63241,1,2,0:2:0:0:
15,283,63470,6,0,P|107:293|195:311,1,180.400005505371,6|8,3:2|0:2,0:2:0:0:
297,337,64157,1,2,0:2:0:0:
372,259,64386,2,0,P|373:209|392:159,1,90.2000027526856,2|0,3:2|3:2,0:0:0:0:
491,151,64844,1,8,0:2:0:0:
415,73,65073,1,2,0:2:0:0:
307,88,65302,6,0,B|264:75|217:98|241:112|187:142|138:124,1,180.400005505371,2|8,3:2|0:2,0:2:0:0:
56,52,65989,1,2,0:2:0:0:
18,153,66218,2,0,P|9:201|25:263,1,90.2000027526856,2|0,3:2|3:2,0:0:0:0:
79,328,66676,5,10,0:2:0:0:
186,316,66905,1,2,0:2:0:0:
230,216,67134,2,0,P|299:217|366:225,1,135.300004129028,6|0,3:2|0:2,0:2:0:0:
405,233,67592,1,10,0:2:0:0:
483,123,67821,6,0,P|417:115|372:67,1,135.300004129028,6|0,3:2|0:2,0:2:0:0:
356,29,68279,1,2,3:2:0:0:
279,105,68508,1,8,0:2:0:0:
135,44,68737,6,0,P|146:133|148:223,1,180.400005505371,6|0,3:2|3:2,0:2:0:0:
244,273,69424,1,4,3:2:0:0:
326,203,69653,1,0,3:2:0:0:
279,105,69882,1,4,3:2:0:0:
171,118,70111,1,4,3:2:0:0:
147,223,70340,6,0,P|152:267|153:312,1,90.2000027526856,2|2,3:2|3:2,0:2:0:0:
156,352,70683,1,0,3:2:0:0:
156,352,70798,2,0,P|219:329|285:318,1,135.300004129028,4|0,3:2|0:2,0:2:0:0:
326,320,71256,1,10,0:2:0:0:
462,348,71485,6,0,P|407:288|433:191,1,180.400005505371,4|2,3:2|3:2,0:2:0:0:
510,128,72172,1,10,0:2:0:0:
407,93,72401,1,6,3:2:0:0:
326,165,72630,2,0,P|282:172|237:173,1,90.2000027526856,2|0,0:2|3:2,0:2:0:0:
144,115,73088,5,10,0:2:0:0:
108,12,73317,2,0,P|67:32|42:69,1,90.2000027526856,2|6,0:2|3:2,0:2:0:0:
59,175,73775,1,6,3:2:0:0:
141,224,74004,6,0,P|98:259|43:269,1,110.699996621704,0|0,3:2|0:2,0:2:0:0:
6,281,74462,6,0,P|50:286|92:303,1,90.2000027526856,6|2,3:2|0:2,0:2:0:0:
168,366,74920,1,10,0:2:0:0:
249,309,75149,2,0,P|241:220|243:130,1,180.400005505371,2|2,3:2|3:2,0:2:0:0:
264,32,75836,1,8,0:2:0:0:
397,14,76065,5,2,0:2:0:0:
397,14,76179,1,2,0:2:0:0:
396,14,76294,2,0,P|369:49|360:96,1,90.2000027526856,2|2,3:2|0:2,0:0:0:0:
429,163,76752,1,10,0:2:0:0:
456,258,76981,2,0,B|411:273|364:250|381:236|336:207|286:226,1,180.400005505371,2|2,3:2|3:2,0:2:0:0:
212,293,77668,2,0,P|169:303|124:309,1,90.2000027526856,10|0,0:2|0:2,0:2:0:0:
43,366,78126,6,0,P|27:323|32:278,1,90.2000027526856,0|2,3:2|0:2,0:2:0:0:
81,193,78584,1,10,0:2:0:0:
63,95,78813,2,0,P|146:120|180:200,1,180.400005505371,2|2,3:2|3:2,0:2:0:0:
151,295,79500,1,8,0:2:0:0:
268,346,79729,5,2,0:2:0:0:
268,346,79844,1,2,0:2:0:0:
268,346,79958,2,0,P|264:301|268:256,1,90.2000027526856,2|2,3:2|0:2,0:0:0:0:
283,158,80416,1,10,0:2:0:0:
228,75,80645,2,0,P|269:57|313:62,1,90.2000027526856,2|2,3:2|0:2,0:0:0:0:
397,114,81103,1,2,3:2:0:0:
492,75,81332,1,10,0:2:0:0:
492,75,81447,1,2,0:2:0:0:
492,75,81561,1,2,0:2:0:0:
454,197,81790,6,0,P|412:214|368:209,1,90.2000027526856,0|2,3:2|0:2,0:2:0:0:
283,158,82248,1,10,0:2:0:0:
296,59,82477,2,0,B|251:44|204:67|221:81|176:110|126:91,1,180.400005505371,2|2,3:2|3:2,0:2:0:0:
35,51,83164,1,8,0:2:0:0:
27,167,83393,5,2,0:2:0:0:
27,167,83508,1,2,0:2:0:0:
27,167,83622,2,0,P|50:205|59:249,1,90.2000027526856,2|2,3:2|0:2,0:0:0:0:
63,348,84080,1,10,0:2:0:0:
154,311,84309,2,0,P|243:294|333:291,1,180.400005505371,2|2,3:2|3:2,0:2:0:0:
422,335,84996,2,0,P|422:289|427:245,1,90.2000027526856,10|0,0:2|0:2,0:2:0:0:
511,192,85454,6,0,P|480:159|437:145,1,90.2000027526856,6|0,3:2|0:2,0:2:0:0:
347,185,85912,1,10,0:2:0:0:
347,85,86141,2,0,P|302:91|267:118,1,90.2000027526856,6|0,3:2|0:2,0:2:0:0:
252,215,86599,1,2,3:2:0:0:
317,330,86828,6,0,P|348:302|310:289,1,98.3999969970704,10|0,0:2|0:0,0:2:0:0:
222,331,87286,6,0,L|177:337,2,45.1000013763428,6|2|2,3:2|0:2|0:2,0:0:0:0:
114,262,87744,5,14,0:2:0:0:
137,258,87859,1,2,0:2:0:0:
160,254,87973,1,2,0:2:0:0:
192,161,88202,6,0,L|147:167,2,45.1000013763428,6|2|2,3:2|0:2|0:2,0:0:0:0:
92,86,88660,5,14,0:2:0:0:
115,82,88775,1,2,0:2:0:0:
138,78,88889,1,2,3:2:0:0:
245,62,89118,5,4,0:2:0:0:
275,145,89347,2,0,P|306:126|329:98,1,73.7999977478028,2|10,0:2|0:2,0:2:0:0:
369,19,89805,2,0,P|440:7|499:49,1,147.599995495606,2|2,0:2|0:2,0:2:0:0:
506,137,90492,1,8,0:2:0:0:
473,219,90721,6,0,B|435:216|405:233|413:245|376:263|334:252,1,147.599995495606,2|2,0:2|0:2,0:0:0:0:
248,227,91408,1,10,0:2:0:0:
216,144,91637,2,0,P|164:194|168:265,1,147.599995495606,2|0,0:2|0:2,0:0:0:0:
233,340,92324,5,8,3:2:0:0:
331,346,92553,1,0,3:2:0:0:
409,285,92782,2,0,P|409:245|414:204,1,82,0|2,3:2|0:2,0:0:0:0:
435,107,93241,1,10,0:2:0:0:
451,10,93470,2,0,B|410:-7|368:18|376:30|341:53|297:40,1,164,2|2,3:2|3:2,0:2:0:0:
201,13,94157,1,8,0:2:0:0:
143,94,94386,5,2,0:2:0:0:
143,94,94500,1,2,0:2:0:0:
143,94,94615,2,0,P|163:128|169:169,1,82,2|2,3:2|0:2,0:2:0:0:
128,258,95073,1,10,0:2:0:0:
69,337,95302,2,0,P|106:353|146:354,1,82,2|2,3:2|0:2,0:0:0:0:
185,347,95645,1,2,0:2:0:0:
185,347,95760,1,2,3:2:0:0:
273,303,95989,1,10,0:2:0:0:
358,351,96218,1,2,0:2:0:0:
458,262,96447,6,0,P|452:222|451:181,1,82,4|2,3:2|0:2,0:0:0:0:
458,83,96905,1,10,0:2:0:0:
375,28,97134,2,0,P|293:35|212:49,1,164,2|2,3:2|3:2,0:2:0:0:
119,80,97821,1,8,0:2:0:0:
41,172,98050,5,2,0:2:0:0:
41,172,98164,1,2,0:2:0:0:
41,171,98279,2,0,P|81:174|118:192,1,82,2|2,3:2|0:2,0:2:0:0:
185,264,98737,1,10,0:2:0:0:
165,359,98966,2,0,P|243:342|281:272,1,164,2|2,3:2|3:2,0:2:0:0:
270,174,99653,5,10,0:2:0:0:
249,77,99882,2,0,B|290:60|332:85|324:97|359:120|403:107,1,164,2|2,0:2|0:2,0:2:0:0:
498,81,100569,1,10,0:2:0:0:
472,176,100798,2,0,P|460:257|460:339,1,164,2|2,3:2|3:2,0:2:0:0:
363,359,101485,2,0,P|329:338|289:330,1,82,10|2,0:2|0:2,0:0:0:0:
192,348,101943,5,2,3:2:0:0:
101,308,102172,1,2,0:2:0:0:
89,210,102401,1,10,0:2:0:0:
164,146,102630,2,0,P|204:146|245:151,1,82,2|2,3:2|0:2,0:0:0:0:
282,156,102973,1,2,0:2:0:0:
282,156,103088,1,2,3:2:0:0:
278,254,103317,2,0,P|296:290|327:314,1,82,8|0,0:2|0:2,0:0:0:0:
459,349,103775,6,0,P|450:275|451:202,1,147.599995495606,6|0,3:2|0:2,0:2:0:0:
476,117,104462,1,2,3:2:0:0:
477,28,104691,2,0,P|424:42|391:84,1,110.699996621704,2|0,3:2|0:2,0:2:0:0:
383,118,105149,2,0,P|367:150|339:177,1,73.7999977478028,10|2,0:2|0:2,0:2:0:0:
287,246,105607,6,0,P|253:186|282:113,1,147.599995495606,0|0,3:2|0:2,0:2:0:0:
241,35,106294,1,2,3:2:0:0:
158,67,106523,2,0,P|93:58|47:30,1,110.699996621704,2|0,3:2|0:2,0:2:0:0:
24,20,106981,2,0,P|26:56|24:93,1,73.7999977478028,10|0,0:2|0:2,0:2:0:0:
3,214,107439,6,0,B|41:210|73:229|61:239|101:260|142:247,1,147.599995495606,6|0,3:2|0:2,0:2:0:0:
223,211,108126,1,2,3:2:0:0:
241,124,108355,2,0,P|289:147|314:195,1,110.699996621704,2|0,3:2|0:2,0:2:0:0:
318,229,108813,2,0,P|303:262|278:289,1,73.7999977478028,10|2,0:2|0:0,0:2:0:0:
188,296,109271,6,0,P|140:243|139:171,1,147.599995495606,2|0,3:2|0:0,0:2:0:0:
152,83,109958,1,0,3:2:0:0:
237,59,110187,2,0,P|273:59|310:65,1,73.7999977478028,2|2,3:2|0:2,0:0:0:0:
397,48,110645,2,0,P|399:84|386:118,1,73.7999977478028,10|2,0:2|0:2,0:0:0:0:
287,202,111103,6,0,P|359:215|433:221,1,147.599995495606,6|0,3:2|0:2,0:2:0:0:
480,296,111790,1,2,3:2:0:0:
418,360,112019,2,0,P|372:328|319:319,1,110.699996621704,2|0,3:2|0:2,0:2:0:0:
289,333,112477,2,0,P|258:352|221:357,1,73.7999977478028,10|2,0:2|0:2,0:2:0:0:
147,309,112935,6,0,P|146:237|199:189,1,147.599995495606,2|0,3:2|0:2,0:2:0:0:
287,202,113622,1,2,3:2:0:0:
337,273,113851,2,0,P|387:298|441:309,1,110.699996621704,2|0,3:2|0:2,0:2:0:0:
477,313,114309,6,0,P|478:252|491:192,1,123,10|0,3:2|0:2,0:2:0:0:
508,159,114767,1,6,3:2:0:0:
354,36,115225,5,10,3:2:0:0:
444,76,115454,2,0,P|384:129|304:120,1,164,6|2,3:2|3:2,0:0:0:0:
255,36,116141,1,10,0:2:0:0:
139,57,116370,6,0,P|147:138|165:218,1,164,6|4,3:2|3:2,0:2:0:0:
222,299,117057,1,0,3:2:0:0:
320,290,117286,1,4,3:2:0:0:
361,201,117515,1,0,3:2:0:0:
305,121,117744,1,4,3:2:0:0:
305,121,117859,1,0,3:2:0:0:
305,121,117973,1,4,3:2:0:0:
207,129,118202,1,4,3:2:0:0:
164,217,118431,6,0,P|161:296|92:335,1,164,4|0,3:2|0:0,0:2:0:0:
28,163,119347,2,8,B|69:180|111:155|103:143|138:120|182:133,1,164,10|2,0:2|0:2,0:2:0:0:
362,292,120263,6,0,P|288:252|269:163,1,180.400005505371,6|8,3:2|0:2,0:2:0:0:
338,80,120950,1,2,0:2:0:0:
426,18,121179,2,0,P|444:58|442:102,1,90.2000027526856,2|0,3:2|3:2,0:0:0:0:
375,188,121637,1,8,0:2:0:0:
268,163,121866,1,2,0:2:0:0:
238,58,122095,6,0,B|195:45|148:68|172:82|118:112|69:94,1,180.400005505371,2|8,3:2|0:2,0:2:0:0:
15,187,122782,1,2,0:2:0:0:
78,275,123012,2,0,P|122:283|163:301,1,90.2000027526856,2|0,3:2|3:2,0:0:0:0:
244,373,123470,1,8,0:2:0:0:
347,342,123699,1,2,0:2:0:0:
403,249,123928,6,0,P|394:203|406:154,1,90.2000027526856,2|2,3:2|0:2,0:2:0:0:
473,79,124386,1,10,0:2:0:0:
372,38,124615,2,0,P|341:70|299:86,1,90.2000027526856,2|0,0:2|3:2,0:2:0:0:
201,40,125073,1,0,3:2:0:0:
107,93,125302,5,10,0:2:0:0:
96,200,125531,1,2,0:2:0:0:
85,307,125760,2,0,P|129:303|167:280,1,90.2000027526856,2|0,3:2|0:2,0:2:0:0:
200,250,126104,1,2,0:2:0:0:
200,250,126218,2,0,P|233:218|275:200,1,90.2000027526856,10|2,0:0|0:2,0:0:0:0:
352,275,126676,5,2,3:2:0:0:
396,176,126905,1,2,3:2:0:0:
470,268,127134,1,10,0:2:0:0:
470,268,127248,1,2,0:2:0:0:
470,268,127363,1,2,0:2:0:0:
505,116,127592,6,0,P|417:99|327:95,1,180.400005505371,6|8,3:2|0:2,0:2:0:0:
218,106,128279,1,2,0:2:0:0:
128,44,128508,2,0,P|111:84|111:132,1,90.2000027526856,2|0,3:2|3:2,0:0:0:0:
176,216,128966,1,8,0:2:0:0:
282,196,129195,1,2,0:2:0:0:
326,95,129424,6,0,P|383:155|379:250,1,180.400005505371,2|8,3:2|0:2,0:2:0:0:
311,331,130111,1,2,0:2:0:0:
208,296,130340,2,0,P|164:300|119:307,1,90.2000027526856,2|0,3:2|3:2,0:0:0:0:
26,363,130798,1,10,0:2:0:0:
25,254,131027,1,2,0:2:0:0:
110,187,131256,6,0,P|178:194|244:206,1,135.300004129028,6|0,3:2|0:2,0:2:0:0:
284,212,131714,1,10,0:2:0:0:
376,122,131943,6,0,P|373:188|416:237,1,135.300004129028,6|0,3:2|0:2,0:2:0:0:
456,245,132401,1,2,3:2:0:0:
472,351,132630,1,8,0:2:0:0:
335,309,132859,6,0,P|246:298|156:296,1,180.400005505371,6|0,3:2|3:2,0:2:0:0:
106,200,133546,1,4,3:2:0:0:
176,118,133775,1,0,3:2:0:0:
274,165,134004,1,4,3:2:0:0:
261,273,134233,1,4,3:2:0:0:
154,296,134462,6,0,P|109:291|64:289,1,90.2000027526856,2|2,3:2|3:2,0:2:0:0:
27,292,134805,1,0,3:2:0:0:
26,292,134920,2,0,P|44:226|50:159,1,135.300004129028,4|0,3:2|0:2,0:2:0:0:
48,118,135378,1,10,0:2:0:0:
143,18,135607,6,0,P|227:37|261:117,1,180.400005505371,4|2,3:2|3:2,0:2:0:0:
206,211,136294,1,10,0:2:0:0:
314,211,136523,1,6,3:2:0:0:
357,111,136752,2,0,P|394:134|418:172,1,90.2000027526856,2|0,0:2|3:2,0:2:0:0:
422,281,137210,5,10,0:2:0:0:
325,330,137439,2,0,P|281:324|236:322,1,90.2000027526856,2|6,0:2|3:2,0:2:0:0:
129,345,137897,1,6,3:2:0:0:
77,249,138126,5,2,3:2:0:0:
79,226,138241,1,2,0:2:0:0:
81,203,138355,1,2,0:2:0:0:
84,180,138470,1,2,0:2:0:0:
85,157,138584,2,0,P|106:117|148:91,1,90.2000027526856,6|0,3:2|0:0,0:2:0:0:
250,84,139042,5,10,0:2:0:0:
345,28,139271,1,0,0:2:0:0:
345,28,139386,1,0,3:2:0:0:
344,27,139500,2,0,P|362:68|360:113,1,90.2000027526856,2|0,3:2|0:2,0:0:0:0:
283,189,139958,2,0,P|268:231|275:275,1,90.2000027526856,10|0,0:2|0:2,0:2:0:0:
363,337,140416,2,0,P|406:328|441:300,1,90.2000027526856,2|0,3:2|0:2,0:2:0:0:
458,264,140760,1,2,0:2:0:0:
458,264,140874,1,8,0:2:0:0:
451,152,141103,6,0,B|408:139|361:162|385:176|331:206|282:188,1,180.400005505371,2|2,0:2|0:2,0:0:0:0:
193,126,141790,1,10,0:2:0:0:
173,19,142019,2,0,P|131:36|100:67,1,90.2000027526856,2|0,0:2|3:2,0:0:0:0:
100,176,142477,1,2,0:2:0:0:
66,278,142706,6,0,P|110:277|155:280,1,90.2000027526856,10|2,0:2|0:2,0:2:0:0:
200,290,143050,1,0,3:2:0:0:
200,290,143164,2,0,P|243:299|286:313,1,90.2000027526856,2|2,3:2|0:2,0:0:0:0:
378,371,143622,2,0,P|393:330|389:285,1,90.2000027526856,10|2,0:2|0:2,0:0:0:0:
305,214,144080,6,0,P|290:173|294:128,1,90.2000027526856,2|0,3:2|0:2,0:2:0:0:
316,95,144424,1,2,0:2:0:0:
316,95,144538,1,8,0:2:0:0:
394,10,144767,2,0,P|303:13|214:21,1,180.400005505371,2|2,0:2|0:2,0:0:0:0:
114,46,145454,1,10,0:2:0:0:
114,46,145569,1,2,0:2:0:0:
114,46,145683,1,2,0:2:0:0:
88,151,145912,5,4,3:2:0:0:
92,259,146141,2,0,P|48:253|11:229,2,90.2000027526856,2|10|2,0:2|0:2|0:2,0:0:0:0:
176,190,146828,1,2,3:2:0:0:
282,173,147057,1,2,0:2:0:0:
376,226,147286,1,10,0:2:0:0:
437,315,147515,2,0,P|481:240|456:157,1,180.400005505371,2|2,0:2|0:2,0:0:0:0:
365,95,148202,5,10,0:2:0:0:
265,84,148431,1,2,0:2:0:0:
265,84,148546,1,0,3:2:0:0:
265,84,148660,1,0,3:2:0:0:
174,142,148889,2,0,P|180:186|184:231,1,90.2000027526856,2|10,0:2|0:2,0:0:0:0:
241,323,149347,1,2,0:2:0:0:
338,369,149576,6,0,P|349:325|341:281,1,90.2000027526856,6|0,3:2|0:2,0:2:0:0:
256,214,150034,1,10,0:2:0:0:
351,164,150263,2,0,P|322:129|281:110,1,90.2000027526856,6|0,3:2|0:2,0:2:0:0:
174,142,150721,1,2,3:2:0:0:
80,196,150950,2,0,P|111:231|149:249,1,90.2000027526856,10|2,0:2|0:2,0:2:0:0:
304,253,151408,6,0,L|337:297,2,45.1000013763428,6|2|2,3:2|0:2|0:2,0:0:0:0:
310,144,151866,6,0,L|354:111,2,45.1000013763428,14|2|2,0:2|0:2|0:2,0:0:0:0:
202,131,152324,6,0,L|169:87,2,45.1000013763428,6|2|2,3:2|0:2|0:2,0:0:0:0:
185,237,152782,6,0,L|142:271,2,45.1000013763428,14|2|2,0:2|0:2|0:2,0:0:0:0:
202,131,153241,5,6,3:2:0:0:
202,131,153355,1,2,0:2:0:0:
202,131,153470,1,2,0:2:0:0:
310,144,153699,5,14,0:2:0:0:
310,144,153813,1,2,0:2:0:0:
310,144,153928,1,2,0:2:0:0:
304,253,154157,5,6,3:2:0:0:
304,253,154271,1,2,0:2:0:0:
304,253,154386,1,2,0:2:0:0:
185,237,154615,5,14,0:2:0:0:
185,237,154729,1,2,0:2:0:0:
185,237,154844,1,2,0:2:0:0:
46,202,155073,6,0,P|53:158|55:113,1,90.2000027526856,6|0,3:2|0:2,0:2:0:0:
11,13,155531,2,0,P|55:5|99:13,1,90.2000027526856,8|0,0:2|0:2,0:2:0:0:
139,33,155874,1,0,3:2:0:0:
139,33,155989,2,0,P|182:43|227:42,1,90.2000027526856,0|0,3:2|0:2,0:0:0:0:
335,30,156447,1,8,0:2:0:0:
419,97,156676,6,0,B|445:142|427:183,1,90.2000027526856,2|0,0:2|3:2,0:2:0:0:
342,243,157134,2,0,B|289:242|262:207,1,90.2000027526856,2|8,0:2|0:2,0:2:0:0:
209,113,157592,6,0,P|157:178|172:270,1,180.400005505371,2|0,0:2|0:0,0:0:0:0:
265,322,158279,1,10,0:2:0:0:
169,373,158508,1,2,0:2:0:0:
72,323,158737,6,0,P|72:277|64:233,1,90.2000027526856,4|0,3:2|0:2,0:2:0:0:
7,141,159195,2,0,P|49:126|94:130,1,90.2000027526856,8|0,0:2|0:2,0:2:0:0:
135,146,159538,1,0,3:2:0:0:
135,146,159653,2,0,P|176:163|221:163,1,90.2000027526856,0|0,3:2|0:2,0:0:0:0:
318,115,160111,1,8,0:2:0:0:
449,66,160340,6,0,P|442:133|443:200,1,135.300004129028,6|0,3:2|0:2,0:2:0:0:
446,241,160798,1,2,3:2:0:0:
482,342,161027,1,8,0:2:0:0:
342,351,161256,6,0,P|312:269|227:253,1,180.400005505371,6|2,0:2|3:2,0:2:0:0:
195,276,161828,1,0,3:2:0:0:
195,276,161943,1,8,3:2:0:0:
78,361,162172,6,0,B|91:318|68:271|54:295|24:241|42:192,1,180.400005505371,6|0,3:2|0:2,0:2:0:0:
107,117,162859,2,0,P|67:96|22:94,2,90.2000027526856,8|0|0,0:2|0:2|3:2,0:2:0:0:
185,177,163546,2,0,P|228:186|272:176,1,90.2000027526856,0|8,0:2|0:2,0:2:0:0:
376,98,164004,6,0,P|365:187|363:277,1,180.400005505371,0|0,3:2|3:2,0:2:0:0:
272,333,164691,1,4,3:2:0:0:
191,261,164920,1,0,3:2:0:0:
232,160,165149,1,4,3:2:0:0:
339,172,165378,1,4,3:2:0:0:
363,277,165607,1,4,3:2:0:0:
272,333,165836,5,4,3:2:0:0:
272,333,165950,1,0,3:2:0:0:
271,333,166065,2,0,P|218:274|139:277,1,164,4|2,3:2|0:2,0:2:0:0:
138,277,167439,1,8,0:2:0:0:
82,195,167668,2,0,L|84:154,2,41,0|0|2,3:2|3:2|3:2,0:0:0:0:
277,91,174309,5,10,0:2:0:0:
367,132,174538,1,8,0:2:0:0:
442,67,174767,1,2,0:2:0:0:
442,67,174882,1,2,0:2:0:0:
442,67,174996,1,2,0:2:0:0:
507,182,175225,6,0,B|464:169|417:192|441:206|387:236|338:218,1,180.400005505371,6|8,3:2|0:2,0:2:0:0:
233,190,175912,1,2,0:2:0:0:
162,107,176141,2,0,P|134:142|126:186,1,90.2000027526856,2|0,3:2|3:2,0:0:0:0:
179,280,176599,1,8,0:2:0:0:
118,369,176828,1,2,0:2:0:0:
21,320,177057,6,0,P|27:230|24:140,1,180.400005505371,2|8,3:2|0:2,0:2:0:0:
13,32,177744,1,2,0:2:0:0:
118,56,177973,2,0,P|163:57|207:61,1,90.2000027526856,2|0,3:2|3:2,0:0:0:0:
277,143,178431,1,10,0:2:0:0:
384,128,178660,1,2,0:2:0:0:
431,30,178889,6,0,P|483:73|494:138,1,135.300004129028,6|0,3:2|0:2,0:2:0:0:
483,176,179347,1,10,0:2:0:0:
505,281,179576,6,0,P|438:270|370:268,1,135.300004129028,6|0,3:2|0:2,0:2:0:0:
330,272,180034,1,2,3:2:0:0:
251,346,180263,1,8,0:2:0:0:
97,331,180492,6,0,P|100:241|94:151,1,180.400005505371,6|0,3:2|3:2,0:2:0:0:
185,93,181179,1,4,3:2:0:0:
273,155,181408,1,0,3:2:0:0:
235,257,181637,1,4,3:2:0:0:
126,254,181866,1,4,3:2:0:0:
95,151,182095,6,0,P|95:106|91:62,1,90.2000027526856,2|2,3:2|3:2,0:2:0:0:
91,25,182439,1,0,3:2:0:0:
91,25,182553,2,0,P|157:38|224:40,1,135.300004129028,4|0,3:2|0:2,0:2:0:0:
265,37,183012,1,10,0:2:0:0:
406,26,183241,6,0,P|346:88|368:172,1,180.400005505371,4|2,3:2|3:2,0:2:0:0:
470,205,183928,1,10,0:2:0:0:
390,277,184157,1,6,3:2:0:0:
289,237,184386,6,0,P|241:237|202:261,1,90.2000027526856,2|0,0:2|3:2,0:2:0:0:
150,350,184844,1,10,0:2:0:0:
42,334,185073,2,0,P|44:288|40:244,1,90.2000027526856,2|6,0:2|3:2,0:2:0:0:
28,136,185531,1,6,3:2:0:0:
51,43,185760,6,0,P|97:70|121:119,1,110.699996621704,0|0,3:2|0:2,0:2:0:0:
119,160,186218,6,0,B|162:147|209:170|185:184|239:214|288:196,1,180.400005505371,6|8,3:2|0:2,0:2:0:0:
392,167,186905,1,2,0:2:0:0:
452,76,187134,2,0,P|409:59|366:61,1,90.2000027526856,2|0,3:2|3:2,0:0:0:0:
262,94,187592,1,8,0:2:0:0:
287,196,187821,1,2,0:2:0:0:
370,265,188050,6,0,P|292:303|208:272,1,180.400005505371,2|8,3:2|0:2,0:2:0:0:
179,168,188737,1,2,0:2:0:0:
262,94,188966,2,0,P|228:69|182:56,1,90.2000027526856,2|0,3:2|3:2,0:0:0:0:
80,91,189424,1,8,0:2:0:0:
67,198,189653,1,2,0:2:0:0:
124,289,189882,6,0,P|169:292|213:300,1,90.2000027526856,2|2,3:2|0:2,0:2:0:0:
304,358,190340,1,10,0:2:0:0:
368,270,190569,2,0,P|362:226|362:181,1,90.2000027526856,2|0,0:2|3:2,0:2:0:0:
414,85,191027,1,0,3:2:0:0:
333,12,191256,5,10,0:2:0:0:
228,39,191485,1,2,0:2:0:0:
124,70,191714,2,0,P|126:114|148:153,1,90.2000027526856,2|0,3:2|0:2,0:2:0:0:
182,181,192058,1,2,0:2:0:0:
182,181,192172,2,0,P|211:216|228:258,1,90.2000027526856,10|2,0:0|0:2,0:0:0:0:
174,350,192630,5,2,3:2:0:0:
113,260,192859,1,2,3:2:0:0:
65,360,193088,1,10,0:2:0:0:
65,360,193202,1,2,0:2:0:0:
65,360,193317,1,2,0:2:0:0:
22,200,193546,6,0,P|90:156|181:179,1,180.400005505371,6|8,3:2|0:2,0:2:0:0:
268,244,194233,1,2,0:2:0:0:
372,214,194462,2,0,P|378:256|364:300,1,90.2000027526856,2|0,3:2|3:2,0:0:0:0:
266,346,194920,1,8,0:2:0:0:
176,285,195149,1,2,0:2:0:0:
181,180,195378,6,0,B|138:167|91:190|115:204|61:234|12:216,1,180.400005505371,2|8,3:2|0:2,0:2:0:0:
30,109,196065,1,2,0:2:0:0:
120,50,196294,2,0,P|165:51|209:56,1,90.2000027526856,2|0,3:2|3:2,0:0:0:0:
278,139,196752,1,10,0:2:0:0:
385,149,196981,1,2,0:2:0:0:
467,79,197210,6,0,P|474:146|475:213,1,135.300004129028,6|0,3:2|0:2,0:2:0:0:
477,254,197668,1,10,0:2:0:0:
395,361,197897,6,0,P|378:297|320:267,1,135.300004129028,6|0,3:2|0:2,0:2:0:0:
280,273,198355,1,2,3:2:0:0:
176,303,198584,1,8,0:2:0:0:
92,195,198813,6,0,P|181:184|271:182,1,180.400005505371,6|0,3:2|3:2,0:2:0:0:
321,86,199500,1,4,3:2:0:0:
251,4,199729,1,0,3:2:0:0:
153,51,199958,1,4,3:2:0:0:
166,159,200187,1,4,3:2:0:0:
272,183,200416,6,0,P|318:182|363:186,1,90.2000027526856,2|2,3:2|3:2,0:2:0:0:
403,190,200760,1,0,3:2:0:0:
403,190,200874,2,0,P|377:127|378:58,1,135.300004129028,4|0,3:2|0:2,0:2:0:0:
392,22,201332,1,10,0:2:0:0:
251,12,201561,6,0,P|213:89|127:96,1,180.400005505371,4|2,3:2|3:2,0:2:0:0:
40,30,202248,1,10,0:2:0:0:
19,136,202477,1,6,3:2:0:0:
102,204,202706,6,0,P|152:211|190:223,1,90.2000027526856,2|0,0:2|3:2,0:2:0:0:
284,275,203164,1,10,0:2:0:0:
291,382,203393,2,0,P|334:373|370:346,1,90.2000027526856,2|6,0:2|3:2,0:2:0:0:
389,239,203851,1,6,3:2:0:0:
336,158,204080,6,0,P|389:144|443:160,1,110.699996621704,0|0,0:2|0:2,0:2:0:0:
482,165,204538,6,0,P|444:140|413:107,1,90.2000027526856,6|2,3:2|0:2,0:2:0:0:
363,21,204996,1,10,0:2:0:0:
276,69,205225,2,0,B|231:54|184:77|201:91|156:120|106:101,1,180.400005505371,2|2,0:2|3:2,0:2:0:0:
27,40,205912,2,0,P|7:79|9:124,1,90.2000027526856,8|0,0:2|0:2,0:2:0:0:
81,192,206370,6,0,P|125:195|170:202,1,90.2000027526856,0|2,3:2|0:2,0:0:0:0:
268,218,206828,1,10,0:2:0:0:
296,120,207057,2,0,P|361:177|354:264,1,180.400005505371,2|2,0:2|3:2,0:2:0:0:
268,313,207744,2,0,P|224:305|188:277,1,90.2000027526856,8|0,0:2|0:2,0:2:0:0:
182,177,208202,6,0,P|185:133|185:88,1,90.2000027526856,0|2,3:2|0:2,0:0:0:0:
265,29,208660,1,10,0:2:0:0:
363,36,208889,2,0,P|364:126|377:215,1,180.400005505371,2|2,0:2|3:2,0:2:0:0:
457,273,209576,2,0,P|423:302|380:314,1,90.2000027526856,8|0,0:2|0:2,0:2:0:0:
294,265,210034,6,0,P|249:261|203:261,1,90.2000027526856,0|2,3:2|0:2,0:0:0:0:
115,306,210492,1,10,0:2:0:0:
19,277,210721,2,0,P|43:233|84:208,1,90.2000027526856,2|2,0:2|3:2,0:0:0:0:
170,182,211179,1,2,3:2:0:0:
197,92,211408,1,10,0:2:0:0:
197,92,211523,1,2,0:2:0:0:
197,92,211637,1,2,0:2:0:0:
86,24,211866,6,0,P|89:69|89:114,1,90.2000027526856,4|2,3:2|0:2,0:2:0:0:
75,211,212324,1,10,0:2:0:0:
146,280,212553,2,0,B|196:299|241:270|224:256|271:233|316:248,1,180.400005505371,2|2,0:2|3:2,0:2:0:0:
390,313,213241,2,0,P|434:313|474:293,1,90.2000027526856,8|0,0:2|0:2,0:2:0:0:
502,198,213699,6,0,P|480:158|443:134,1,90.2000027526856,0|2,3:2|0:2,0:0:0:0:
344,125,214157,1,10,0:2:0:0:
317,29,214386,2,0,P|251:86|255:173,1,180.400005505371,2|2,0:2|3:2,0:2:0:0:
314,247,215073,2,0,P|271:258|228:272,1,90.2000027526856,8|0,0:2|0:2,0:2:0:0:
177,357,215531,6,0,P|144:326|130:283,1,90.2000027526856,6|0,3:2|0:2,0:2:0:0:
170,193,215989,1,10,0:2:0:0:
70,193,216218,2,0,P|76:148|103:113,1,90.2000027526856,6|0,3:2|0:2,0:2:0:0:
201,99,216676,1,2,3:2:0:0:
309,176,216905,6,0,P|281:207|268:169,1,98.3999969970704,8|0,0:0|3:0,0:0:0:0:
310,79,217363,1,4,0:2:0:0:
256,192,217477,12,0,222859,0:2:0:0:
